#TITLE:Whistle;
#SUBTITLE:;
#ARTIST:Dreamcatcher;
#TITLETRANSLIT:;
#SUBTITLETRANSLIT:;
#ARTISTTRANSLIT:;
#GENRE:;
#CREDIT:;
#BANNER:Whistle.png;
#BACKGROUND:Whistle-bg.png;
#LYRICSPATH:;
#CDTITLE:;
#MUSIC:Whistle.ogg;
#OFFSET:0.000219;
#SAMPLESTART:73.540001;
#SAMPLELENGTH:15.000000;
#SELECTABLE:YES;
#DISPLAYBPM:0.000000:132.000000;
#BPMS:0.000000=132.227005
,36.000000=132.000000
;
#STOPS:
;
#BGCHANGES:;
#KEYSOUNDS:;
#ATTACKS:;

//---------------dance-single - ----------------
#NOTES:
     dance-single:
     :
     Hard:
     11:
     0.427940,0.488881,0.047016,0.476875,0.023508,446.000000,439.000000,7.000000,71.000000,0.000000,0.000000,0.427940,0.488881,0.047016,0.476875,0.023508,446.000000,439.000000,7.000000,71.000000,0.000000,0.000000:
// measure 0
0000
0000
0000
0000
,  // measure 1
0000
0000
0000
0000
,  // measure 2
0000
0000
0000
0000
,  // measure 3
0000
0000
0000
0000
,  // measure 4
0000
0000
0000
0000
,  // measure 5
0000
0000
0000
0000
,  // measure 6
0000
0000
0000
0000
,  // measure 7
0000
0000
0000
0000
,  // measure 8
0010
0010
0010
0010
0100
0010
1001
0000
,  // measure 9
0001
0100
0010
1000
0100
1000
0001
0010
,  // measure 10
0100
0010
0001
0100
0010
0100
1000
0000
,  // measure 11
0100
0010
0100
0001
1000
0001
0010
0100
,  // measure 12
1000
0010
0001
0010
0100
0001
0010
0000
,  // measure 13
0001
0100
0010
1000
0100
0010
0100
1000
,  // measure 14
0001
0010
0100
0001
0100
1000
0001
0000
,  // measure 15
1000
0100
1000
0100
0010
0100
0001
0100
,  // measure 16
1000
0000
0100
0000
0010
0000
0001
0000
1000
0000
0010
0100
0010
0000
0000
0000
,  // measure 17
1000
0010
1000
0100
0010
0001
0100
0001
,  // measure 18
2000
0000
3020
0000
1030
0001
0010
0001
,  // measure 19
0200
0000
0320
0000
1030
0000
0100
0020
,  // measure 20
0000
0031
0100
0020
0000
2030
0000
3000
,  // measure 21
0001
0010
0001
0100
0010
1000
0100
1000
,  // measure 22
0002
0000
0023
0000
0130
1000
0001
0010
,  // measure 23
0002
0000
0203
0000
0310
0000
1000
0002
,  // measure 24
0000
0000
0013
0100
1000
0000
0002
0000
0000
0000
1003
0000
0100
0000
0010
0000
,  // measure 25
0001
0100
0010
0100
1000
0100
0010
1000
,  // measure 26
0000
0001
0010
0100
0000
1000
0100
1000
,  // measure 27
0001
0010
0100
0010
1000
0010
0001
1000
,  // measure 28
0000
0001
0100
1000
0000
0100
0010
0100
,  // measure 29
0100
0001
0010
0100
0100
1000
0010
0100
,  // measure 30
0002
0000
0013
0100
0100
1000
0001
0100
,  // measure 31
0020
0000
0031
0000
0010
1000
0001
0020
,  // measure 32
0000
0000
0130
0000
0000
0000
1000
0000
0001
0000
0100
0010
0100
0000
0000
0000
,  // measure 33
0020
0000
0100
0000
,  // measure 34
0100
0000
2030
0000
,  // measure 35
3002
0000
0010
0000
,  // measure 36
0010
0000
0010
0003
,  // measure 37
0001
0100
1000
0100
0001
0100
0010
0000
,  // measure 38
1000
0100
0001
0100
1000
0100
0010
0000
,  // measure 39
0001
0010
0100
1000
0001
0100
0010
1000
,  // measure 40
0100
0100
0100
0100
0010
0100
1001
0000
,  // measure 41
0002
0000
0000
0000
1003
0000
0010
0000
0200
0000
0000
0000
0310
0000
1000
0100
,  // measure 42
0010
0001
0100
0001
1000
0010
0100
1000
,  // measure 43
0200
0000
0000
0000
0301
0000
0010
0000
0020
0000
0000
0000
0130
0000
1000
0001
,  // measure 44
0010
0001
0100
0010
1000
0100
0001
0100
,  // measure 45
0010
0000
0010
0001
0100
0010
1000
0100
,  // measure 46
0020
0000
0130
1000
0001
0100
0010
0000
,  // measure 47
1000
0010
0100
0010
0001
0010
0100
0010
,  // measure 48
1000
0100
0100
0010
0100
1000
0001
0100
,  // measure 49
0010
0000
1000
0002
0000
2003
0000
3200
,  // measure 50
0000
0310
0002
0000
1003
0000
0001
0010
,  // measure 51
0200
0000
1300
0020
0000
0031
0000
0020
,  // measure 52
0000
1030
0100
0020
0000
0130
0001
0100
,  // measure 53
1000
0000
0001
0100
0010
1000
0000
1100
,  // measure 54
0000
0101
0000
0011
0000
1010
0000
2002
,  // measure 55
0000
0000
0000
3003
,  // measure 56
2000
3200
0320
0032
,  // measure 57
0203
0000
0000
0000
0300
0000
0010
0000
2000
0000
0000
0000
3000
0000
0100
1000
,  // measure 58
0001
0010
0001
0100
0010
1000
0001
0010
,  // measure 59
0200
0000
0300
0010
0002
0000
0003
0000
,  // measure 60
1000
0001
0010
0100
1000
0010
0100
0001
,  // measure 61
0020
0000
0030
0001
0010
0100
1000
0001
,  // measure 62
0200
0300
0020
2030
,  // measure 63
0200
0000
0000
0000
,  // measure 64
3000
0000
0300
0000
,  // measure 65
1000
0100
0001
0100
0010
0001
0010
0100
,  // measure 66
1000
0010
0100
1000
0100
0001
1000
0000
,  // measure 67
0001
1000
0010
0001
0010
0100
0001
0010
,  // measure 68
0100
1000
0100
0010
0001
1000
0010
0002
,  // measure 69
0000
0013
0100
0010
2000
0000
3001
0020
,  // measure 70
0000
0130
0000
2000
0000
3002
0000
0203
,  // measure 71
0010
0000
0010
0000
1000
0000
0310
2000
,  // measure 72
0000
3200
0000
0320
0000
0031
1000
0020
,  // measure 73
0000
0130
0010
1000
0200
0000
0301
0200
,  // measure 74
0000
1300
0001
0020
0000
0230
1000
2300
,  // measure 75
0000
3001
0100
0010
2000
0000
3001
0020
,  // measure 76
0000
0130
0010
0002
0000
1003
0010
0002
,  // measure 77
0000
0013
0100
0010
2000
0000
3001
0020
,  // measure 78
0000
0130
0000
2000
0000
3002
0000
0013
,  // measure 79
0001
0100
0010
0100
1000
0100
0010
0100
,  // measure 80
0001
0000
1000
0000
0100
0000
0010
0000
0001
0000
0100
0010
0200
0000
0301
0000
;

//---------------dance-single - ----------------
#NOTES:
     dance-single:
     :
     Medium:
     9:
     0.314718,0.407401,0.033583,0.329111,0.000000,328.000000,323.000000,5.000000,49.000000,0.000000,0.000000,0.314718,0.407401,0.033583,0.329111,0.000000,328.000000,323.000000,5.000000,49.000000,0.000000,0.000000:
0000
0000
0000
0000
,
0000
0000
0000
0000
,
0000
0000
0000
0000
,
0000
0000
0000
0000
,
0000
0000
0000
0000
,
0000
0000
0000
0000
,
0000
0000
0000
0000
,
0000
0000
0000
0000
,
0001
1000
0001
1000
0001
0000
1001
0000
,
1000
0100
1000
0001
,
0010
0000
0100
0000
0010
0001
1000
0000
,
0001
0100
0001
1000
,
0010
0000
0100
0000
0010
1000
0001
0000
,
0010
0010
0100
0010
,
0001
0000
0100
0000
0010
1000
0100
0000
,
0010
0001
1000
0000
0001
0100
0001
0000
,
0100
0010
1000
0000
0001
1000
0001
0000
,
1000
0000
0100
0000
0010
0001
0010
0000
,
0002
0000
2003
0000
3010
0100
0010
0000
,
2000
0000
3002
0000
0013
0000
0100
0020
,
0000
0032
0000
2003
0000
3002
0000
0000
,
0103
0000
0010
0000
1000
0001
1000
0000
,
0200
0000
0320
0000
0031
1000
0001
0000
,
0200
0000
0320
0000
1030
0000
0001
0010
,
0100
0010
0001
1000
0000
0000
0001
0100
,
0020
0000
1000
0000
0230
0000
0301
1000
,
0100
0000
0100
0000
0010
0100
1000
0100
,
0020
0000
0001
0000
0230
0000
1300
0001
,
0100
0000
0100
0000
0010
1000
0100
1000
,
0100
0000
0100
0000
0010
0001
1000
0001
,
1000
0000
1000
0000
0001
0100
0010
1000
,
0100
0000
0100
0000
0010
0000
0001
1000
,
0000
0001
0100
0010
0000
1000
0001
0000
,
0020
0000
0000
0000
,
0000
0000
0230
0000
,
2300
0000
0000
0000
,
0000
0000
3000
0000
,
0010
1000
0001
0000
0010
0000
0110
0000
,
0010
0001
1000
0000
0010
0000
0110
0000
,
1000
0010
1000
0000
0001
0010
0001
0000
,
0010
0100
0010
0100
0010
0000
0110
0000
,
1000
0000
0001
0100
1000
0000
0100
0000
,
0001
1000
0001
0000
0010
0100
1000
0000
,
0010
0000
1000
0100
0001
0000
0100
0000
,
1000
0001
1000
0000
0010
0100
0001
0000
,
0020
0000
0130
0000
0010
0001
0100
0000
,
0020
0000
1030
0000
0001
1000
0100
0000
,
0010
0001
1000
0000
0010
1000
0001
0000
,
0100
0010
1000
0000
0001
0010
0100
0000
,
2000
0010
0001
3100
,
0002
0010
0103
0000
,
0200
0010
0001
0310
,
0020
0100
1030
0000
,
0001
1000
0100
0001
,
0100
1000
0010
0001
,
0010
0010
0100
0100
,
0002
0023
0230
2300
,
3002
0000
0200
0303
,
0010
1000
0001
0010
,
0200
0000
2000
3300
,
1000
0100
0010
0001
,
0200
0300
0010
1000
,
0200
0000
0310
0001
,
0202
0000
0000
0000
,
0303
0000
0000
0000
,
0001
0000
0100
0010
1000
0000
0001
1000
,
0100
0000
0100
0000
0001
0100
1000
0000
,
1000
0000
0010
0100
0001
0000
1000
0001
,
0010
0000
0010
0000
1000
0010
0001
0010
,
0000
0100
1000
0001
2000
0000
3001
0200
,
0000
0300
0000
0020
0000
2030
0000
3002
,
0000
0000
0000
0000
0000
0000
0003
0100
,
0000
0100
0000
0010
0000
1000
0001
0010
,
0000
0010
0100
1000
0002
0000
0103
0020
,
0000
0000
0000
0030
0000
1000
0001
0020
,
0000
0130
0010
0001
2000
0000
3001
0200
,
0000
0000
0000
0000
0300
0010
1000
0001
,
0000
0001
0010
0100
2000
0000
3001
0200
,
0000
0000
0000
0310
0000
1000
0000
0001
,
0010
0010
0100
0100
,
1000
0100
0001
0100
1000
0100
0010
0001
;

//---------------dance-single - ----------------
#NOTES:
     dance-single:
     :
     Easy:
     5:
     0.217808,0.271181,0.033583,0.174630,0.000000,227.000000,222.000000,5.000000,26.000000,0.000000,0.000000,0.217808,0.271181,0.033583,0.174630,0.000000,227.000000,222.000000,5.000000,26.000000,0.000000,0.000000:
0000
0000
0000
0000
,
0000
0000
0000
0000
,
0000
0000
0000
0000
,
0000
0000
0000
0000
,
0000
0000
0000
0000
,
0000
0000
0000
0000
,
0000
0000
0000
0000
,
0000
0000
0000
0000
,
0020
0000
0130
1001
,
0001
0001
0100
0001
,
1000
0000
0100
0000
,
1000
1000
0100
1000
,
0001
0000
0010
0000
,
0001
0001
0100
0001
,
1000
0000
0010
0000
,
0100
0100
0010
0010
,
0100
0010
1001
0000
,
0001
0001
0010
0010
,
0200
0000
1300
0000
,
1000
1000
0010
0010
,
0200
0000
0301
0000
,
1000
1000
0001
0001
,
0020
0000
0130
0000
,
1000
1000
0001
0001
,
0200
0000
0310
0000
,
1000
0100
0010
0100
,
1000
0000
0001
1000
,
0001
0100
0010
0100
,
0001
0000
0010
0010
,
0100
0000
1000
1000
,
0001
0000
0100
0100
,
0020
0000
0000
0030
1000
0000
0001
0000
,
1000
0100
0010
0001
,
2000
0000
0000
0000
,
0000
0000
3020
0000
,
0230
0000
0000
0000
,
0000
0000
0300
0000
,
0001
0100
0010
0000
,
1000
0100
0010
0000
,
0001
0010
0100
1000
,
0002
0000
1003
1001
,
2000
3010
0100
0000
,
0001
0010
0100
1000
,
0002
0100
0103
0000
,
0010
1000
0100
0010
,
0002
0003
1000
0001
,
0200
0300
0020
0030
,
1000
0100
0010
0100
,
1000
0001
0100
0010
,
1000
0000
0001
0000
,
0100
0100
0100
0000
,
0020
1030
0001
0010
,
0100
0100
0200
0300
,
0020
0030
0001
1000
,
0001
0000
0100
0010
,
0200
0000
0000
0300
,
0010
1000
0100
0010
,
0002
0000
1003
0000
,
0001
0100
0010
0000
,
2000
0000
3100
0000
,
0010
0001
1000
0000
,
0002
0000
0103
0010
,
2000
0000
3100
0010
,
0200
0000
0000
0000
,
0300
0000
0000
0000
,
1000
0100
0010
0001
,
1000
0001
0100
0000
,
0001
0100
0010
1000
,
0001
1000
0100
0000
,
0010
0010
0100
1000
,
0002
0000
2003
0000
,
3010
0010
0100
0100
,
0001
1000
0001
1001
,
0001
0010
0100
1000
,
0001
0100
0010
0010
,
1000
0010
0100
0001
,
1000
0100
0010
0010
,
0001
1000
0001
0100
,
0010
1000
0100
0100
,
0010
0001
1000
0001
,
0100
0010
0100
0110
;
