#TITLE:Wasabi Body Blow;
#SUBTITLE:;
#ARTIST:江口孝宏;
#TITLETRANSLIT:;
#SUBTITLETRANSLIT:;
#ARTISTTRANSLIT:Takahiro Eguchi;
#GENRE:Endurance core;
#CREDIT:tikal.;
#MUSIC:Wasabi Body Blow.ogg;
#BANNER:Wasabi Body Blow.png;
#BACKGROUND:Wasabi Body Blow-bg.png;
#CDTITLE:cdtitle.png;
#SAMPLESTART:63.340;
#SAMPLELENGTH:21.333;
#SELECTABLE:YES;
#OFFSET:-0.007;
#BPMS:0.000=180.000;
#STOPS:;
#BGCHANGES:;
#FGCHANGES:;

//--------------- dance-single - tikal. ----------------
#NOTES:
     dance-single:
     tikal.:
     Hard:
     13:
     0,0,0,0,0:
0000
0000
0000
0000
,
0000
0000
0000
0000
,
0000
0000
0000
0000
,
0000
0000
0000
0000
,
0001
0001
0000
0100
0100
0000
0010
0010
,
0000
1000
1000
0100
0010
0000
0011
0000
,
1000
1000
0000
0100
0100
0000
0010
0010
,
0000
0001
0001
0100
0010
1000
0001
0010
,
0100
1100
0100
1100
,
0001
1001
0001
1001
,
0010
1010
0010
1010
,
0001
0000
1001
0000
1000
0000
1000
0001
,
0100
0101
0100
0101
,
1000
1001
1000
1001
,
0010
0011
0010
0011
,
1000
0000
0000
0000
1001
0000
0000
0000
0001
1000
0001
1000
0001
0000
0000
0000
,
2000
0000
3200
0000
0320
0032
0203
0000
,
2300
0000
3200
0000
0302
0023
0230
2300
,
3020
0032
0023
2030
,
3100
0100
0001
0000
0100
0100
1000
0000
,
0001
0010
0000
1000
0010
0000
0001
0100
,
0000
1000
0100
0000
0010
1000
0000
1010
,
0000
1000
0001
0010
0100
1000
0001
0100
,
0000
0010
0010
1000
0001
1000
0100
1000
,
0002
0000
0203
0000
0320
2030
3200
0000
,
0302
0000
0203
0000
2300
3020
0230
0302
,
0023
2030
3020
0032
,
0103
0100
1000
0000
0100
0100
0001
0000
,
1000
0010
0000
0001
0010
0000
1000
0100
,
0000
0001
0100
0000
0010
0001
0000
0011
,
0000
0001
1000
0010
0100
0001
1000
0100
,
0000
0010
0010
0001
1000
1000
0001
0001
,
0200
0000
0010
0000
,
0010
0000
0000
0000
0310
0000
0000
1000
,
0002
0000
0100
0000
,
2003
0000
0000
0000
0000
0000
0000
0000
3100
0000
0000
0000
0000
0000
1000
0001
,
0020
0000
1000
0000
,
0100
0000
0031
0002
,
0203
0000
1000
0000
,
0010
0000
0301
0000
,
2000
0100
0001
0100
,
0001
0000
0000
0000
0010
0000
0000
0000
0001
0000
0000
0000
3010
0000
0100
0001
,
0020
0100
1000
0100
,
0001
0000
0000
0000
0100
0000
0000
0000
1000
0000
0000
0000
0130
0000
1000
0001
,
0200
0010
1000
0010
,
0302
0010
1000
0100
,
2003
0010
0001
0100
,
3002
0000
0100
0000
1003
0010
0100
0001
,
0010
1001
0100
1001
,
1000
0110
0001
0110
,
1000
1100
0010
0011
,
0100
0000
0101
0000
0001
0010
0100
1000
,
0010
1001
0100
1001
,
0001
0110
1000
0110
,
0001
0101
0010
1010
,
0100
0000
1100
0000
2000
0002
0000
3003
,
0021
0000
1000
0000
0130
0000
1000
0020
,
0000
0001
0000
0130
0000
0001
1000
0000
,
2200
0000
3300
1100
0000
0101
0000
0220
,
0000
0000
0330
0000
0001
0100
0010
1000
,
0200
0000
0001
0000
1300
0010
0100
0001
,
0000
0001
2000
0000
3200
0000
0310
0000
,
0022
0000
0033
0011
0000
1010
0000
2002
,
0000
3003
0000
0220
0000
0000
0330
0000
,
1001
0000
1000
0100
0000
0001
0100
0000
,
1000
0010
0000
0001
0010
0000
1000
0001
,
0000
0011
1000
0000
1010
0001
0000
0101
,
1000
0000
1100
0001
0000
1000
0001
0000
,
0010
1000
0000
0010
0001
0000
0100
1000
,
0000
0100
0001
1000
0100
0000
0010
0000
,
0001
0000
0010
1000
0000
0010
0001
0000
,
0100
1000
0000
0100
0001
0001
1000
1000
,
2001
0000
0001
0010
0000
0010
0001
0000
,
0001
0100
0000
0100
3010
0000
0110
0000
,
1002
0000
1000
0010
0000
0010
1000
0000
,
1000
0100
0000
0103
0110
0000
0110
0000
,
1000
1000
0100
0010
0010
0001
1000
1000
,
0010
0100
0100
0001
0001
0000
0011
0000
,
0001
0001
0100
0010
0010
1000
0001
0001
,
0010
0100
0100
1000
1000
0010
0100
0001
,
0010
0011
0010
0011
,
1000
1001
1000
1001
,
1000
0001
0101
0000
1000
0001
0101
0000
,
0001
1000
0001
0000
0101
0000
1010
1000
,
0010
1010
0010
1010
,
0001
1001
0001
1001
,
0001
1000
1100
0000
0001
1000
1100
0000
,
1000
0000
0001
0000
1000
0000
0000
0000
0010
0100
0010
0100
0010
0000
0000
0000
;

//--------------- dance-single - tikal. ----------------
#NOTES:
     dance-single:
     tikal.:
     Challenge:
     15:
     0,0,0,0,0:
0000
0000
0000
0000
,
0000
0000
0000
0000
,
0000
0000
0000
0000
,
0000
0000
0000
0000
,
0001
0001
0100
1000
1000
0100
0001
0001
,
0010
1000
1000
0010
0100
0000
1100
0000
,
1000
1000
0010
0001
0001
0010
1000
1000
,
0100
0000
0001
0000
0001
0000
0100
0000
0010
0001
1000
0010
0100
0001
1000
0100
,
0010
0011
0010
0011
,
1000
1001
1000
1001
,
1000
0001
0101
0000
1000
0001
0101
0000
,
0001
1000
0001
0000
0101
0000
1010
0010
,
0010
1010
0010
1010
,
0001
1001
0001
1001
,
0001
1000
1100
0000
0001
1000
1100
0000
,
1000
0000
0001
0000
1000
0000
0000
0000
0010
0100
0010
0100
0010
0000
0000
0000
,
0200
0000
0302
0000
0023
2030
3020
0000
,
0032
0000
2003
0000
3200
0302
0203
2300
,
3020
0032
0023
2030
,
3100
0100
0011
0000
0100
0100
1010
0000
,
0001
0010
1000
0001
0100
1000
0001
0010
,
1000
0001
0100
1000
0010
0100
0000
0101
,
0000
1000
0100
1000
0010
0100
0001
0010
,
0000
0000
0001
1000
0001
0000
0100
0000
0010
0000
1000
0000
0100
0000
0100
0000
,
0200
0000
2300
0000
3020
0032
0023
0000
,
2030
0000
3002
0000
0203
2300
3200
0302
,
0023
2030
3020
0032
,
0103
0100
1010
0000
0100
0100
0011
0000
,
1000
0010
0001
1000
0100
0001
1000
0010
,
0001
1000
0100
0001
0010
0100
0000
1100
,
0000
0001
0100
0001
0010
0100
1000
0010
,
0000
0000
1000
0001
1000
0000
0100
0000
0010
0000
0010
0000
0010
0000
0010
0000
,
0002
0000
0000
0000
0100
0000
0000
1000
,
1000
0000
0000
0000
0000
0000
0000
0000
0013
0000
0000
0000
0000
0000
0100
1000
,
0020
0000
0001
0000
,
0230
0000
0000
0000
0000
0000
0000
0000
1000
0000
0000
0000
0000
0301
0100
0010
,
2000
0000
0000
0000
0100
0000
0000
0001
,
0001
0000
3010
0200
,
0320
0000
0000
0000
0001
0000
0000
0100
,
0100
0000
1030
0000
,
0001
0100
0010
0000
0100
0001
1000
0100
,
0010
0000
0100
1000
0001
0100
0010
0000
,
0100
0010
1000
0100
0010
0000
0100
0010
,
0001
0100
0010
0000
1000
0100
0001
0100
,
0010
0000
0001
0000
0100
0000
0010
1000
0010
0000
0000
0000
0000
0000
0100
0000
,
0010
0000
1000
0000
0100
0000
0010
0001
0010
0000
0000
0000
0000
0000
0001
0000
,
1000
0000
0100
0000
0010
0000
0001
1000
0010
0000
0000
0000
0000
0000
1000
0000
,
0001
0000
0100
0000
0010
0000
1000
0001
2000
0000
3200
0000
0320
0000
0032
0000
,
0103
1010
0100
0011
,
0100
1010
0100
0011
,
0001
0100
1010
0000
1000
0100
0011
0000
,
1000
0001
0110
0000
0002
0023
0230
2300
,
3010
0101
0010
1100
,
0010
0101
0010
1100
,
1000
0010
0101
0000
0001
0010
1100
0000
,
0001
1000
0110
0000
2000
0002
0000
3003
,
0201
0000
2300
0000
3200
0000
0301
0021
,
0000
2030
0000
3020
0000
0031
1000
0000
,
1010
0000
0010
1010
0000
0011
0000
1100
,
0000
0001
1000
0000
0002
0203
0320
1030
,
1200
0000
0302
0000
0103
1000
0010
0100
,
0000
0100
0002
0000
2003
0000
3100
0000
,
0011
0000
0010
0011
0000
1010
0000
2002
,
0000
3003
0000
0220
0000
0000
0330
0000
,
1001
0000
1000
0100
0000
0M01
0100
0000
,
1M00
0010
0000
00M1
0010
0000
10M0
0001
,
0000
0011
1000
0000
1010
0001
0000
0101
,
1000
0000
1100
0001
0000
1000
0001
0000
,
0010
10M0
0000
0010
00M1
0000
0100
1M00
,
0000
0100
0M01
1000
0100
0000
0010
0000
,
0001
0000
001M
1000
0000
M010
0001
0000
,
010M
1000
0000
M100
0010
0010
0010
0010
,
2010
0000
0000
0000
0000
0000
0000
0000
0000
0000
0000
0000
0000
0000
0000
0000
0010
0000
0000
0000
0000
0000
0000
3000
2001
0000
0000
0000
0000
0000
0000
0000
0000
0000
0000
0000
0000
0000
0000
0000
0100
0000
0000
0000
0000
0000
0000
3000
2001
0000
0000
0000
0000
0000
0000
0000
0000
0000
0000
0000
0000
0000
0000
0000
,
0010
0000
0000
0000
0000
0000
0000
3000
2001
0000
0000
0000
0000
0000
0000
0000
0000
0000
0000
0000
0000
0000
0000
0000
0100
0000
0000
0000
0000
0000
0000
3000
1010
0000
0000
0000
0000
0000
0000
0000
0000
0000
0000
0000
0000
0000
0000
0000
0110
0000
0000
0000
0000
0000
0000
0000
0000
0000
0000
0000
0000
0000
0000
0000
,
0012
0000
0000
0000
0000
0000
0000
0000
0000
0000
0000
0000
0000
0000
0000
0000
0010
0000
0000
0000
0000
0000
0000
0003
1002
0000
0000
0000
0000
0000
0000
0000
0000
0000
0000
0000
0000
0000
0000
0000
0100
0000
0000
0000
0000
0000
0000
0003
1002
0000
0000
0000
0000
0000
0000
0000
0000
0000
0000
0000
0000
0000
0000
0000
,
0010
0000
0000
0000
0000
0000
0000
0003
1002
0000
0000
0000
0000
0000
0000
0000
0000
0000
0000
0000
0000
0000
0000
0000
0103
0000
0000
0000
0000
0000
0000
0000
0110
0000
0000
0000
0000
0000
0000
0000
0000
0000
0000
0000
0000
0000
0000
0000
0110
0000
0000
0000
0000
0000
0000
0000
0000
0000
0000
0000
0000
0000
0000
0000
,
1000
0000
0010
0100
0010
0000
1000
0000
0100
0010
0100
0000
1000
0000
0010
0100
,
0010
0000
1000
0100
0010
0000
0001
0000
0011
0000
0000
0000
1010
0000
0000
0000
,
0001
0000
0010
0100
0010
0000
0001
0000
0100
0010
0100
0000
0001
0000
0010
0100
,
0010
0000
0001
0100
0010
0000
1000
0000
0001
1000
0010
0100
0001
0010
0100
1000
,
0010
1010
0001
1001
,
0100
1100
0001
1001
,
0001
0100
0001
0100
0010
1000
0010
1000
0001
0010
0001
0010
0100
1000
0100
1000
,
0000
0001
1000
0000
1010
0000
0011
0010
,
0010
0011
1000
1001
,
0100
0101
1000
1001
,
1000
0100
1000
0100
0010
0001
0010
0001
1000
0010
1000
0010
0100
0001
0100
0001
,
0000
0000
1000
0000
0001
0000
0000
0000
0100
0010
0100
0010
0100
0000
0000
0000
;
