#VERSION:0.83;
#TITLE:Vivid Theory;
#SUBTITLE:;
#ARTIST:ak+q;
#TITLETRANSLIT:;
#SUBTITLETRANSLIT:;
#ARTISTTRANSLIT:;
#GENRE:;
#CREDIT:;
#MUSIC:Vivid Theory.ogg;
#BANNER:Vivid Theory.png;
#BACKGROUND:Vivid Theory-bg.png;
#CDTITLE:;
#SAMPLESTART:45.311;
#SAMPLELENGTH:27.640;
#SELECTABLE:YES;
#OFFSET:-0.142;
#BPMS:0.000=178.000
,113.000=712.000
,114.000=178.000
,150.000=356.000
,152.000=178.000
,322.000=356.000
,322.500=178.000
,337.000=712.000
,338.000=178.000
;
#STOPS:113.000=0.032
,113.125=0.031
,113.250=0.032
,113.375=0.031
,113.500=0.032
,113.625=0.031
,113.750=0.032
,113.875=0.031
,150.000=0.042
,150.250=0.042
,150.500=0.042
,150.750=0.042
,151.000=0.042
,151.250=0.042
,151.500=0.042
,151.750=0.042
,322.000=0.021
,322.125=0.021
,322.250=0.021
,322.375=0.021
,337.000=0.032
,337.125=0.031
,337.250=0.032
,337.375=0.031
,337.500=0.032
,337.625=0.031
,337.750=0.032
,337.875=0.031
;
#WARPS:64.000=16.000,
304.000=16.000
;
#SPEEDS:0.000=1.000=0.000=0,
60.000=0.000=4.000=0,
80.000=1.000=0.000=0,
280.000=0.500=4.000=0,
292.000=1.500=12.000=0,
320.000=1.000=0.000=0,
384.000=0.500=3.000=0,
386.000=1.000=2.000=0
;
#SCROLLS:0.000=1.000,
148.000=0.500,
150.000=1.000,
190.000=1.125,
190.250=0.875,
190.750=1.125,
191.000=0.875,
191.500=1.125,
191.750=0.875,
192.000=1.000,
216.000=0.667,
248.000=0.750,
262.000=0.500,
264.000=0.875,
276.000=1.000,
284.000=0.500,
322.000=0.750,
324.000=1.000,
334.000=1.125,
334.250=0.875,
334.750=1.125,
335.000=0.875,
335.500=1.125,
335.750=0.875,
336.000=1.000,
380.000=1.250,
380.250=0.750,
380.500=1.000,
382.000=1.250,
382.250=0.750,
382.500=1.000,
384.000=1.250,
384.250=0.750,
384.500=1.000,
416.000=0.750,
420.000=1.000,
452.000=0.250
;
#DISPLAYBPM:44.500:178.000;
#BGCHANGES:;
#FGCHANGES:;

//--------------- dance-single - ----------------
#NOTEDATA:;
#STEPSTYPE:dance-single;
#DESCRIPTION:;
#DIFFICULTY:Challenge;
#METER:15;
#RADARVALUES:0,0,0,0,0;
#NOTES:
0000
0000
0000
0000
,
0000
0000
0000
0000
,
0000
0000
0000
0000
,
0000
0000
0000
0000
,
0000
0000
0000
0000
,
0000
0000
0000
0000
,
0000
0000
0000
0000
,
0000
0000
0000
0000
,
0000
0000
0000
0000
,
0001
0000
1000
0000
0010
0000
1000
0100
1000
0010
0100
0000
0001
0000
1000
0000
,
0001
1000
0010
0010
0100
0001
1001
0000
,
1000
0000
0001
0000
0010
0000
0001
0100
0001
0010
0100
0000
1000
0000
0001
0000
,
1000
0001
0010
0010
0100
0010
0002
2003
,
3200
0000
1300
0020
0000
0000
2030
0000
,
3200
0000
1300
0020
0000
0000
0230
0000
,
0302
0000
0000
0000
,
0003
0000
M000
0M00
00M0
000M
M000
000M
,
0000
0000
0000
0000
,
0000
0000
0000
0000
,
0000
0000
0000
0000
,
0000
0000
1000
0100
0010
0001
1000
0001
,
2000
0000
0000
0000
0000
0000
3002
0003
0101
0000
0000
0000
0200
0000
0000
0000
,
0320
0000
0000
0000
0000
0030
0010
0000
0110
0000
0000
0000
0200
0000
0302
0000
,
2003
0000
0000
0000
0000
0000
3002
0003
0011
0000
0000
0000
0020
0000
0000
0000
,
0230
0000
0000
0000
0000
0300
0100
0000
0110
0000
0000
0000
0020
0000
0000
0000
,
0032
0000
0000
0000
0000
0000
2003
3000
1100
0000
0000
0000
0200
0000
0000
0000
,
0320
0000
0000
0000
0000
0030
0010
0000
0110
0000
0000
0000
0200
0000
2300
0000
,
3002
2003
3200
0320
,
0032
0000
2003
0000
3001
0100
0010
1000
,
0100
0000
1100
1000
0010
0000
1010
0000
,
1000
0000
1001
0001
0000
0001
0101
0000
,
1010
0000
0110
0000
0101
0000
0100
0001
,
0010
0000
0000
0000
0011
0000
0001
0000
0000
0000
0010
0001
1000
0000
0000
0000
,
0001
0001
1000
1000
,
0100
0000
0100
0000
0010
0000
0010
0001
,
1000
0000
1000
0000
0001
0000
1000
0001
0010
0000
0010
0000
0001
1000
0100
1000
,
0001
0100
0010
0001
0010
1000
1010
0000
,
0001
0000
0000
0000
0000
0000
0000
0000
1000
0001
1000
0001
1000
0001
1000
0001
,
2000
0001
0100
0000
3002
1000
0010
0023
,
0230
0000
1000
1000
2300
0001
0000
3002
,
0023
0001
0100
0000
1000
0000
0001
0000
,
0230
0000
1000
0010
0000
0010
1000
2300
,
3002
1000
0100
0000
2003
0001
0010
3020
,
0230
0000
0001
0001
0302
1000
0000
2003
,
3020
1000
0100
0000
0001
0000
1000
2030
,
3200
0000
2300
3002
0000
0010
0023
0000
,
0032
0003
0001
0000
0100
0000
0010
0000
2000
3000
0010
0000
1010
0000
2000
3000
,
0200
0300
0000
0000
0110
0000
0010
0000
0022
0033
0000
2200
3300
0000
0202
0303
,
2002
3003
0001
0000
0100
0000
0002
0000
0023
0000
0230
0000
2300
0000
3002
0000
,
0203
0000
0320
0000
2030
0000
3001
0000
1000
0010
1000
0000
0010
0000
0100
0000
,
0002
0003
0001
0000
1000
0000
0100
0000
0020
0030
0100
0000
1000
0000
0002
0003
,
2000
3000
1000
0000
0010
0000
0100
0000
0002
0003
1000
0000
1000
0000
0002
0003
,
0020
0030
0010
0000
0100
1000
0001
0000
0000
0000
1000
0001
0010
0000
0000
0000
,
0002
1003
0100
0010
0100
0010
0001
1000
0010
0100
0001
1000
0010
0100
0010
0100
,
0001
0000
0000
0000
1000
0100
0010
0001
,
1000
0000
0001
0000
,
1000
0001
0100
0010
1000
0100
0010
0001
,
1000
0000
0001
0000
,
1000
0001
0010
0100
1000
0010
0100
0001
,
1000
0000
0000
0100
1000
0010
0100
0001
,
1000
0001
0100
0010
1000
0010
0100
0001
,
2000
3100
0010
0100
2000
3010
0100
0010
,
1000
1000
0001
0001
,
0100
0100
0010
0010
,
1000
1000
0100
0100
,
0010
0000
0010
0000
0002
0003
1000
0001
,
0100
0000
0000
0000
0101
0000
0000
0001
0100
0001
1000
0000
1001
0000
0001
0000
,
1000
0000
0100
0000
1100
0000
1000
0000
0100
0000
0010
0000
0110
0000
0100
1000
,
0001
0000
0010
0000
0011
0000
0000
0001
1000
0010
1000
0000
1010
0000
0000
0000
,
0010
1000
0010
0100
0010
0001
0010
0100
,
0010
1000
0001
0010
0100
0001
1000
0010
,
0002
0000
0000
0000
,
0000
0000
0000
0000
,
0003
0000
0100
0000
0000
0010
0100
0000
,
0001
0000
0000
0000
1001
0000
0000
0000
1000
0000
0100
0000
1100
0000
1000
0001
,
0100
0000
0001
1000
0100
1000
0001
0100
,
0001
0000
0000
0000
,
0000
0000
0000
0000
,
0000
0000
0000
0000
,
0000
0000
0000
0000
,
0000
0000
0000
0000
0000
0000
0010
0100
,
1000
0100
0001
1000
0010
0001
0100
0010
,
1000
0010
0001
0010
1000
0100
0010
0001
,
1000
0000
0001
0000
0100
0000
0001
0000
0101
0000
0000
1010
0000
0000
1001
0000
,
1000
0100
0020
0000
0130
1000
0001
0010
,
0001
0010
1000
0001
0100
1000
0001
0100
,
1000
0100
0010
0100
0001
1000
0100
1000
,
0010
0000
0000
0000
1010
0000
1000
0000
0000
0000
0000
0001
1000
0000
0100
1000
,
0100
1000
0100
0010
0001
1000
0100
0010
,
0001
1000
0010
0100
0001
0010
1000
0010
,
0001
0100
0010
1000
0001
1000
0001
0100
,
0010
1000
0100
0010
0100
1000
0001
0100
,
1000
0100
0010
0001
0010
0100
0002
2003
,
3200
1300
1100
0200
1000
0300
2010
0010
,
3020
0000
0000
0000
0130
0000
0200
0000
0010
0000
0301
1000
0002
0000
1003
0000
,
1001
0000
0011
0000
,
1010
0000
0010
0000
,
1000
0001
0100
0101
0001
0010
0100
1000
,
0010
1010
1000
0100
1200
1300
1001
0000
,
0002
1003
0100
1100
1000
0010
0200
0301
,
0010
0011
0001
0100
0201
0301
1001
0000
,
2000
3010
0100
1000
0100
0020
0031
0010
,
0100
1000
0100
0001
2000
3001
1001
0000
,
2000
0000
0000
0000
3010
0000
0000
0010
1000
0000
0001
0000
1001
0000
1001
0000
,
1200
0000
0300
0000
0001
0000
0102
0000
0103
0001
0000
0000
0220
0000
0330
0000
,
1002
1003
0100
1000
0010
0100
1000
0001
,
0020
1030
0100
0010
0002
0013
0011
0000
,
2001
3001
0100
0001
0010
0100
0001
1000
,
0020
0000
0031
0000
0100
0000
0010
0000
2000
0000
3010
0000
1010
0000
1000
0010
,
2000
0000
0000
0000
0000
0000
3001
0000
0000
0000
0100
0000
0010
0100
0010
0000
,
0000
1000
1000
0000
1001
0000
0001
0000
,
1010
0000
0001
0011
0000
0000
0010
0110
,
0000
0000
0000
0000
0100
0000
0000
0000
1000
0001
0000
0000
1001
0000
0000
0000
,
1001
0000
0000
0000
1000
0100
0010
0001
,
0100
0010
0100
0001
1000
0010
0100
0001
,
1000
0000
0000
0000
;
