#TITLE:Video Killed The Radio Star;
#SUBTITLE:;
#ARTIST:The Buggles;
#TITLETRANSLIT:;
#SUBTITLETRANSLIT:;
#ARTISTTRANSLIT:;
#GENRE:;
#CREDIT:;
#BANNER:Video Killed The Radio Star.png;
#BACKGROUND:Video Killed The Radio Star-bg.png;
#LYRICSPATH:;
#CDTITLE:;
#MUSIC:Video Killed The Radio Star.ogg;
#OFFSET:0.000000;
#SAMPLESTART:2.000000;
#SAMPLELENGTH:15.000000;
#LASTBEATHINT:187.000000;
#SELECTABLE:YES;
#DISPLAYBPM:130.000000;
#BPMS:0.000000=130.720001
;
#STOPS:
;
#BGCHANGES:4.000=Video Killed The Radio Star.avi=1.000=0=0=1=====,
99999=-nosongbg-=1.000=0=0=0 // don't automatically add -songbackground-
;
#KEYSOUNDS:;
#ATTACKS:;

//---------------dance-single - ----------------
#NOTES:
     dance-single:
     :
     Challenge:
     11:
     0.340428,0.390438,0.089084,0.011135,0.000000,214.000000,206.000000,8.000000,1.000000,56.000000,0.000000,0.340428,0.390438,0.089084,0.011135,0.000000,214.000000,206.000000,8.000000,1.000000,56.000000,0.000000:
// measure 0
0000
0000
0000
0000
,  // measure 1
0000
0000
0000
0000
,  // measure 2
0000
0000
0000
0000
,  // measure 3
0000
0001
0100
0100
0001
0000
1000
0010
,  // measure 4
0010
1000
0001
0000
1000
0000
MMMM
0000
,  // measure 5
0000
0100
1000
0001
1000
0100
0010
0001
,  // measure 6
0100
0010
0100
0001
0100
0000
MMMM
0000
,  // measure 7
0110
0000
0000
1001
0000
0000
MMMM
0000
,  // measure 8
0000
0001
0100
0001
1000
0000
0100
0000
,  // measure 9
0110
0000
0000
1001
0000
0000
MMMM
0000
,  // measure 10
0000
1000
0100
0010
0001
0000
1000
0000
,  // measure 11
0001
0100
0100
0000
0001
0000
0010
0100
,  // measure 12
0000
0100
0010
0000
0100
0000
MMMM
0000
,  // measure 13
1000
0100
0100
0000
1000
0000
0010
0100
,  // measure 14
0000
0100
0010
0000
0100
0000
MMMM
0000
,  // measure 15
0001
0001
0000
1000
0000
0000
0010
0100
,  // measure 16
0000
0100
0000
0100
0000
0000
MMMM
0000
,  // measure 17
0001
0000
0000
1000
1000
0001
0000
0100
,  // measure 18
0000
0010
1000
0010
0100
0001
0100
0000
,  // measure 19
0000
0010
0010
1000
1000
0010
0010
0001
,  // measure 20
0001
0010
0010
1000
1000
0000
0000
0000
,  // measure 21
0000
0100
0100
0001
0001
0100
0100
1000
,  // measure 22
1000
0100
0100
0010
0010
0000
0000
0000
,  // measure 23
0000
0001
1000
0001
1000
0001
0000
0010
,  // measure 24
0100
1000
0100
0100
0100
0000
MMMM
0000
,  // measure 25
1100
0000
0000
0011
0000
0000
MMMM
0000
,  // measure 26
0000
0001
1000
0010
0100
0000
0010
0000
,  // measure 27
1010
0000
0000
0101
0000
0000
MMMM
0000
,  // measure 28
0000
1000
0001
0010
0100
0000
0010
0000
,  // measure 29
0001
1000
1000
0000
0001
0000
0100
0010
,  // measure 30
0000
0010
0100
0000
0010
0000
MMMM
0000
,  // measure 31
1000
0001
0001
0000
1000
0000
0100
0010
,  // measure 32
0000
0010
0100
0000
0010
0000
MMMM
0000
,  // measure 33
0001
0001
0000
0001
0000
0000
0100
0000
,  // measure 34
1000
1000
0000
0100
0000
MMMM
0000
0001
,  // measure 35
0001
0010
0100
1000
,  // measure 36
0010
0010
0000
0100
0000
0000
MMMM
0000
,  // measure 37
0001
0000
0000
1000
0001
0001
0000
1000
,  // measure 38
0000
0100
1000
0100
0010
0001
1000
0000
,  // measure 39
1000
0000
0000
0001
1000
1000
0000
0001
,  // measure 40
0000
0100
0010
1000
0010
0100
0001
0000
,  // measure 41
1000
0100
0001
0100
0000
0100
0000
0010
,  // measure 42
0000
0010
0100
0100
0000
1000
1000
0000
,  // measure 43
0001
0100
1000
0100
0000
0100
0000
0010
,  // measure 44
0000
0010
0100
0100
0000
0001
0001
0000
,  // measure 45
0001
1000
0001
0010
0000
0100
0000
1000
,  // measure 46
0000
0010
0000
0200
0000
0000
0300
0000
;

//---------------dance-single - ----------------
#NOTES:
     dance-single:
     :
     Hard:
     10:
     0.324520,0.364409,0.089084,0.011135,0.000000,204.000000,196.000000,8.000000,1.000000,0.000000,0.000000,0.324520,0.364409,0.089084,0.011135,0.000000,204.000000,196.000000,8.000000,1.000000,0.000000,0.000000:
// measure 0
0000
0000
0000
0000
,  // measure 1
0000
0000
0000
0000
,  // measure 2
0000
0000
0000
0000
,  // measure 3
0000
1000
0001
1000
0010
0000
1000
0100
,  // measure 4
0010
0001
1000
0000
0001
0000
0000
0000
,  // measure 5
0000
0001
1000
0010
0100
0001
0100
0000
,  // measure 6
0001
1000
0001
1000
0001
0000
0000
0000
,  // measure 7
0100
0000
0000
1001
0000
0000
0000
0000
,  // measure 8
0000
1000
0100
0010
0001
0000
0001
0000
,  // measure 9
0100
0000
0000
1001
0000
0000
0000
0000
,  // measure 10
0000
0001
0100
0010
1000
0000
1000
0000
,  // measure 11
1000
0001
1000
0000
0001
0000
0100
0010
,  // measure 12
0000
0010
0100
0000
1001
0000
0000
0000
,  // measure 13
0001
1000
0001
0000
1000
0000
0100
0010
,  // measure 14
0000
0010
0100
0000
1001
0000
0000
0000
,  // measure 15
0010
1000
0000
0001
0000
0000
0000
1000
,  // measure 16
0000
0100
0000
0010
0000
0000
0000
0000
,  // measure 17
0100
0000
0000
1000
0001
1000
0000
0001
,  // measure 18
0000
0000
0000
0000
0001
1000
0001
0000
,  // measure 19
0000
1000
0100
1000
0100
0000
0001
0100
,  // measure 20
0001
0100
1000
0001
1000
0000
0000
0000
,  // measure 21
0000
1000
0010
1000
0010
0000
0001
0010
,  // measure 22
0001
0010
1000
0001
1000
0000
0000
0000
,  // measure 23
0000
1000
0001
1000
0001
1000
0000
0100
,  // measure 24
0010
0001
1000
0001
1000
0000
0000
0000
,  // measure 25
0010
0000
0000
1001
0000
0000
0000
0000
,  // measure 26
0000
0001
1000
0010
0100
0000
0100
0000
,  // measure 27
0010
0000
0000
1001
0000
0000
0000
0000
,  // measure 28
0000
1000
0001
0010
0100
0000
0100
0000
,  // measure 29
1000
0100
1000
0000
0001
0000
0100
0010
,  // measure 30
0000
0010
0100
0000
1001
0000
0000
0000
,  // measure 31
0001
0100
0001
0000
1000
0000
0010
0100
,  // measure 32
0000
0100
0010
0000
1001
0000
0000
0000
,  // measure 33
0010
0001
0000
1000
0000
0000
0001
0000
,  // measure 34
0010
0100
0000
1000
0000
0000
0000
0000
,  // measure 35
0100
1000
0001
1000
,  // measure 36
0010
0100
0000
0010
0000
0000
0000
0000
,  // measure 37
1000
0000
0000
0001
1000
0001
0000
0100
,  // measure 38
0000
0010
1000
0001
1000
0000
0001
0000
,  // measure 39
1000
0000
0000
1000
0001
1000
0000
0100
,  // measure 40
0000
0010
0000
0001
1000
0001
1000
0000
,  // measure 41
0001
0100
0001
1000
0000
1000
0000
0010
,  // measure 42
0000
1000
0100
0010
0000
0001
1000
0000
,  // measure 43
1000
0001
1000
0001
0000
0100
0000
0010
,  // measure 44
0000
0100
0010
0100
0000
0001
0001
0000
,  // measure 45
0001
0100
0010
1000
0000
0001
0000
1000
,  // measure 46
0000
0010
0000
0200
0000
0000
0300
0000
;

//---------------dance-single - ----------------
#NOTES:
     dance-single:
     Lunaticboi:
     Medium:
     7:
     0.238618,0.260292,0.111355,0.111355,0.000000,150.000000,140.000000,10.000000,10.000000,0.000000,0.000000,0.238618,0.260292,0.111355,0.111355,0.000000,150.000000,140.000000,10.000000,10.000000,0.000000,0.000000:
// measure 0
0000
0000
0000
0000
,  // measure 1
0000
0000
0000
0000
,  // measure 2
0000
0000
0000
0000
,  // measure 3
0000
1000
0001
1000
0001
0000
0100
0010
,  // measure 4
0100
0001
1000
0000
,  // measure 5
0000
0100
1000
0001
1000
0000
0001
0100
,  // measure 6
0001
1000
0001
0000
,  // measure 7
0100
0000
0000
0110
0000
0000
0000
0000
,  // measure 8
0000
0001
1000
0000
0010
0000
0010
0000
,  // measure 9
1000
0000
0000
1001
0000
0000
0000
0000
,  // measure 10
0000
0020
0100
0130
,  // measure 11
0001
1000
0001
0000
1000
0000
0010
0000
,  // measure 12
0100
0001
0001
0000
,  // measure 13
1000
0001
1000
0000
0001
0000
0010
0000
,  // measure 14
0100
1000
1000
0000
,  // measure 15
0020
0000
0000
0001
0000
0000
0000
1000
,  // measure 16
0000
0000
0000
0130
0000
0000
0000
0000
,  // measure 17
1000
0000
0000
0002
0103
0000
0000
0100
,  // measure 18
0000
0000
0110
0110
,  // measure 19
0000
0200
0001
1000
,  // measure 20
0001
1000
0310
0000
,  // measure 21
0000
0020
1000
0001
,  // measure 22
1000
0001
0130
0000
,  // measure 23
0000
0000
0001
1000
0001
0000
0000
0000
,  // measure 24
1000
0000
0001
0010
0100
0000
0000
0000
,  // measure 25
1001
0000
0000
0110
0000
0000
0000
0000
,  // measure 26
0000
0020
0100
0130
,  // measure 27
0110
0000
0000
1001
0000
0000
0000
0000
,  // measure 28
0000
0200
0010
0310
,  // measure 29
0100
0010
0100
0000
0010
0000
1000
0000
,  // measure 30
0001
0100
0100
0000
,  // measure 31
0010
0100
0010
0000
0100
0000
0001
0000
,  // measure 32
1000
0100
0100
0000
,  // measure 33
2000
0000
0000
0100
0000
0000
0000
0000
,  // measure 34
0001
0000
0000
3010
0000
0000
0000
0000
,  // measure 35
0002
0000
0010
0000
,  // measure 36
1000
0000
0000
0103
0000
0000
0000
0000
,  // measure 37
0100
0000
0000
0010
0100
0000
0000
0110
,  // measure 38
0000
0001
0001
1000
,  // measure 39
0001
0000
0000
1000
0100
0000
0000
0110
,  // measure 40
0000
0000
0001
0001
,  // measure 41
1000
0000
0000
0100
0000
0000
0000
0001
,  // measure 42
0000
0000
0000
0010
0000
1000
0001
0000
,  // measure 43
0001
0000
0000
0100
0000
0000
0000
1000
,  // measure 44
0000
0000
0000
0010
0000
0001
1000
0000
,  // measure 45
0001
0000
1000
0010
0000
1000
0000
0001
,  // measure 46
0000
0010
0000
0200
0000
0000
0300
0000
;

//---------------dance-single - ----------------
#NOTES:
     dance-single:
     :
     Easy:
     4:
     0.171805,0.260292,0.044542,0.122490,0.000000,108.000000,104.000000,4.000000,11.000000,0.000000,0.000000,0.171805,0.260292,0.044542,0.122490,0.000000,108.000000,104.000000,4.000000,11.000000,0.000000,0.000000:
0000
0000
0000
0000
,
0000
0000
0000
0000
,
0000
0000
0000
0000
,
0000
0001
0001
0001
,
0001
0001
0001
0000
,
0000
1000
1000
1000
,
0010
0100
0001
0000
,
2000
0000
0000
3000
0000
0000
0000
0000
,
0000
1000
0100
0010
,
0002
0000
0000
0003
0000
0000
0000
0000
,
0000
0001
0100
0010
,
1000
1000
0001
0001
,
0010
0100
1000
0000
,
0001
0001
1000
1000
,
0010
0100
0001
0000
,
2000
3000
0200
0300
,
0020
0030
0002
0003
,
1000
0000
0000
0000
0001
0000
0000
0100
,
0000
0000
0000
0000
,
0000
1000
1000
1000
,
1000
1000
1000
0000
,
0000
0001
0001
0001
,
0001
0001
0001
0000
,
0000
0010
0010
0000
,
0100
0100
0100
0000
,
2002
0000
0000
3003
0000
0000
0000
0000
,
0000
0100
0010
0000
,
0220
0000
0000
0330
0000
0000
0000
0000
,
0000
0001
1000
0000
,
0001
1000
0001
1000
,
0010
0100
0110
0000
,
1000
0001
1000
0001
,
0010
0100
0110
0000
,
1000
0000
0000
0001
0000
0000
0000
0000
,
0100
0000
0000
0001
0000
0000
0000
0000
,
1000
0000
0100
0000
,
0010
0000
0000
0001
0000
0000
0000
0000
,
0010
0000
0000
0000
0001
0000
0000
0100
,
0000
0000
0000
0000
,
0010
0000
0000
0000
1000
0000
0000
0100
,
0000
0000
0000
0000
,
1000
0000
1000
0000
,
0001
0000
0001
0000
,
0010
0000
0010
0000
,
0100
0000
0100
0000
,
1000
0000
0000
0001
0000
0000
0000
0010
,
0000
0000
0000
0200
0000
0000
0300
0000
;

//---------------dance-single - ----------------
#NOTES:
     dance-single:
     :
     Beginner:
     2:
     0.097038,0.180743,0.055677,0.066813,0.000000,61.000000,56.000000,5.000000,6.000000,0.000000,0.000000,0.097038,0.180743,0.055677,0.066813,0.000000,61.000000,56.000000,5.000000,6.000000,0.000000,0.000000:
0000
0000
0000
0000
,
0000
0000
0000
0000
,
0000
0000
0000
0000
,
0000
0001
0000
0001
,
0000
0001
0000
0000
,
0000
1000
0000
1000
,
0000
1000
0000
0000
,
0100
0000
0000
0000
,
0000
0100
0000
0000
,
0010
0000
0000
0000
,
0000
0000
0100
0000
,
1000
0000
1000
0000
,
1000
0000
1001
0000
,
0001
0000
0001
0000
,
0001
0000
0001
0000
,
0020
0000
0000
0030
,
0200
0000
0000
0300
,
1000
0000
0001
0000
,
0000
0000
0000
0000
,
0000
0100
0000
0100
,
0000
0100
0000
0000
,
0000
0010
0000
0010
,
0000
0010
0000
0000
,
0000
0010
0000
0100
,
0000
0000
0000
0000
,
1001
0000
0000
0000
,
0000
0100
0000
0000
,
0110
0000
0000
0000
,
0000
0010
0000
0000
,
0100
0000
0100
0000
,
0001
0000
1001
0000
,
0010
0000
0010
0000
,
1000
0000
1001
0000
,
0020
0000
0000
0000
,
0230
0000
0000
0000
,
0320
0000
0000
0000
,
2030
0000
0000
0000
,
3100
0000
0100
0000
,
0000
0000
0000
0000
,
0010
0000
0010
0000
,
0000
0000
0000
0000
,
0001
0000
0000
0000
,
1000
0000
0000
0000
,
0010
0000
0000
0000
,
0100
0000
0000
0000
,
0001
0000
0000
0000
,
0000
0000
0000
0100
0000
0000
0000
0000
;
