#TITLE:Victory of the Century;
#SUBTITLE:;
#ARTIST:Bemani Sound Team "TAG";
#TITLETRANSLIT:;
#SUBTITLETRANSLIT:;
#ARTISTTRANSLIT:;
#GENRE:JUBEAT AVE;
#CREDIT:;
#BANNER:;
#BACKGROUND:;
#LYRICSPATH:;
#CDTITLE:;
#MUSIC:victoryofthecentury.ogg;
#OFFSET:0.004000;
#SAMPLESTART:65.829002;
#SAMPLELENGTH:10.667000;
#SELECTABLE:YES;
#BPMS:0.000000=180.000000
;
#STOPS:
;
#BGCHANGES:;
#KEYSOUNDS:;
#ATTACKS:;

//---------------dance-single - ----------------
#NOTES:
     dance-single:
     :
     Hard:
     17:
     0.790937,0.984526,0.331683,0.527292,0.790937,651.000000,612.000000,39.000000,62.000000,0.000000,0.000000,0.790937,0.984526,0.331683,0.527292,0.790937,651.000000,612.000000,39.000000,62.000000,0.000000,0.000000:
// measure 0
0000
0000
0000
0000
,  // measure 1
0000
0000
0000
0000
,  // measure 2
0000
0000
0000
0000
,  // measure 3
0000
0000
0000
0000
,  // measure 4
1010
0000
0000
0101
0000
0000
2002
0000
,  // measure 5
0000
0000
0000
3003
,  // measure 6
0011
0000
0000
1100
0000
0000
2002
0000
,  // measure 7
0000
0000
0000
0000
3003
0000
0000
0000
0001
1000
0001
1000
0001
1000
0001
1000
,  // measure 8
0001
0100
1000
0100
0010
1000
0001
0010
,  // measure 9
1000
0001
0100
1000
0100
0010
0100
1000
,  // measure 10
0100
1000
0100
1000
0100
0010
0100
0010
0001
0010
0001
0010
0001
1000
0001
1000
,  // measure 11
0002
0000
0000
0000
0000
0000
0003
0000
1000
0010
0100
0001
0010
0000
0100
1000
,  // measure 12
0002
0000
0000
0100
0000
0000
1000
0000
0000
0010
0000
0000
1003
0000
1000
0000
,  // measure 13
2000
0000
0000
0001
0000
0000
0010
0000
0000
0001
0000
0000
3100
0000
0010
0000
,  // measure 14
0001
0010
0000
0001
0010
0000
0100
0010
0000
0100
0010
0000
0100
0000
0100
0000
,  // measure 15
1000
0010
0000
1000
0010
0000
0100
0010
0000
0100
0010
0000
0100
0000
0100
0000
,  // measure 16
0001
0010
0000
0100
1000
0000
0100
0010
0000
0100
1000
0000
0001
0000
0001
0000
,  // measure 17
1000
0010
0000
0100
0001
0000
0100
0010
0000
0100
0001
0000
1000
0100
0010
0001
,  // measure 18
1000
0010
0000
0001
0010
0000
1000
0010
0000
0100
0001
0000
1000
0000
1000
0000
,  // measure 19
0001
0010
0000
1000
0010
0000
0001
0010
0000
0100
1000
0000
0001
0000
0001
0000
,  // measure 20
1000
0100
0000
0010
0001
0000
0100
0010
0000
1000
0001
0000
0010
0100
0010
0100
,  // measure 21
0020
0000
0200
0330
,  // measure 22
1100
0000
0000
0000
0001
0100
0001
0100
0020
0000
0000
0000
1030
0010
1000
0010
,  // measure 23
0001
0000
0000
0000
1010
0000
0000
0000
0001
0010
0100
1000
0010
0100
0001
1000
,  // measure 24
0100
0000
0000
0000
1000
0100
1000
0100
0020
0000
0000
0000
0031
0010
0001
0010
,  // measure 25
1000
0000
0000
0000
0011
0000
0000
0000
1000
0010
0100
0001
0010
0000
0000
0000
,  // measure 26
1100
0000
0000
0000
1000
0001
1000
0001
0020
0000
0000
0000
0130
1000
0100
1000
,  // measure 27
0010
0000
0000
0000
0101
0000
0000
0000
1000
0100
0010
0001
0100
0010
1000
0001
,  // measure 28
0100
0000
0010
1000
0010
1000
0100
0010
0001
0000
0010
0001
0010
0001
0100
0010
,  // measure 29
1000
1010
2002
3003
,  // measure 30
0101
0000
1000
1100
0000
0001
0100
0020
,  // measure 31
1000
0001
0000
0000
0001
1000
0000
0000
1000
0001
0030
0000
0100
1000
0100
1000
,  // measure 32
0100
0000
1000
0101
0000
0001
1000
0200
,  // measure 33
0000
1000
1000
0000
0010
0010
0000
0001
0001
0000
0010
0310
0000
0100
1000
0100
,  // measure 34
1000
0000
0001
0101
0000
1000
0100
0020
,  // measure 35
0001
1000
0000
0000
1000
0001
0000
0000
0001
1000
0030
0000
0100
0001
0100
0001
,  // measure 36
0100
0000
0001
1100
0000
1000
0001
0100
,  // measure 37
0010
1000
0010
0000
1000
0001
1000
0000
0001
0010
0001
0010
0100
1000
0100
1000
,  // measure 38
0200
0000
0301
0100
1100
0000
1001
0000
,  // measure 39
0001
0000
0100
0000
1000
0000
0100
0000
0010
0000
1000
0001
1000
0001
1000
0001
,  // measure 40
0020
0000
1030
0010
0011
0000
1001
0000
,  // measure 41
1000
0000
0010
0000
0001
0000
0010
0000
0100
0000
0001
1000
0001
1000
0001
1000
,  // measure 42
0200
0000
0310
0001
0011
0000
1001
0000
,  // measure 43
2000
0000
3010
0100
0101
0000
1001
0000
,  // measure 44
1000
0000
0010
1000
0010
0000
1000
0001
,  // measure 45
2000
3200
0320
0032
,  // measure 46
2003
0000
0020
0030
,  // measure 47
0020
0000
0030
0000
0020
0000
0030
3000
,  // measure 48
1000
0000
0001
0000
1000
0000
0001
0000
1000
0001
1000
0001
1000
0001
1000
0001
,  // measure 49
0020
0000
0030
0010
0010
0001
0010
0100
,  // measure 50
1100
0000
0000
0002
0000
2003
0000
3020
,  // measure 51
0000
0000
0030
0010
0010
1000
0010
0100
,  // measure 52
0101
0000
0000
2000
0000
3002
0000
0023
,  // measure 53
0000
0000
0030
0010
0010
0001
0010
0100
,  // measure 54
2000
0000
0010
3020
0000
0000
0030
0100
,  // measure 55
0002
0000
0000
0000
0010
0000
0023
0000
0000
0000
0000
0000
0030
0000
0100
0010
,  // measure 56
0200
1000
0010
0001
,  // measure 57
0310
0000
0000
0010
0000
0000
0100
0000
0100
0000
1000
0000
0100
0000
0010
0000
,  // measure 58
0011
0000
0000
2000
0000
3002
0000
0203
,  // measure 59
0000
0000
0300
0100
0100
0001
0100
0010
,  // measure 60
1010
0000
0000
0002
0000
2003
0000
3200
,  // measure 61
0000
0000
0000
1300
1000
0100
0010
0100
,  // measure 62
2000
0000
3000
0001
0001
0100
0010
0100
,  // measure 63
0002
0000
1003
0001
0000
1000
0100
0010
,  // measure 64
0001
0010
0001
0010
0001
1000
0001
1000
0010
1000
0010
1000
0010
0100
0010
0100
,  // measure 65
0002
0000
0000
1000
0000
0000
1003
0000
0001
0010
0000
0000
0110
0000
0000
0000
,  // measure 66
1000
0000
0100
0010
0000
0100
1000
0000
0100
0010
0000
0000
0001
1000
0001
1000
,  // measure 67
0010
0000
0001
0010
0000
1000
0010
0000
0000
0100
0001
0100
0001
1000
0001
1000
,  // measure 68
0001
0000
1000
0100
0000
1000
0010
0000
0000
0010
1000
0010
1000
0001
1000
0001
,  // measure 69
0100
0000
0001
0010
0000
0001
0100
0000
0000
0001
1000
0001
1000
0100
0010
0001
,  // measure 70
0020
0000
0000
0001
0000
0000
0100
0000
0000
0031
0000
0000
1000
0010
0100
0001
,  // measure 71
0200
0000
0000
0001
0000
0000
0010
0000
0320
0000
0000
0000
0030
0000
1000
0001
,  // measure 72
0020
0000
0030
1100
0000
0000
1000
1000
,  // measure 73
0020
0000
0000
0000
0030
0000
0100
0001
1000
0000
0000
0000
0001
0010
0100
1000
,  // measure 74
0001
0000
0100
0010
0000
0100
0001
0000
0100
0010
0000
0000
1000
0001
1000
0001
,  // measure 75
0010
0000
1000
0010
0000
0001
0010
0000
0000
0100
1000
0100
1000
0001
1000
0001
,  // measure 76
0100
0000
0001
0000
0100
0000
0010
0000
0100
0000
0001
0100
0010
1000
0001
0010
,  // measure 77
0100
0000
1000
0000
0100
0000
0010
0000
0000
0001
0010
0001
1000
0010
0100
0001
,  // measure 78
2000
0000
0000
0010
0000
0000
3001
0000
2000
0000
0000
0010
0000
0000
3001
0000
,  // measure 79
1000
0000
0000
0100
0000
0000
0010
0000
1001
0000
0000
0001
0000
0000
1000
0000
,  // measure 80
0020
0000
0000
0000
0000
0000
0000
0000
0100
0000
0000
0100
0000
0000
0130
0000
,  // measure 81
0101
1001
1100
0011
,  // measure 82
2000
0000
0000
0000
0000
0000
0000
0000
3001
0100
0001
0100
0010
1000
0010
1000
,  // measure 83
0002
0000
0000
0000
0000
0000
0000
0000
1003
0100
1000
0100
0010
0001
0010
0001
,  // measure 84
1000
0000
0000
0101
0000
0000
0001
0001
,  // measure 85
0000
1000
1000
0000
2002
0000
3003
0000
;

//---------------dance-single - ----------------
#NOTES:
     dance-single:
     :
     Medium:
     13:
     0.543086,0.619887,0.374207,0.391216,0.140328,447.000000,403.000000,44.000000,46.000000,0.000000,0.000000,0.543086,0.619887,0.374207,0.391216,0.140328,447.000000,403.000000,44.000000,46.000000,0.000000,0.000000:
0000
0000
0000
0000
,
0000
0000
0000
0000
,
0000
0000
0000
0000
,
0000
0000
0000
0000
,
1010
0000
0000
0101
0000
0000
2002
0000
,
0000
0000
0000
3003
,
0011
0000
0000
1100
0000
0000
2002
0000
,
0000
0000
3003
0000
1000
0001
1000
0001
,
0011
0000
1000
0100
0001
0100
1000
0000
,
1001
0000
0001
0100
1000
0100
0001
0000
,
0100
0010
0100
0010
1000
0001
1000
0001
,
2002
0000
0000
3003
1000
0100
0010
0001
,
2000
0000
0000
0010
0000
0000
0010
0000
0000
0010
3000
0000
1000
0000
0001
0000
,
0002
0000
0000
0010
0000
0000
0010
0000
0000
0010
0003
0000
0010
0000
0100
0000
,
1000
0000
0000
0100
0000
0000
1000
0000
0000
0100
0000
0000
0010
0000
0010
0000
,
0001
0000
0000
0100
0000
0000
0001
0000
0000
0100
0000
0000
0010
0000
0010
0000
,
1000
0000
0000
0010
0000
0000
0100
0000
0000
0010
0000
0000
1000
0000
1000
0000
,
0001
0000
0000
0010
0000
0000
0100
0000
0000
0010
0000
0000
0001
0000
1000
0000
,
0010
0000
0000
0001
0000
0000
0010
0000
0000
1000
0000
0000
0001
0000
0001
0000
,
0010
0000
0000
1000
0000
0000
0010
0000
0000
0001
0000
0000
1000
0000
1000
0000
,
0001
0000
0000
0100
0000
0000
0010
0000
0000
1000
0000
0000
0010
0000
0100
0000
,
0020
0000
0200
0330
,
0101
0000
1000
0100
0010
0000
1000
0010
,
0001
0000
0011
0000
1000
0010
0100
0001
,
0101
0000
0001
0100
0010
0000
0001
0010
,
1000
0000
1010
0000
0001
0010
0100
0000
,
1100
0000
1000
0001
0100
0000
0010
1000
,
0010
0000
0101
0000
1000
0100
0010
0001
,
1000
0010
1000
0010
0001
0010
0001
0010
,
0100
0101
2002
3003
,
1100
0000
0000
0011
0000
0000
1001
0000
,
1000
0001
0010
0001
1000
0001
0100
0001
,
0101
0000
0000
1010
0000
0000
1001
0000
,
0001
1000
0010
1000
0001
1000
0100
1000
,
1100
0000
0000
0011
0000
0000
1001
0000
,
0001
0010
0001
0100
0001
0010
0001
0100
,
0101
0000
0000
1010
0000
0000
1001
0000
,
1000
0010
1000
0100
1000
0010
1000
0100
,
0020
0000
0031
0010
0001
0000
1001
0000
,
1000
0010
0001
0010
0200
0000
0000
0000
,
0301
0000
1000
0100
1000
0000
1001
0000
,
0001
0010
1000
0010
0200
0000
0000
0000
,
1300
0000
0001
0100
0010
0000
1001
0000
,
2000
0000
3100
0010
,
0001
0000
1000
0010
1000
0000
1000
0001
,
2000
3200
0320
0032
,
2003
0000
0010
0000
,
0010
0000
0010
3000
,
1000
0001
1000
0001
1000
0001
1000
0001
,
0020
0000
0030
0010
0010
0001
0010
0100
,
1000
0000
0000
0002
0000
2003
0000
3020
,
0000
0000
0030
0010
0010
1000
0010
0100
,
0001
0000
0000
2000
0000
3002
0000
0023
,
0000
0000
0030
0010
0010
0001
1000
0010
,
0100
0000
0000
0101
0000
0000
0000
0001
,
1000
0000
0000
1100
0000
0000
0000
0010
,
0002
1000
0010
1000
,
0103
0000
0000
0100
0100
0001
0100
0010
,
1000
0000
0000
0002
0000
2003
0000
3200
,
0000
0000
0300
0100
0100
1000
0100
0010
,
0001
0000
0000
2000
0000
3002
0000
0203
,
0000
0000
0300
0001
0001
0100
0010
0100
,
0001
0000
0000
1000
1000
0100
0010
0100
,
1000
0000
0001
0001
0000
1000
0100
0020
,
0000
0001
1000
0001
,
0230
0000
0300
1001
,
1000
0000
0000
0100
0000
0000
0010
0000
0000
0100
0000
0000
1000
0000
0001
0000
,
0100
0000
0000
0100
0000
0000
0101
0000
0000
0000
0000
0000
0010
0000
1000
0000
,
0001
0000
0000
0001
0000
0000
0011
0000
0000
0000
0000
0000
1000
0000
0100
0000
,
1000
0000
0000
1000
0000
0000
1100
0000
0000
0000
0000
0000
0001
0000
0100
0000
,
0010
0000
0000
1000
0000
0000
0010
0000
0000
0001
0000
0000
0010
0000
1000
0000
,
0100
0000
0000
0100
0000
0000
0100
0000
0020
0000
0000
0000
0000
0000
0000
0000
,
0031
0000
0000
1001
0000
0000
0001
1000
,
0020
0000
0130
0000
,
0001
0000
0000
0100
0000
0000
0010
0000
0000
0100
0000
0000
0001
0000
1000
0000
,
0100
0000
0000
0100
0000
0000
1100
0000
0000
0000
0000
0000
0010
0000
0001
0000
,
1000
0010
0100
0010
1000
0100
0010
0001
,
0010
0100
0010
0001
0000
0000
0001
1000
,
0020
0000
0000
1030
0000
0000
0000
0000
0020
0000
0000
1030
0000
0000
0000
0000
,
0001
0000
0000
0001
0000
0000
0001
0000
1001
0000
0000
0000
1000
0000
0100
0000
,
0020
0000
0000
0000
0000
0000
0030
0000
0001
0000
0000
0001
0000
0000
0001
0000
,
1000
0010
0100
0001
,
0020
0000
0000
0000
0130
1000
0100
1000
,
0020
0000
0000
0000
0130
0001
0100
0001
,
0101
0000
0000
0011
0000
0000
1000
1000
,
0000
0001
0001
0000
2002
0000
3003
0000
;

//---------------dance-single - ----------------
#NOTES:
     dance-single:
     :
     Easy:
     7:
     0.324394,0.474031,0.187103,0.136075,0.000000,267.000000,245.000000,22.000000,16.000000,0.000000,0.000000,0.324394,0.474031,0.187103,0.136075,0.000000,267.000000,245.000000,22.000000,16.000000,0.000000,0.000000:
0000
0000
0000
0000
,
0000
0000
0000
0000
,
0000
0000
0000
0000
,
0000
0000
0000
0000
,
1000
0000
0000
1000
0000
0000
1100
0000
,
0000
0000
0000
0000
,
0001
0000
0000
0001
0000
0000
0101
0000
,
0000
0000
0000
0000
0001
1000
0001
1000
,
0010
0001
0010
1000
,
0001
0010
1000
0010
,
0100
0010
0100
0010
0100
0010
0100
0010
,
0200
0000
0000
0300
,
1000
0000
0000
1000
0000
0000
1000
0000
,
0001
0000
0000
0001
0000
0000
0001
0000
,
1000
0010
1000
0100
,
0010
0001
0100
0001
,
0010
0100
0010
0001
,
1000
0000
0010
0000
0100
0000
0010
0010
,
0010
1000
0010
0001
,
1000
0100
0001
1000
,
0001
0010
1000
0010
,
0200
0000
0000
0300
,
1000
1000
0001
0001
,
0010
0001
0010
0000
,
0001
0001
1000
1000
,
0100
1000
0100
0000
,
1000
1000
0010
0010
,
0100
0001
0010
0000
,
0001
0001
1000
1000
,
0010
0100
0110
0000
,
0001
0000
0000
0001
0000
0000
0101
0000
,
0000
1000
0001
1000
,
0100
0000
0000
0100
0000
0000
1100
0000
,
0000
0001
0010
0001
,
1000
0000
0000
1000
0000
0000
1010
0000
,
0000
0001
1000
0001
,
0100
0000
0000
0100
0000
0000
0101
0000
,
0000
1000
0001
1000
,
0020
0000
1030
1000
,
0001
0000
0101
0000
,
0002
0000
0013
0010
,
0100
0000
1100
0000
,
2000
0000
3010
0010
,
0100
0000
0001
1000
,
1100
0000
1001
0000
,
1000
0100
0010
0001
,
0100
0000
0100
0000
,
0100
0000
0100
0000
,
0001
1000
0001
1000
,
0020
0000
0000
0030
,
1010
0000
0000
0001
0000
1000
0000
0100
,
0000
0000
0010
0010
,
0011
0000
0000
1000
0000
0001
0000
0100
,
0000
0000
0010
0010
,
2000
0000
0000
3100
0000
0000
0000
0000
,
0002
0000
0000
0103
0000
0000
0000
0000
,
2000
0000
0000
3000
,
0000
0000
0001
0001
,
0101
0000
0000
0010
0000
1000
0000
0001
,
0000
0000
1000
1000
,
1100
0000
0000
0010
0000
0001
0000
1000
,
0000
0000
0001
0100
,
0010
0000
1000
0100
,
0010
0001
1000
0000
,
2002
0000
0000
3003
,
0000
0000
0000
0000
,
1000
0010
0100
0010
,
1000
0001
0010
0000
,
0100
1000
0100
0000
,
0001
0100
1000
0000
,
0001
0000
0000
0001
0000
0000
0001
0000
,
1000
1000
1100
0000
,
1000
0000
0000
0010
0000
0000
0100
0000
,
0100
0000
0101
0000
,
0001
0100
0010
0100
,
0001
1000
0100
0000
,
0010
0001
0010
1000
,
0010
0010
0011
0000
,
1000
0000
1000
0000
,
0001
0100
0010
0000
,
2000
3000
0001
0001
,
0010
0100
0010
0001
,
0020
0000
0031
0001
,
2000
0000
3010
0010
,
0101
0000
0000
1001
0000
0000
1000
0000
,
0000
0001
0000
0000
0220
0000
0330
0000
;
