#TITLE:Веснянка;
#SUBTITLE:;
#ARTIST:Go_A;
#TITLETRANSLIT:Vesnyanka;
#SUBTITLETRANSLIT:;
#ARTISTTRANSLIT:;
#GENRE:Drum & Bass;
#CREDIT:;
#BANNER:Vesnyanka-bn.png;
#BACKGROUND:Vesnyanka-bg.png;
#LYRICSPATH:;
#CDTITLE:cdtitle.png;
#MUSIC:Vesnyanka.ogg;
#OFFSET:-0.002000;
#SAMPLESTART:32.916000;
#SAMPLELENGTH:21.943001;
#SELECTABLE:YES;
#BPMS:0.000000=175.000000
;
#STOPS:
;
#BGCHANGES:0.000=Vesnyanka.avi=1.000=1=0=0=StretchNoLoop==CrossFade==,
99999=-nosongbg-=1.000=0=0=0 // don't automatically add -songbackground-
;
#KEYSOUNDS:;
#ATTACKS:;

//---------------dance-single - ----------------
#NOTES:
     dance-single:
     :
     Hard:
     14:
     0.621740,0.857092,0.254562,0.369525,0.377737,530.000000,499.000000,31.000000,45.000000,0.000000,0.000000,0.621740,0.857092,0.254562,0.369525,0.377737,530.000000,499.000000,31.000000,45.000000,0.000000,0.000000:
0000
0000
0000
0000
,
0000
0000
0000
0000
,
0000
0000
0000
0000
,
0000
0000
0000
0000
,
1000
0100
0000
1100
0000
0000
0000
0000
,
0001
1000
0010
1000
0100
0010
0000
0000
,
0001
0010
0000
0020
0000
0000
0000
0000
,
0000
0032
0000
0000
,
1003
0100
0001
0010
,
1000
0010
1000
0000
0001
0000
0100
0000
,
0020
0001
1030
0010
,
0100
0001
1000
0000
0010
0000
0100
0000
,
0002
0100
1003
0001
,
0100
0010
0001
0000
0010
0000
1000
0000
,
0200
1000
0001
0310
,
0010
0100
0010
0000
0001
0000
1000
0000
,
0010
1000
0002
0000
0023
0000
0230
0000
,
1300
0100
0020
0000
2030
0000
3020
0000
,
0031
0010
0200
0000
2300
0000
3020
0000
,
0130
0010
2000
0000
3002
0000
0203
0000
,
0310
0100
1000
0100
0001
0010
0100
0010
,
0001
1000
0100
0001
0100
1000
0010
1000
,
0100
1000
0100
1000
0100
1000
0100
1000
0100
0010
0100
0010
0100
0010
0100
0010
,
0200
0300
2000
3000
0002
0003
0200
0300
,
1001
0000
0000
0000
1000
0000
0000
0001
0010
0000
0001
0000
0000
0000
1000
0000
,
0100
0000
1000
0000
0001
0000
0000
0010
0100
0000
1000
0000
0000
0000
1000
0001
,
1000
0000
0010
0000
1000
0000
0000
0100
0010
0000
0100
0000
0000
0000
0100
0000
,
1000
0000
0001
0000
0100
0000
0000
0010
1000
0000
0100
0000
0000
1000
0000
1000
,
0001
0000
0000
0000
1001
0000
0000
1000
0100
0000
1000
0000
0000
0000
1000
0000
,
0010
0000
0100
0000
0001
0000
0000
0010
0001
0000
0100
0000
0000
0000
0001
1000
,
0001
0000
0100
0000
0010
0000
0000
1000
0100
0000
1000
0000
0000
0000
0100
0000
,
0010
0000
0001
0000
0100
0000
0000
0010
0100
0000
0001
0000
0000
1000
0000
1000
,
0001
0000
0000
0000
0101
0000
0000
0001
1000
0000
0001
0000
0000
0000
0100
0000
,
0010
0000
0100
0000
0001
0000
0000
0010
0100
0000
1000
0000
0000
0000
0100
1000
,
0100
0000
1000
0000
0001
0000
0000
0010
0001
0000
0100
0000
0000
0000
0001
0010
,
0001
0000
0010
0000
0100
0000
0000
1000
0001
0000
0100
0000
0000
0010
0000
0010
,
1000
0000
0000
0000
1001
0000
0000
0001
1000
0000
0010
0000
0000
0000
0010
0100
,
0010
0000
1000
0000
0100
0000
0000
1000
0001
0000
0010
0000
0000
0000
0001
0100
,
0001
0000
0010
0000
0100
0000
0000
0100
1000
0000
0001
0000
0000
0000
0100
0010
,
0100
0000
0001
0000
1000
0000
0000
0100
1000
0000
0001
0000
0100
0010
0100
0010
,
0100
0000
0000
0000
0110
0000
0000
0100
0010
0000
1000
0000
0100
0000
0000
0000
,
1000
0000
0001
0000
0100
0000
0000
0010
0100
0000
0001
0000
0010
0000
0000
0000
,
0001
0000
0000
0000
0101
0000
0000
0100
0001
0000
1000
0000
0100
0000
0000
0000
,
0010
0000
0100
0000
1000
0000
0000
0001
0100
0000
0001
0000
1000
0000
0000
0000
,
0100
0000
0000
0000
0110
0000
0000
0010
0001
0000
1000
0000
0001
0000
0000
0000
,
0100
0000
0010
0000
0100
0000
0000
0001
0010
0000
0001
0000
1000
0000
0000
0000
,
1010
0101
0011
1100
,
1000
0000
1000
0000
0001
0000
0001
0000
0010
0100
0010
0100
0010
0001
0010
0001
,
0010
0000
1001
0000
1000
0010
0100
0010
,
1000
0000
0000
0000
1001
0000
0000
0000
0001
0000
0010
0000
0100
0000
1000
0100
,
1000
0000
1100
0000
0100
1000
0010
0100
,
0001
0000
0000
0000
1001
0000
0000
0000
0001
0000
1000
0000
0001
0000
1000
0010
,
1000
0000
1001
0000
1000
0100
0001
0100
,
1000
0000
0000
0000
1100
0000
0000
0000
0001
0000
1000
0000
0010
0000
0100
0010
,
0100
0000
0110
0000
0010
1000
0001
1000
,
0010
0000
0000
0000
1001
0000
0000
0000
1000
0000
0001
0000
1000
0000
0001
0010
,
0001
0000
0011
0000
0010
0100
1000
0001
,
0100
0000
0000
0000
0101
0000
0000
0000
1000
0000
0001
0000
0100
0000
0001
1000
,
0001
0000
1001
0000
0100
1000
0001
1000
,
0100
0000
0000
0000
1100
0000
0000
0000
1000
0000
0010
0000
1000
0000
0010
0100
,
0010
0000
1001
0000
0001
0010
1000
0010
,
0001
0000
0000
0000
0011
0000
0000
0000
0001
0000
1000
0000
0100
0000
0010
0100
,
0010
0001
0011
1000
1010
0010
0110
0100
,
0001
0100
0001
0100
0001
0000
0001
0000
1000
0100
1000
0100
1000
0000
1000
0000
,
1001
0000
0000
0001
0000
0001
0100
0000
0100
0010
1000
0001
,
2000
0000
3001
0010
0200
0000
0320
0000
,
0031
0000
0000
1000
0000
1000
0010
0000
0010
0100
0001
1000
,
0200
0000
0310
0100
2000
0000
3002
0000
,
0103
0000
0000
0010
0000
0010
1000
0000
1000
0010
0100
0001
,
0020
0000
0031
0100
2000
0000
3200
0000
,
0301
0000
0000
1000
0000
1000
0001
0000
0001
0100
0010
1000
,
0200
0000
0301
0100
2000
0000
3002
0000
,
1003
0000
0000
0100
0000
0100
1000
0000
1000
0001
0100
0001
,
0020
0000
0130
0010
0002
0000
2003
0000
,
3010
0000
0000
1000
0000
1000
0001
0000
0001
0100
0001
0010
,
0200
0000
0301
0100
2000
0000
3002
0000
,
0103
0000
0000
0001
0000
0001
1000
0000
1000
0100
0010
0100
,
2000
0000
3010
1000
0002
0000
0023
0000
,
0130
0000
0000
0010
0000
0010
0001
0000
0001
1000
0010
1000
,
0002
0000
1003
0100
0001
1000
0010
0001
,
0022
0000
0000
0000
,
0000
0000
0000
0000
,
0000
0000
0000
0000
,
0000
0000
0033
0000
;

//---------------dance-single - ----------------
#NOTES:
     dance-single:
     :
     Medium:
     11:
     0.458680,0.582823,0.082117,0.583028,0.098540,391.000000,381.000000,10.000000,71.000000,0.000000,0.000000,0.458680,0.582823,0.082117,0.583028,0.098540,391.000000,381.000000,10.000000,71.000000,0.000000,0.000000:
0000
0000
0000
0000
,
0000
0000
0000
0000
,
0000
0000
0000
0000
,
0000
0000
0000
0000
,
0100
1000
0000
2000
0000
0000
0000
0000
,
0001
0000
0000
0000
0000
0020
3000
0000
,
0100
0100
0000
0230
0000
0000
0000
0000
,
0000
0302
0000
0000
,
2003
0000
0010
3000
,
1000
0100
0010
0000
0001
0000
0100
0000
,
0020
0000
0130
0010
,
1000
0001
0010
0000
1000
0000
0010
0000
,
0002
0000
0103
0001
,
1000
0100
0010
0000
1000
0000
0010
0000
,
0002
0000
0100
0003
,
0001
0010
0100
1000
,
0100
1000
0100
0000
0010
0000
0001
0000
,
0100
0001
0100
0000
0010
0000
1000
0000
,
0001
0100
0001
0000
0010
0000
0100
0000
,
1000
0100
1000
0000
0001
0000
0100
0000
,
0001
0010
0100
0010
0001
0010
0100
0010
,
0001
0100
1000
0100
0001
0100
1000
0100
,
0001
0001
0001
0001
1000
1000
1000
1000
,
0200
0000
0000
0000
,
0310
0000
0110
0000
0100
1000
0000
0001
,
0100
0001
0010
0000
0010
0100
0000
1000
,
0010
0100
0001
0000
0100
0010
0000
1000
,
0100
1000
0001
0000
0010
0100
0000
0100
,
1000
0001
0100
0000
0010
0100
0000
0001
,
0100
0010
1000
0000
0100
1000
0000
0100
,
0010
0001
0100
0000
0001
0010
0000
0001
,
2000
3200
0302
0023
,
1030
0000
1010
0000
0010
1000
0000
0001
,
0010
0001
1000
0000
0100
0010
0000
0100
,
1000
0001
0100
0000
0010
0100
0000
0001
,
0010
0100
1000
0000
0100
0010
0000
0100
,
1000
0001
0010
0000
0100
1000
0000
0010
,
1000
0001
0100
0000
0010
1000
0000
0100
,
0010
0001
1000
0000
0010
0100
0000
0001
,
2000
3020
2030
3000
,
0200
0010
0000
1300
,
0001
0100
0001
0000
0010
0000
0100
0000
,
2000
0000
0010
0000
3000
1000
0001
0000
,
0010
0100
0010
0000
0001
0000
1000
0000
,
0200
0000
0010
0000
0300
0100
1000
0000
,
0001
1000
0010
0000
0100
0000
0001
0000
,
0020
0100
0001
0130
,
1000
0010
0001
0010
2000
0000
0000
0000
,
3100
1000
1100
0000
1000
0000
0001
0000
,
0100
0000
0001
0000
0010
0000
0000
0000
0100
0000
0000
0000
1000
0000
0010
1000
,
0010
0000
0100
0000
0010
0100
0001
0000
,
1000
0100
0001
0100
1000
0010
0001
0010
,
1000
1001
0001
0100
,
0010
0000
1000
0000
0200
0000
0000
0000
0301
0000
0200
0000
0000
0000
1300
0100
,
1000
0001
0100
0010
,
1000
0000
0100
0000
0020
0000
0000
0000
1030
0000
0020
0000
0000
0000
0031
0010
,
0001
0000
0101
0000
0100
0001
1000
0000
,
0010
0000
0000
0000
1000
0000
0100
0000
0010
0000
0000
0000
0100
0000
1000
0100
,
1000
0000
0001
0000
0100
0001
0010
0000
,
0100
0000
1000
0000
0100
0000
0001
0000
0100
0000
0010
0000
0001
0000
1000
0001
,
1000
1100
0100
1000
,
0001
0000
0010
0000
0200
0000
0000
0000
1300
0000
0200
0000
0000
0000
0310
0100
,
0010
0110
1001
1010
,
2000
3002
0023
0030
,
0011
0000
0000
0001
0000
0001
1000
0000
1000
0010
0000
0010
,
2000
3020
0032
0203
,
1300
0000
0000
0100
0000
0100
1000
0000
1000
0001
0000
0001
,
0200
0320
2030
3200
,
0310
0000
0000
0001
0000
0001
1000
0000
1000
0010
0000
0010
,
0200
0302
0023
0230
,
2300
3020
0032
0023
,
2030
3200
0302
0203
,
1300
0000
0000
0100
0000
0100
0010
0000
0010
0001
0000
0001
,
2000
3200
0302
0023
,
1030
0000
0000
0010
0000
0010
0100
0000
0100
0001
0000
0001
,
2000
3200
0320
0032
,
0103
0000
0000
0001
0000
0001
0100
0000
0100
0010
0000
0010
,
2000
3200
0302
0203
,
2300
3020
0230
0302
,
0023
2030
3020
0032
,
0203
0000
0000
0000
,
0000
0000
0000
0000
,
0000
0000
0000
0000
,
0000
0000
0300
0000
;

//---------------dance-single - contains shock arrows----------------
#NOTES:
     dance-single:
     :
     Challenge:
     16:
     0.682741,0.925660,0.164233,0.336678,0.505017,582.000000,562.000000,20.000000,41.000000,87.000000,0.000000,0.682741,0.925660,0.164233,0.336678,0.505017,582.000000,562.000000,20.000000,41.000000,87.000000,0.000000:
// measure 0
0000
0000
0000
0000
,  // measure 1
0000
0000
0000
0000
,  // measure 2
0000
0000
0000
0000
,  // measure 3
0000
0000
0000
0000
,  // measure 4
0002
0203
0320
2030
,  // measure 5
0000
3200
0320
0032
,  // measure 6
0000
2003
3002
0203
,  // measure 7
0000
0320
0230
0302
,  // measure 8
1003
0100
0001
0100
,  // measure 9
1000
0001
0200
0000
2300
0000
3200
0000
,  // measure 10
0301
0010
0200
0000
2300
0000
3002
0000
,  // measure 11
0103
0010
0002
0000
0023
0000
2030
0000
,  // measure 12
3100
0010
0002
0000
0203
0000
2300
0000
,  // measure 13
3001
0010
2000
0000
3002
0000
0203
0000
,  // measure 14
0310
1000
0200
0000
0320
0000
0032
0000
,  // measure 15
1003
0001
0200
0000
0320
0000
0032
0000
,  // measure 16
0013
0100
0001
1000
0100
0010
0001
0100
,  // measure 17
0010
1000
0001
0100
0010
0100
0001
0010
,  // measure 18
0100
1000
0010
1000
0100
0001
0100
0010
,  // measure 19
0100
1000
0001
0100
1000
0100
0010
0100
,  // measure 20
0001
0001
0001
0001
1000
1000
1000
1000
,  // measure 21
0100
0100
0100
0100
0010
0010
0010
0010
,  // measure 22
0001
0010
0001
0010
0100
1000
0100
1000
0010
0100
0010
0100
0001
1000
0001
2000
,  // measure 23
0002
0000
0000
0000
0000
0000
0000
3003
,  // measure 24
MMMM
0000
0000
0000
0110
0000
0000
0100
0010
0000
0110
0000
0000
0000
0100
0000
,  // measure 25
0001
0000
1000
0000
0001
0000
0000
0010
0100
0000
0010
0000
0001
0000
1000
0100
,  // measure 26
0010
0000
0100
0000
1000
0000
0000
0001
0100
0000
0001
0000
1000
0000
0100
0000
,  // measure 27
0001
0000
0100
0000
1000
0000
0000
0001
0100
0001
0000
0000
0010
0100
0000
0100
,  // measure 28
1000
0000
0000
0000
1001
0000
0000
0100
1000
0000
1100
0000
0000
0000
1000
0000
,  // measure 29
0010
0000
1000
0000
0100
0000
0000
1000
0001
0000
1000
0000
0010
0000
0100
0010
,  // measure 30
1000
0000
0001
0000
0100
0000
0000
0001
1000
0000
0100
0000
1000
0000
0001
1000
,  // measure 31
0010
0000
1000
0000
0100
0000
0000
1000
0010
1000
0000
0000
0100
0010
0000
0010
,  // measure 32
0001
0000
0000
0000
0101
0000
0000
1000
0001
0000
1001
0000
0000
0000
0001
0000
,  // measure 33
0100
0000
0010
0000
1000
0000
0000
0100
1000
0000
0001
0000
0100
0000
0001
0010
,  // measure 34
0100
0000
0010
0000
0001
0000
0000
1000
0010
0000
1000
0000
0001
0000
0100
0000
,  // measure 35
0010
0000
1000
0000
0001
0000
0000
0100
0010
0100
0000
0000
0001
1000
0000
1000
,  // measure 36
0100
0000
0000
0000
1100
0000
0000
1000
0001
0000
0101
0000
0000
0000
0100
0000
,  // measure 37
0010
0000
1000
0000
0100
0000
0000
0100
0010
0000
0001
0000
1000
0000
0010
1000
,  // measure 38
0001
0000
0010
0000
0100
0000
0000
0100
1000
0000
0001
0000
1000
0000
0100
0010
,  // measure 39
0001
0000
1000
0000
0001
0000
0000
1000
0100
1000
0000
0000
0001
0010
0000
0010
,  // measure 40
0100
0000
1001
0000
1000
0010
0001
0000
,  // measure 41
1000
0000
0100
0000
0001
0000
0000
0100
0010
0000
0100
0000
0001
0000
0000
0000
,  // measure 42
0010
0000
0000
0000
1100
0000
0000
1000
0100
0000
1000
0000
0001
0000
0000
0000
,  // measure 43
0010
0000
0100
0000
0010
0000
0000
0001
1000
0000
0100
0000
1000
0000
0000
0000
,  // measure 44
0010
0000
0000
0000
0101
0000
0000
0001
1000
0000
0001
0000
0100
0000
0000
0000
,  // measure 45
0001
0000
0010
0000
0100
0000
0000
1000
0100
0000
1000
0000
0010
0000
0000
0000
,  // measure 46
1010
MMMM
0011
MMMM
0101
MMMM
1100
MMMM
,  // measure 47
1000
0000
0100
0000
0010
0000
0001
0000
0100
0001
0100
0001
1000
0010
1000
0010
,  // measure 48
0100
0000
1001
1000
0010
0001
1000
0100
,  // measure 49
0010
0000
1000
0000
0010
0000
0100
0000
0001
0000
0100
0000
1000
0000
0100
0010
,  // measure 50
0100
0001
1000
0100
0010
0100
1000
0001
,  // measure 51
0100
1000
0100
0001
1000
1000
0100
0100
,  // measure 52
MMMM
0000
0011
0010
0100
1000
0010
0001
,  // measure 53
0010
0000
0100
0000
0010
0000
1000
0000
0001
0000
0100
0000
0010
0000
1000
0010
,  // measure 54
1000
0100
1000
0001
0100
1000
0001
0010
,  // measure 55
1000
0001
1000
0010
0100
0100
0010
0010
,  // measure 56
MMMM
0000
1100
1000
0010
0001
0010
0100
,  // measure 57
0001
0000
1000
0000
0100
0000
0001
0000
1000
0000
0010
0000
0100
0000
1000
0100
,  // measure 58
1000
0001
0100
0001
0010
1000
0010
0001
,  // measure 59
0100
0010
1000
0001
0100
0100
0010
0010
,  // measure 60
MMMM
0000
0011
0010
0001
1000
0100
0001
,  // measure 61
1000
0000
0010
0000
0100
0000
1000
0000
0001
0000
0100
0000
0001
0000
0010
0100
,  // measure 62
0010
0001
0010
1000
0010
0001
0010
0100
,  // measure 63
1000
0100
1000
0100
0010
0001
0010
0001
0100
0010
0100
0010
1000
0100
1000
0100
,  // measure 64
0010
0000
0000
0001
0010
1000
0010
0100
1000
0100
0010
0100
,  // measure 65
1000
0000
0000
0001
0100
0010
1000
0000
0000
1000
0100
0010
,  // measure 66
0002
0000
0000
0103
0001
0010
0001
1000
0010
1000
0001
0010
,  // measure 67
0100
0000
0000
1000
0010
0100
0001
0000
0000
0001
0100
0010
,  // measure 68
2000
0000
0000
3001
1000
0100
1000
0001
0010
1000
0010
0100
,  // measure 69
1000
0000
0000
0001
0010
0100
1000
0000
0000
1000
0010
0100
,  // measure 70
0001
MMMM
0100
MMMM
1000
MMMM
0010
MMMM
,  // measure 71
0001
MMMM
1000
MMMM
0001
0100
0010
1000
,  // measure 72
1100
0000
0000
1000
0100
0001
0100
0010
0100
1000
0001
0100
,  // measure 73
0010
0000
0000
1000
0010
0100
0001
0000
0000
0001
0100
0010
,  // measure 74
2000
0000
0000
3010
1000
0001
1000
0010
0001
0010
0100
0010
,  // measure 75
1000
0000
0000
0010
0100
0001
1000
0000
0000
0001
0100
0010
,  // measure 76
2000
0000
0000
3100
0010
0001
1000
0010
0001
0010
1000
0100
,  // measure 77
1000
0000
0000
0001
0100
0010
1000
0000
0000
1000
0100
0010
,  // measure 78
0001
MMMM
0100
MMMM
1000
MMMM
0010
MMMM
,  // measure 79
0001
MMMM
0100
MMMM
0001
0100
1000
0100
,  // measure 80
0002
M000
0000
0M00
,  // measure 81
0000
00M0
0000
M000
,  // measure 82
0000
0M00
0000
00M0
,  // measure 83
0000
0M00
0003
0000
;

//---------------dance-single - ----------------
#NOTES:
     dance-single:
     :
     Easy:
     7:
     0.314389,0.361313,0.041058,0.279197,0.000000,268.000000,263.000000,5.000000,34.000000,0.000000,0.000000,0.314389,0.361313,0.041058,0.279197,0.000000,268.000000,263.000000,5.000000,34.000000,0.000000,0.000000:
0000
0000
0000
0000
,
0000
0000
0000
0000
,
0000
0000
0000
0000
,
0000
0000
0000
0000
,
1000
0000
0000
0000
,
0001
0000
0000
0000
,
0100
0000
0000
0000
,
0001
0000
0000
0000
,
2000
0000
0100
3000
,
1000
0000
0001
0100
,
0002
0000
0013
0000
,
0100
0000
1000
0100
,
0020
0000
0031
0000
,
1000
0000
0010
1000
,
0200
0000
0010
0300
,
0100
0000
1000
0001
,
0100
0000
0010
0100
,
0001
0000
1000
0100
,
0010
0000
0100
0010
,
0001
0000
1000
0001
,
0100
0000
0010
0100
,
0001
0000
0010
0100
,
1000
0000
0100
0010
,
0002
0000
0000
0000
,
0003
1001
1000
0010
,
1000
0100
1000
0001
,
0100
0010
0100
0001
,
0010
0100
1000
0001
,
1000
0100
0010
0100
,
1000
0001
0100
0001
,
1000
0100
0010
0001
,
0100
0010
1000
0001
,
0100
0010
0100
0001
,
1000
0100
1000
0001
,
0100
0001
0010
0100
,
0010
0001
1000
0010
,
1000
0100
0010
0001
,
0100
0001
0010
0100
,
1000
0010
1000
0100
,
1000
0001
0100
0000
,
0001
0000
1001
0000
0000
1000
0100
0000
,
1000
0000
0001
0000
0000
0100
0001
0000
,
0010
0000
0100
0000
0000
1000
0100
0000
,
1000
0000
0001
0000
0000
0100
0001
0000
,
1000
0000
0100
0000
0000
1000
0010
0000
,
1000
0000
0001
0000
0000
0100
0001
0000
,
1000
0010
1000
0010
,
1000
0100
0010
0001
0200
0000
0000
0000
,
0300
0101
0001
1000
,
0010
0000
1000
0000
0001
0000
0010
0100
,
1000
0010
1000
0100
,
0010
0000
0001
0000
1000
0010
1000
0010
,
1000
0100
1000
0001
,
0100
0000
0010
0000
0100
0000
0001
0010
,
0100
1000
0001
1000
,
0100
0000
0010
0000
0001
0100
0001
0100
,
0001
1000
0010
1000
,
0001
0000
0010
0000
0100
0000
0010
0100
,
1000
0001
0100
0001
,
1000
0000
0100
0000
0010
0001
0010
0001
,
0010
0100
1000
0001
,
0100
0000
0010
0000
1000
0000
0010
1000
,
0001
0001
1000
1000
,
0020
0100
0230
0001
,
0302
0000
0100
0000
,
2003
3200
0320
0032
,
0100
0000
1000
0000
,
0203
0320
2030
3200
,
1000
0000
0010
0000
,
2300
3002
0203
0320
,
0100
0000
1000
0000
,
0130
0000
0010
1000
,
2001
0000
0100
0000
,
3002
0023
0230
2300
,
0100
0000
0010
0000
,
3002
2003
3200
0320
,
0100
0000
0001
0000
,
0230
2300
3002
0023
,
0100
0000
0001
0000
,
0130
0000
0000
0010
0001
0010
0001
0000
,
0011
0000
0000
0000
;

//---------------dance-single - ----------------
#NOTES:
     dance-single:
     :
     Beginner:
     4:
     0.165406,0.197080,0.016423,0.000000,0.000000,141.000000,139.000000,2.000000,0.000000,0.000000,0.000000,0.165406,0.197080,0.016423,0.000000,0.000000,141.000000,139.000000,2.000000,0.000000,0.000000,0.000000:
0000
0000
0000
0000
,
0000
0000
0000
0000
,
0000
0000
0000
0000
,
0000
0000
0000
0000
,
0001
0000
0000
0000
,
0000
0000
0000
0000
,
1000
0000
0000
0000
,
0000
0000
0000
0000
,
0001
0000
0000
0000
,
0100
0000
0000
0000
,
0010
0000
0000
0000
,
1000
0000
0000
0000
,
0100
0000
0000
0000
,
0010
0000
0000
0000
,
0001
0000
0100
0000
,
0001
0000
1000
0000
,
0001
0000
0100
0000
,
0001
0000
1000
0000
,
0100
0000
0010
0000
,
0001
0000
0100
0000
,
0010
0000
1000
0000
,
0001
0000
0010
0000
,
0100
0000
0010
0000
,
0001
0000
0000
0000
,
1000
0000
0001
0000
,
1000
0000
0010
0000
,
1000
0000
0001
0000
,
1000
0000
0010
0000
,
0100
0000
0001
0000
,
1000
0000
0001
0000
,
0010
0000
0100
0000
,
0010
0000
0001
0000
,
1000
0000
0001
0000
,
0010
0000
0100
0000
,
1000
0000
0010
0000
,
1000
0000
0100
0000
,
0010
0000
0001
0000
,
1000
0000
0001
0000
,
0100
0000
0001
0000
,
1000
0000
0100
0000
,
0000
1000
0000
1000
,
0000
0001
0000
0001
,
0000
0100
0000
0100
,
0000
0010
0000
0010
,
0000
1000
0000
1000
,
0000
0001
0000
0001
,
1000
0000
0001
0000
,
1000
0000
0000
0000
,
1001
0000
0001
0000
,
0100
0000
0001
0000
,
1000
0000
0100
0000
,
0010
0000
0100
0000
,
1000
0000
0001
0000
,
0100
0000
0001
0000
,
1000
0000
0100
0000
,
1000
0000
0001
0000
,
0100
0000
0001
0000
,
0010
0000
0100
0000
,
1000
0000
0001
0000
,
1000
0000
0010
0000
,
0100
0000
0001
0000
,
1000
0000
0100
0000
,
0010
0000
0001
0000
,
1000
0000
0001
0000
,
1000
0000
0010
0000
,
1000
0000
0001
0000
,
0100
0000
0001
0000
,
0010
0000
0100
0000
,
1000
0000
0010
0000
,
1000
0000
0001
0000
,
0100
0000
0001
0000
,
0010
0000
0100
0000
,
1000
0000
0100
0000
,
0010
0000
0001
0000
,
1000
0000
0010
0000
,
1000
0000
0001
0000
,
0100
0000
0010
0000
,
1000
0000
0010
0000
,
0100
0000
0001
0000
,
1000
0000
0001
0000
,
1001
0000
0000
0000
;
