#VERSION:0.83;
#TITLE:VERY NOISE;
#SUBTITLE:;
#ARTIST:Igorrr;
#TITLETRANSLIT:;
#SUBTITLETRANSLIT:;
#ARTISTTRANSLIT:;
#GENRE:VERY BREAKCORE;
#ORIGIN:Spirituality and Distortion;
#TAGS:;
#CREDIT:;
#BANNER:VERY NOISE.png;
#BACKGROUND:VERY NOISE-bg.png;
#PREVIEWVID:;
#JACKET:VERY NOISE-jacket.png;
#CDIMAGE:;
#DISCIMAGE:;
#LYRICSPATH:;
#CDTITLE:cdtitle.png;
#MUSIC:VERY NOISE.ogg;
#OFFSET:-0.106000;
#SAMPLESTART:12.120000;
#SAMPLELENGTH:24.000000;
#SELECTABLE:YES;
#DISPLAYBPM:120.000000:180.000000;
#BPMS:0.000000=180.000000
,129.250000=360.000000
,134.500000=180.000000
,140.750000=360.000000
,142.000000=180.000000
,157.250000=360.000000
,161.500000=180.000000
,199.000000=360.000000
,308.000000=180.000000
,317.500000=120.000000
;
#STOPS:114.250000=0.666668
,121.250000=0.333336
,129.250000=0.750000
,129.750000=0.041668
,130.000000=0.041664
,130.250000=0.041664
,130.500000=0.041664
,130.750000=0.125000
,131.500000=0.041668
,131.750000=0.750000
,132.250000=0.041668
,132.500000=0.041664
,132.750000=0.041664
,133.000000=0.041664
,133.250000=0.041664
,133.500000=0.583332
,134.000000=0.416668
,140.750000=0.416668
,141.250000=0.291668
,157.250000=0.750000
,157.750000=0.041668
,158.000000=0.041664
,158.250000=0.041664
,158.500000=0.041664
,158.750000=0.125000
,159.500000=0.041668
,159.750000=0.750000
,160.250000=0.041668
,160.500000=0.041664
,160.750000=0.041664
,161.000000=0.041664
,161.250000=0.041664
,161.500000=0.166668
,199.000000=0.166664
,200.000000=0.166664
,201.000000=0.125000
,201.750000=0.125000
,202.500000=0.166664
,203.500000=0.083336
,204.000000=0.083328
,204.500000=0.083328
,205.000000=0.083328
,210.500000=0.166672
,211.500000=0.125000
,212.250000=0.125000
,213.000000=0.166664
,214.000000=0.083336
,214.500000=0.083328
,215.000000=0.083328
,215.500000=0.083328
,221.000000=0.166672
,222.000000=0.125000
,222.750000=0.125000
,223.500000=0.166664
,224.500000=0.083336
,225.000000=0.083328
,225.500000=0.083328
,226.000000=0.083328
,243.500000=0.500000
,244.500000=0.166672
,245.500000=0.125000
,246.250000=0.125000
,247.000000=0.166664
,248.000000=0.083336
,248.500000=0.083328
,249.000000=0.083328
,249.500000=0.083328
,255.000000=0.166664
,256.000000=0.125000
,256.750000=0.125000
,257.500000=0.166664
,258.500000=0.083336
,259.000000=0.083328
,259.500000=0.083328
,260.000000=0.083328
,265.500000=0.166672
,266.500000=0.125000
,267.250000=0.125000
,268.000000=0.166664
,269.000000=0.083336
,269.500000=0.083328
,270.000000=0.083328
,270.500000=0.083328
;
#DELAYS:;
#WARPS:;
#TIMESIGNATURES:0.000000=9=4
,18.000000=7=5
,26.750000=1=37
,36.000000=9=4
,108.000000=7=4
,115.000000=8=4
,123.000000=3=9
,129.750000=5=2
,132.250000=1=9
,134.500000=5=6
,142.000000=9=4
,151.000000=3=9
,157.750000=5=2
,160.250000=1=5
,161.500000=3=4
,164.500000=9=4
,191.500000=2=17
,200.000000=3=14
,221.000000=2=11
,226.500000=5=4
,231.500000=4=4
,239.500000=5=4
,244.500000=4=11
,255.000000=3=14
,265.500000=2=11
,271.000000=5=4
,276.000000=4=4
,308.000000=2=13
,314.500000=4=6
,320.500000=4=4
;
#TICKCOUNTS:0.000000=4
;
#COMBOS:0.000000=1
;
#SPEEDS:0.000000=1.000000=0.000000=0
,24.250000=0.500000=1.000000=0
,25.250000=1.000000=1.000000=0
,32.250000=0.250000=0.000000=0
,32.333332=0.500000=0.000000=0
,32.416668=0.250000=0.000000=0
,32.500000=0.750000=0.000000=0
,32.583332=0.250000=0.000000=0
,32.666668=1.000000=0.000000=0
,32.750000=0.250000=0.000000=0
,33.562500=1.000000=1.500000=0
,67.500000=0.500000=1.500000=0
,67.562500=1.000000=0.500000=0
,68.000000=0.500000=0.000000=0
,68.062500=1.000000=0.500000=0
,68.500000=0.500000=0.000000=0
,68.562500=1.000000=1.000000=0
,69.250000=0.250000=0.000000=0
,69.312500=1.000000=2.750000=0
,78.000000=0.900000=0.000000=0
,78.250000=0.800000=0.000000=0
,78.500000=0.700000=0.000000=0
,78.750000=0.600000=0.000000=0
,79.000000=0.500000=0.000000=0
,79.250000=0.400000=0.000000=0
,79.500000=0.500000=0.000000=0
,79.750000=0.600000=0.000000=0
,80.000000=0.700000=0.000000=0
,80.250000=0.800000=0.000000=0
,80.500000=0.900000=0.000000=0
,80.750000=1.000000=0.000000=0
,89.500000=0.500000=0.000000=0
,89.562500=1.000000=0.500000=0
,94.500000=0.500000=0.000000=0
,94.562500=1.000000=0.500000=0
,95.000000=0.500000=0.000000=0
,95.062500=1.000000=0.500000=0
,95.500000=0.500000=0.000000=0
,95.562500=1.000000=0.500000=0
,96.250000=0.500000=0.000000=0
,96.312500=1.000000=1.500000=0
,182.000000=0.500000=0.000000=0
,182.062500=1.000000=0.500000=0
,187.000000=0.500000=0.000000=0
,187.062500=1.000000=0.500000=0
,187.500000=0.500000=0.000000=0
,187.562500=1.000000=0.500000=0
,188.000000=0.500000=0.000000=0
,188.062500=1.000000=0.500000=0
,188.750000=0.500000=0.000000=0
,188.812500=1.000000=1.500000=0
,320.854156=0.250000=1.000000=0
,320.916656=1.000000=0.000000=0
,320.937500=0.250000=1.000000=0
,321.000000=1.000000=0.000000=0
,321.020844=0.250000=1.000000=0
,321.083344=1.000000=0.000000=0
,321.104156=0.250000=1.000000=0
,321.187500=1.000000=0.000000=0
,321.208344=0.250000=1.000000=0
,321.291656=1.000000=0.000000=0
,321.312500=0.250000=1.000000=0
,321.437500=1.000000=0.000000=0
,321.458344=0.250000=1.000000=0
,321.583344=1.000000=0.000000=0
,321.604156=0.250000=1.000000=0
,321.750000=1.000000=0.000000=0
,321.770844=0.250000=1.000000=0
,321.937500=1.000000=0.000000=0
,321.958344=0.250000=1.000000=0
,322.166656=1.000000=0.000000=0
,322.187500=0.250000=1.000000=0
,322.416656=1.000000=0.000000=0
,322.437500=0.250000=1.000000=0
,322.666656=1.000000=0.000000=0
,322.687500=0.250000=1.000000=0
,322.979156=1.000000=0.000000=0
,323.000000=0.250000=1.000000=0
,323.333344=1.000000=0.000000=0
,323.354156=0.250000=1.000000=0
,323.729156=1.000000=0.000000=0
,323.750000=0.250000=1.000000=0
,324.229156=1.000000=0.000000=0
,324.250000=0.250000=1.000000=0
,324.812500=1.000000=0.000000=0
,324.833344=0.250000=1.000000=0
,325.562500=1.000000=0.000000=0
,325.583344=0.250000=1.000000=0
,326.312500=1.000000=0.000000=0
,326.333344=0.250000=1.000000=0
;
#SCROLLS:0.000000=1.000000
,97.750000=-1.000000
,97.875000=1.000000
,98.000000=-1.000000
,98.125000=1.000000
,98.250000=-1.000000
,98.375000=1.000000
,98.500000=-1.000000
,98.625000=1.000000
,148.750000=0.000000
,149.625000=-2.000000
,149.875000=0.000000
,150.500000=2.000000
,151.000000=1.000000
,161.500000=1.100000
,161.750000=1.200000
,162.000000=1.300000
,162.250000=1.400000
,162.500000=1.500000
,162.750000=1.600000
,163.000000=1.700000
,163.250000=1.800000
,163.500000=1.900000
,163.750000=2.000000
,164.000000=2.100000
,164.250000=2.200000
,164.500000=1.000000
,205.500000=0.500000
,210.500000=1.000000
,216.000000=0.500000
,221.000000=1.000000
,226.500000=0.500000
,243.500000=1.000000
,250.000000=0.500000
,255.000000=1.000000
,260.500000=0.500000
,265.500000=1.000000
,271.000000=0.500000
;
#LABELS:0.000000=Song Start
;
#BGCHANGES:;
#KEYSOUNDS:;
#ATTACKS:
;

//---------------dance-single - ----------------
#NOTEDATA:;
#CHARTNAME:;
#CHARTHASH:1508122256;
#STEPSTYPE:dance-single;
#BANNER:;
#DESCRIPTION:;
#CHARTSTYLE:Pad;
#DIFFICULTY:Beginner;
#METER:6;
#METERF:6.000000;
#LASTSECONDHINT:100.605904;
#RADARVALUES:0.157680,0.297274,0.250434,0.092753,0.083478,119.000000,92.000000,27.000000,10.000000,0.000000,0.000000,0.000000,0.000000,0.000000,0.157680,0.297274,0.250434,0.092753,0.083478,119.000000,92.000000,27.000000,10.000000,0.000000,0.000000,0.000000,0.000000,0.000000;
#CREDIT:-YOSEFU-;
#DISPLAYBPM:120.000000:180.000000;
#NOTES:
// measure 0
0000
0000
0000
0000
,  // measure 1
0000
0000
0000
0000
,  // measure 2
0000
0000
0000
0000
,  // measure 3
0000
0000
0000
0000
,  // measure 4
0000
0000
0001
0000
,  // measure 5
0000
0000
0000
0000
0000
1000
0000
0000
,  // measure 6
0000
0000
0000
0000
0000
0000
0000
0000
0000
0000
0000
0001
0000
0000
0000
0000
,  // measure 7
0000
0000
0000
0000
0000
0000
0000
0000
0000
0000
0000
0000
0000
0100
0000
0000
,  // measure 8
0000
0000
0000
0000
,  // measure 9
0010
0000
0000
0000
,  // measure 10
0000
1000
0000
0000
0000
0000
0000
0000
,  // measure 11
0000
0100
0000
0000
,  // measure 12
0000
0000
0000
0010
0000
0000
0000
0000
,  // measure 13
0000
0000
0001
0000
,  // measure 14
0000
0000
0000
0000
0000
1000
0000
0000
,  // measure 15
0000
0000
0000
0010
,  // measure 16
0000
0000
0000
0000
0000
0000
0000
0110
,  // measure 17
0000
0000
0000
0000
0000
1001
0000
0000
0000
0000
0000
0000
0000
0000
0000
0000
,  // measure 18
0001
0000
0000
0000
,  // measure 19
0000
1000
0000
0000
0000
0000
0000
0000
,  // measure 20
0000
0001
0000
0000
,  // measure 21
0000
0000
0000
0010
0000
0000
0000
0000
,  // measure 22
0000
0000
0100
0000
,  // measure 23
0000
0000
0000
0000
0000
1001
0000
0000
,  // measure 24
0000
0110
0000
0000
0000
0000
0000
0000
0000
0000
0000
0000
0000
0000
0000
0000
,  // measure 25
0000
0000
0000
1001
0000
0000
0000
0000
0000
0000
0000
0000
0000
0000
0110
0000
,  // measure 26
0000
0000
0000
0000
0000
1001
0000
0000
0000
0000
0000
0000
0000
0000
0000
0000
,  // measure 27
1000
0000
0000
0000
,  // measure 28
0000
0001
0000
0000
0000
0000
0010
0000
,  // measure 29
0000
0000
0000
0000
0000
0000
0000
0001
,  // measure 30
0000
0000
0000
0000
0000
0000
0000
1000
0000
0000
0000
0000
1000
0000
0000
0000
,  // measure 31
0000
0000
0000
0000
0000
0000
0000
0001
,  // measure 32
0000
0000
0000
0000
0000
0000
0000
0010
0000
0000
0000
0000
0000
0000
0000
0000
,  // measure 33
0000
0100
0000
0000
0000
0000
0000
0000
1001
0000
1000
0000
0000
0000
0000
0000
,  // measure 34
0000
0000
0000
0010
,  // measure 35
0000
0000
0000
0000
0000
0100
0000
0000
0100
0000
0000
0000
0000
0000
0000
0001
,  // measure 36
0000
0000
0000
0000
0000
1000
0000
0000
,  // measure 37
0000
0001
0000
0000
0000
0000
0000
0000
0000
0000
0000
0000
1000
0000
0000
0000
,  // measure 38
0000
0000
0000
0000
0000
0000
0000
0010
,  // measure 39
0000
0000
0000
0000
0000
0000
0000
0100
0000
0000
0000
0000
0000
0000
0000
0000
,  // measure 40
0000
0001
0000
0000
0000
0000
0000
0000
0000
0000
0000
0000
0000
0000
0000
0000
,  // measure 41
0000
1000
0000
0000
0000
0000
0000
0000
,  // measure 42
0000
0000
0000
0000
0010
0000
0000
0000
0000
0000
0000
0220
0000
0000
0000
0000
,  // measure 43
0000
0330
0000
0001
0000
0000
0000
0000
,  // measure 44
0000
0000
0000
0000
0000
0000
0000
0000
0100
0000
0000
0000
0000
0000
0000
2002
,  // measure 45
0000
0000
0000
0000
0000
0000
0000
3003
0000
0000
1000
0000
0000
0000
0000
0000
,  // measure 46
0000
0000
0000
0110
,  // measure 47
0000
0000
0000
1001
0000
0000
0000
0000
0000
0000
0000
0000
0000
0000
0110
0000
,  // measure 48
0000
0000
0000
0000
,  // measure 49
1000
1000
1000
1000
,  // measure 50
1001
0000
0000
0000
0000
0000
0000
1001
,  // measure 51
0000
0000
0000
0020
0000
0000
0000
0000
,  // measure 52
0030
0000
0000
0000
0000
1001
0000
0000
,  // measure 53
0000
0000
0110
0000
,  // measure 54
2000
0000
0000
0000
0000
3000
0000
0000
,  // measure 55
0000
1001
0000
0000
,  // measure 56
0000
0110
0000
0000
0000
0001
0000
0000
,  // measure 57
0000
0000
0000
0000
0000
0000
0000
1000
,  // measure 58
0000
0000
0000
0000
0000
0000
0000
0010
,  // measure 59
0000
0000
0000
0000
0000
0000
0000
0100
,  // measure 60
0000
0000
0000
0000
0000
0000
0000
0001
,  // measure 61
0000
1001
0000
0000
0000
0000
0000
0000
,  // measure 62
1001
0000
0020
0000
,  // measure 63
0000
0030
0000
0000
0000
0000
1001
0000
,  // measure 64
0000
0000
0000
0000
0000
0110
0000
0000
,  // measure 65
0000
0002
0000
0000
0000
0000
0003
0000
,  // measure 66
0000
0000
0000
1001
0000
0000
0000
0000
,  // measure 67
0110
0000
0000
1000
,  // measure 68
0000
0000
0000
0000
,  // measure 69
0001
0000
0000
0000
,  // measure 70
0010
0000
0000
0000
,  // measure 71
0100
0000
0000
0000
,  // measure 72
1000
0000
0000
0000
,  // measure 73
0010
0000
0000
0000
,  // measure 74
0100
0000
0000
0000
,  // measure 75
0001
0000
0000
0000
,  // measure 76
1000
0000
0000
0000
,  // measure 77
2002
0000
0000
0000
0000
0000
0000
3003
,  // measure 78
0000
0000
0000
0000
0000
0001
0000
0000
,  // measure 79
0000
0000
0000
1000
0000
0000
0000
0000
,  // measure 80
0000
1001
0000
0000
0000
0000
0000
0000
;

//---------------dance-single - ----------------
#NOTEDATA:;
#CHARTNAME:;
#CHARTHASH:933201574;
#STEPSTYPE:dance-single;
#BANNER:;
#DESCRIPTION:;
#CHARTSTYLE:Pad;
#DIFFICULTY:Easy;
#METER:10;
#METERF:10.000000;
#LASTSECONDHINT:103.855904;
#RADARVALUES:0.406789,0.682432,0.315361,0.148405,0.319999,307.000000,273.000000,34.000000,16.000000,0.000000,0.000000,0.000000,0.000000,0.000000,0.406789,0.682432,0.315361,0.148405,0.319999,307.000000,273.000000,34.000000,16.000000,0.000000,0.000000,0.000000,0.000000,0.000000;
#CREDIT:-YOSEFU-;
#DISPLAYBPM:120.000000:180.000000;
#NOTES:
// measure 0
0000
0000
0000
0000
,  // measure 1
0000
0000
0000
0000
,  // measure 2
0000
0000
0000
0000
,  // measure 3
0000
0000
0000
0000
,  // measure 4
0000
0000
0000
0000
0000
0000
0000
0000
1000
0000
0000
0000
0001
0000
0000
0100
,  // measure 5
0000
0000
0000
0000
0000
0000
0000
0010
0000
0000
1000
0000
0000
0000
0001
0000
,  // measure 6
0000
0020
0000
0000
0000
0000
0030
0000
0000
0000
0000
0001
0000
0000
0000
1000
,  // measure 7
0000
0000
0010
0000
0000
0000
0000
0000
0000
0000
0100
0000
0000
0002
0000
0000
,  // measure 8
0000
0000
0000
0000
0000
0000
0000
0003
0000
0000
0000
0000
0000
0000
0000
0000
,  // measure 9
1000
0000
0000
0000
0100
0000
0000
0010
0000
0000
0000
0000
0000
0000
0000
0001
,  // measure 10
0000
0000
1000
0000
0001
0000
0100
0000
0000
0010
0000
0000
0000
0000
0000
0000
,  // measure 11
0000
1000
0000
0000
0001
0000
1000
0000
0100
0000
0000
0010
0000
0000
0000
0000
,  // measure 12
0000
0000
0000
0100
0000
0000
1000
0000
0001
0000
0100
0000
0000
0020
0000
0000
,  // measure 13
0000
0000
0000
0000
0000
0000
0000
0000
1030
0000
0000
0000
0001
0000
0000
0010
,  // measure 14
0000
0000
0000
0000
0000
0000
0000
0100
0000
0000
1000
0000
0001
0000
0100
0000
,  // measure 15
0000
0010
0000
0000
0000
0000
0000
2000
0000
0000
0000
0000
3001
0000
0010
0000
,  // measure 16
0100
0000
0000
1000
0000
0001
0000
0000
0000
0100
0000
0000
0000
0000
0001
0000
,  // measure 17
1000
0000
0001
0000
0000
2002
0000
0000
0000
0000
0000
0000
3003
0000
0000
0000
,  // measure 18
1000
0000
0000
0000
0010
0000
0000
0100
0000
0000
0000
0000
0000
0000
0000
0001
,  // measure 19
0000
1000
0100
0010
0001
1000
0010
0100
,  // measure 20
0001
0000
1000
0000
0100
0000
0010
0000
0001
0000
0000
1000
0000
0000
0000
0000
,  // measure 21
0000
0000
0000
0010
0000
0000
1000
0000
0100
0000
0010
0000
0000
0001
0000
0000
,  // measure 22
0000
0000
0000
0000
0000
0000
1000
0000
0010
0000
0000
0000
0100
0000
0000
0001
,  // measure 23
0000
0000
0000
0000
0000
0000
0000
1000
0000
0000
0100
0000
0010
0000
0011
0000
,  // measure 24
0000
1001
0000
0000
0000
0000
0000
0000
0000
0000
0000
0000
1000
0000
0010
0000
,  // measure 25
0110
0000
0000
0101
0000
0000
0000
0000
0100
0000
0010
0000
1000
0000
0001
0000
,  // measure 26
0010
0000
0110
0000
0000
2100
0000
0000
0000
0000
0000
0000
0000
0000
0000
0000
,  // measure 27
3001
0000
0000
0000
0100
0000
0000
0010
0000
0000
0000
0000
0000
0000
0000
0000
,  // measure 28
0000
0000
1000
0000
0100
0000
0010
0000
0000
0001
0000
0000
1000
0000
0010
0000
,  // measure 29
0100
0000
0000
0001
0000
0000
0000
0000
0000
0000
0000
0000
0000
0000
0010
0000
,  // measure 30
0100
0000
1000
0000
0000
0001
0000
0100
0000
0000
0000
0000
0010
0000
0000
0000
,  // measure 31
1000
0000
0000
0001
0000
0000
0000
0000
0000
0000
0000
0000
0000
0000
0010
0000
,  // measure 32
0100
0000
1000
0000
0000
0001
0000
0100
0000
0000
0000
0000
0000
0000
0010
0000
,  // measure 33
0000
1000
0000
0000
0000
0001
0000
0000
1001
0000
1000
0000
0000
0000
0001
0000
,  // measure 34
0000
0010
0000
0000
0000
0000
0000
0000
0000
0100
0000
0000
1000
0000
0001
0000
,  // measure 35
0100
0000
0000
0020
0000
0030
0000
0000
1000
0000
0001
0000
0010
0000
0000
0100
,  // measure 36
0000
0000
0000
0000
0000
0000
0000
1000
0000
0000
0001
0000
1000
0000
0100
0000
,  // measure 37
0000
0010
0000
0000
0000
0000
0000
0000
0000
0000
0000
0000
0001
0000
0000
0000
,  // measure 38
1000
0000
0000
0010
0000
0000
0000
0000
0000
0000
0000
0100
0000
0000
0001
0000
,  // measure 39
1000
0000
0100
0000
0000
0010
0000
0001
0000
0000
0000
0000
0000
0000
1000
0000
,  // measure 40
0000
0010
0000
0000
0000
0200
0000
0000
0000
0000
0000
0000
0000
0000
0000
0000
,  // measure 41
0000
0000
0301
0000
0000
0000
1000
0000
0000
0100
0000
0000
0000
0000
0000
0000
,  // measure 42
0000
0010
0000
0000
0001
0000
1000
0000
0010
0000
0000
0120
0000
0000
0000
0000
,  // measure 43
0000
0000
0000
0000
0000
0000
1030
0000
0001
0000
0010
0000
0000
0100
0000
0000
,  // measure 44
0000
0000
0000
0000
0000
0010
0000
0000
0001
0000
1000
0000
0010
0000
0000
1002
,  // measure 45
0000
0000
0000
0000
0003
1000
0000
0100
,  // measure 46
0000
0010
0000
0000
0000
0000
0000
0000
0000
0100
0000
0000
1000
0000
0001
0000
,  // measure 47
0101
0000
0000
0120
0000
0000
0000
0000
0000
0000
0000
0000
0000
0000
1030
0000
,  // measure 48
0100
0000
0110
0000
0000
0011
0000
0010
0000
0001
0000
1000
0000
0010
0000
0000
,  // measure 49
0100
0001
0100
0001
1000
0001
1000
0000
,  // measure 50
1100
0000
0110
0000
0000
0011
0000
0001
,  // measure 51
1000
0001
1000
0010
0000
0000
0000
0000
,  // measure 52
0000
0000
0000
0000
0000
0110
0000
0101
,  // measure 53
0000
0000
1001
0000
1000
0010
1000
0010
,  // measure 54
0100
0000
0000
0000
,  // measure 55
0000
0000
0101
0000
1001
0000
0000
1100
,  // measure 56
0000
0100
0010
0100
0010
0001
0000
0000
,  // measure 57
0000
0000
0000
0010
0000
0000
0000
0100
,  // measure 58
0000
0000
0000
1000
0000
0000
0000
0010
,  // measure 59
0000
0000
0000
0100
0000
0000
0000
0001
,  // measure 60
0000
0000
0000
1000
0000
0000
0000
0001
,  // measure 61
0000
0101
0000
1001
0000
0000
1100
0000
,  // measure 62
0100
0010
0001
1000
0010
0000
0000
0000
,  // measure 63
0000
0000
0000
0110
,  // measure 64
0101
0000
0000
1001
0000
1000
0100
0010
,  // measure 65
0100
1000
0000
0000
0000
0000
0000
0000
,  // measure 66
0000
0000
0000
1001
0000
0101
0000
0000
,  // measure 67
0110
0000
0010
1000
0001
0010
0100
0000
,  // measure 68
0000
0000
1000
0000
,  // measure 69
0001
0000
0100
0000
,  // measure 70
0010
0000
1000
0000
,  // measure 71
0001
0000
0010
0000
,  // measure 72
0100
0000
1000
0000
,  // measure 73
0001
0100
0001
0000
,  // measure 74
1000
0100
1000
0000
,  // measure 75
0001
0010
0001
0000
,  // measure 76
1000
0010
0100
0001
,  // measure 77
2002
0000
0000
0000
,  // measure 78
0000
0000
0000
3003
0000
0001
0000
1000
,  // measure 79
1000
0000
0000
0010
0000
0100
0000
0000
,  // measure 80
0000
2002
0000
0000
0000
0000
0000
0000
,  // measure 81
0000
0000
0000
3003
;

//---------------dance-single - ----------------
#NOTEDATA:;
#CHARTNAME:;
#CHARTHASH:316414720;
#STEPSTYPE:dance-single;
#BANNER:;
#DESCRIPTION:;
#CHARTSTYLE:Pad;
#DIFFICULTY:Medium;
#METER:15;
#METERF:15.000000;
#LASTSECONDHINT:103.855904;
#RADARVALUES:0.617471,0.871996,0.398839,0.120579,0.496230,466.000000,423.000000,43.000000,13.000000,0.000000,0.000000,0.000000,0.000000,0.000000,0.617471,0.871996,0.398839,0.120579,0.496230,466.000000,423.000000,43.000000,13.000000,0.000000,0.000000,0.000000,0.000000,0.000000;
#CREDIT:-YOSEFU-;
#DISPLAYBPM:120.000000:180.000000;
#NOTES:
// measure 0
0000
0000
0000
0000
,  // measure 1
0000
0000
0000
0000
,  // measure 2
0000
0000
0000
0000
,  // measure 3
0000
0000
0000
0000
,  // measure 4
0000
0000
0000
0000
0000
0000
0000
0000
1000
0000
1000
0000
0010
0000
0000
0100
,  // measure 5
0000
0000
0001
0000
1000
0000
0100
0000
0000
0010
0001
0000
0001
0000
1000
0000
,  // measure 6
0000
0020
0000
0000
0000
0000
0030
0000
0000
0000
0000
0100
0000
0100
0000
0001
,  // measure 7
0000
0000
1000
0000
0100
0000
0010
0000
0001
0000
1000
0000
0001
0200
0000
0000
,  // measure 8
0000
0000
0000
0000
0000
0000
0000
0300
0000
0000
0000
0000
0000
0000
0000
0000
,  // measure 9
0001
0000
0001
0000
0010
0000
0000
0100
0000
0000
1000
0000
0001
0000
0100
0000
,  // measure 10
0000
0010
1000
0000
0001
0000
0010
0000
0000
0100
0000
0000
1000
0000
0010
0000
,  // measure 11
0100
0000
0001
0000
1000
0000
0100
0000
0010
0000
0000
0001
0000
0000
1000
0000
,  // measure 12
0010
0000
0100
0000
0000
0001
1000
0000
0001
0000
0010
0000
0000
0200
0000
0000
,  // measure 13
0000
0000
0000
0000
0000
0000
0000
0000
1300
0000
1000
0000
0010
0000
0000
0100
,  // measure 14
0000
0000
0001
0000
1000
0000
0100
0000
0000
0010
0100
0000
1000
0000
1001
0000
,  // measure 15
0000
0101
0000
0000
0000
0000
0000
0100
0010
1000
0000
0000
0001
0000
0010
0000
,  // measure 16
0100
0000
0000
1000
0000
0001
0100
0001
0100
0001
0000
1000
0000
0100
1000
0000
,  // measure 17
0001
0000
0101
0000
0000
1020
0000
0000
0000
0000
0000
0000
0000
0000
0000
0000
,  // measure 18
0130
0000
0100
0000
0001
0000
0000
1000
0000
0000
0100
0000
0010
0000
0001
0000
,  // measure 19
0000
1000
0010
0000
0100
0000
0001
0000
1000
0100
1000
0100
0000
1000
0001
1000
,  // measure 20
0000
0001
0100
0001
0100
0000
0010
0000
1000
0000
0000
0001
0000
0000
0010
0000
,  // measure 21
0100
0000
1000
0000
0000
0001
0100
0000
0010
0000
1000
0000
0000
0001
0000
0100
,  // measure 22
0001
0000
1000
0100
0000
0000
1001
0000
1000
0000
1000
0000
0100
0000
0010
0001
,  // measure 23
0000
0000
1000
0000
0010
0000
0100
0000
0000
0001
1000
0000
0100
0000
0110
0000
,  // measure 24
0000
1001
0000
0000
0000
0000
0000
0000
0000
0000
0000
0000
1000
0000
0010
0000
,  // measure 25
0110
0000
0000
0101
0000
0001
1000
0001
0000
1000
0100
1000
0000
0000
0001
0000
,  // measure 26
1000
0000
1100
0000
0000
0100
0000
0000
0000
0000
0000
0000
0000
0000
0000
0000
,  // measure 27
0001
0000
0000
0000
1000
0000
0000
0010
0000
0000
0000
0000
0000
0000
0000
0000
,  // measure 28
0000
0000
1000
0000
0001
0000
0100
0000
0000
0010
0000
0000
1000
0000
0100
0000
,  // measure 29
0010
0000
0000
0001
0000
0000
0000
0000
0000
0000
0000
0000
0000
0000
0100
0000
,  // measure 30
0010
0000
1000
0000
0000
0001
0000
0010
0000
0000
0000
0000
0100
0000
0000
0000
,  // measure 31
1000
0000
0000
0010
0000
0000
0000
0000
0000
0000
0000
0000
0000
0000
0100
0000
,  // measure 32
0001
0000
1000
0000
0000
0100
0000
0010
0000
0001
0000
1000
0000
0000
0010
0000
,  // measure 33
0000
0001
0000
0010
0000
1000
0000
0000
1001
0000
1000
0000
1000
0000
0100
0000
,  // measure 34
0000
0010
0000
0000
0001
0000
1000
0000
0010
0000
0000
0100
0001
0000
1000
0000
,  // measure 35
0100
0000
0000
0000
0000
0000
2000
0000
0000
0000
0000
3000
0000
0000
0000
0000
0001
0000
0000
0000
0100
0000
0000
0000
0010
0000
0000
0000
0000
0000
1000
0000
,  // measure 36
0000
0000
0001
0000
0010
0000
0100
0000
0000
0010
0001
0000
1000
0000
0010
0000
,  // measure 37
0000
0100
0000
0000
0000
0000
0000
0000
0000
0000
0000
0000
0010
0000
0010
0000
,  // measure 38
1000
0000
0000
0001
0000
0000
0010
0000
0100
0000
1000
0000
0000
0010
0100
0000
,  // measure 39
0001
0000
0010
0000
0000
0100
0000
1000
0000
0001
0000
0100
0000
0000
0010
0000
,  // measure 40
0000
0001
0000
0010
0000
2000
0000
0000
0000
0000
0000
0000
0000
0000
0000
0000
,  // measure 41
0000
0000
3001
0000
0001
0000
0010
0000
0000
0001
0000
0000
1000
0000
0010
0000
,  // measure 42
0100
0000
0000
0001
1000
0000
0100
0000
0010
0000
0000
0021
0000
0000
0000
0000
,  // measure 43
0000
0000
0000
0000
0000
0000
0031
0000
1000
0000
0010
0000
0000
0100
0000
0000
,  // measure 44
0001
0000
1000
0000
0100
0000
0000
0010
0100
0000
1000
0000
0001
0000
0000
0201
,  // measure 45
0000
0000
0000
0000
0310
1000
1000
0001
,  // measure 46
0000
0010
0000
0000
0001
0000
1000
0000
0010
0000
0000
0100
0001
0000
1000
0000
,  // measure 47
1100
0000
0000
1020
0000
0000
0000
0000
0000
0000
0000
0000
0000
0000
0130
0000
,  // measure 48
0001
0000
1001
0000
0000
1100
0000
1000
0100
1000
0000
0001
0100
0001
0000
0000
,  // measure 49
1000
0010
1000
0000
0001
0010
0001
0000
1000
0100
1000
0000
0001
0000
0000
0000
,  // measure 50
0101
0000
0000
0000
1001
0000
0000
1100
0000
0000
0110
0000
0000
0000
0010
0000
,  // measure 51
0001
1000
0010
0100
0000
0001
0000
1000
,  // measure 52
0000
0100
0000
0010
0000
0011
0000
1001
,  // measure 53
0000
1010
0000
0000
0110
0000
0000
0000
0100
0000
0001
0000
1000
0000
0100
0000
,  // measure 54
0010
0100
1000
0001
,  // measure 55
0100
0000
0000
0000
0110
0000
0000
0000
1010
0000
0000
1001
0000
0000
0011
0000
,  // measure 56
0000
0001
1000
0010
0100
0001
0000
1000
,  // measure 57
0000
0100
0000
1000
0000
0001
0000
0100
,  // measure 58
0000
0010
0000
1000
0000
0100
0000
0001
,  // measure 59
0000
0100
0000
0010
0000
0001
0000
1000
,  // measure 60
0000
0010
0000
0100
0000
0001
0000
1000
,  // measure 61
0000
0000
1010
0000
0000
0000
1001
0000
0000
0011
0000
0000
0110
0000
0000
0000
,  // measure 62
0100
1000
0001
0100
0010
0000
1000
0000
,  // measure 63
0001
0010
0100
1100
,  // measure 64
1001
0000
0000
0101
0000
0000
0110
0000
0000
0000
0010
0000
1000
0000
0001
0000
,  // measure 65
0010
0100
0000
1000
0000
0001
0000
0100
,  // measure 66
0000
0000
0010
0000
0000
0000
1010
0000
0000
0000
1001
0000
0000
0011
0000
0000
,  // measure 67
0110
0000
0100
1000
0001
0100
0010
0000
,  // measure 68
1000
0001
0010
0100
,  // measure 69
0010
0001
1000
0010
,  // measure 70
1000
0001
0010
0100
,  // measure 71
1000
0010
0100
0001
,  // measure 72
1000
0100
0010
0001
,  // measure 73
1000
0010
1000
0000
0001
0000
0010
0000
,  // measure 74
0100
1000
0100
0000
0010
0000
0001
0000
,  // measure 75
1000
0010
1000
0000
0001
0000
1000
0000
,  // measure 76
0100
0010
0100
0000
1000
0001
1000
0000
,  // measure 77
2002
0000
0000
0000
,  // measure 78
0000
0000
0000
0000
0000
0000
3003
0000
0000
0000
0001
0100
0001
0000
0000
0000
,  // measure 79
1000
0100
1000
0000
0000
0000
0001
0010
0001
0000
1000
0010
0100
0001
0010
0100
,  // measure 80
0010
0001
2002
0000
0000
0000
0000
0000
0000
0000
0000
0000
0000
0000
0000
0000
,  // measure 81
0000
0000
0000
3003
;

//---------------dance-single - ----------------
#NOTEDATA:;
#CHARTNAME:;
#CHARTHASH:316413696;
#STEPSTYPE:dance-single;
#BANNER:;
#DESCRIPTION:;
#CHARTSTYLE:Pad;
#DIFFICULTY:Hard;
#METER:17;
#METERF:17.000000;
#LASTSECONDHINT:104.105904;
#RADARVALUES:0.878505,1.061560,0.491592,0.120579,0.890431,663.000000,610.000000,53.000000,13.000000,0.000000,0.000000,3.000000,1.000000,0.000000,0.878505,1.061560,0.491592,0.120579,0.890431,663.000000,610.000000,53.000000,13.000000,0.000000,0.000000,3.000000,1.000000,0.000000;
#CREDIT:-YOSEFU-;
#DISPLAYBPM:120.000000:180.000000;
#NOTES:
// measure 0
0000
0000
0000
0000
,  // measure 1
0000
0000
0000
0000
,  // measure 2
0000
0000
0000
0000
,  // measure 3
0000
0000
0000
0000
,  // measure 4
0000
0000
0000
0000
0000
0000
0000
0000
1000
0000
1000
0000
0010
0000
1000
0001
,  // measure 5
0000
0100
0001
0000
1000
0000
0100
1000
0001
0100
0010
0000
0010
0000
1000
0000
,  // measure 6
0001
0040
0000
0000
0000
0000
0000
0000
0030
0000
0001
0100
0000
0100
0000
0010
,  // measure 7
0000
1000
0001
0000
0100
0001
0000
1000
0000
0100
0010
0001
1000
0040
0000
0000
,  // measure 8
0000
0000
0000
0000
0000
0000
0000
0030
0000
0000
0000
0000
0000
1000
0100
0010
,  // measure 9
0001
0000
0001
0000
1000
0000
0010
0100
0000
0001
1000
0100
0010
0001
1000
0001
,  // measure 10
0000
0100
0010
0000
1000
0000
0001
0000
0000
0010
0000
0000
0100
1000
0001
0100
,  // measure 11
0010
0000
0000
1000
0001
0000
0010
0000
0100
0000
1000
0001
0000
0100
0010
1000
,  // measure 12
0001
0010
0100
1000
0000
0001
0100
0000
0010
0000
1000
0000
0001
0010
0000
0000
,  // measure 13
0001
0010
0100
1000
0100
0010
0001
1000
0010
0000
0010
0000
0100
0000
0001
1000
,  // measure 14
0000
0100
0010
0001
1000
0010
0100
0001
0000
1000
0100
0000
0010
0000
0011
0000
,  // measure 15
0000
2001
0000
0000
3000
0000
0000
0001
0100
0010
0100
0001
1000
0000
0100
0000
,  // measure 16
0010
0000
0001
1000
0000
0010
0100
0001
1000
0100
0010
0100
0000
0000
1100
0000
,  // measure 17
1001
0000
0101
0000
0000
0220
0000
0000
0000
0000
0000
0000
0000
0000
0330
0000
,  // measure 18
1000
0000
1000
0000
0001
0000
0010
0001
0000
1000
0010
0100
0001
0010
0100
1000
,  // measure 19
0000
0001
0100
0000
0010
0000
1000
0000
0001
1000
0100
0010
0001
1000
0010
0100
,  // measure 20
0001
1000
0100
0010
0001
0000
0100
0010
1000
0000
0001
0010
0000
0001
1000
0100
,  // measure 21
0010
0001
1000
0010
0000
0100
0001
0000
1000
0100
0010
0000
0001
1000
0000
0001
,  // measure 22
0100
0010
1000
0100
0010
0001
1000
0000
0010
0000
0010
0000
0100
0000
0001
1000
,  // measure 23
0000
0100
0010
0001
1000
0010
0100
0010
0000
1000
0001
0000
0011
0000
0110
0000
,  // measure 24
0000
1200
0000
0000
0000
0000
0000
1300
0000
0000
0000
0000
1001
0000
0101
0000
,  // measure 25
0110
0000
0000
1010
0000
1000
0100
0010
0001
0100
0010
1000
0001
0000
0011
0000
,  // measure 26
0110
0000
1100
0000
0000
1004
0000
0000
0000
0000
0000
0000
0000
0000
0000
0000
,  // measure 27
1003
0000
0000
0000
0100
0000
0000
0010
0000
0001
0010
0100
1000
0001
0100
0010
,  // measure 28
0000
0000
1000
0000
0001
0000
0010
0000
0000
0100
0000
0000
1000
0000
0010
0000
,  // measure 29
0100
0000
0000
0001
0000
1000
0100
0010
0001
1000
0001
0100
0000
0000
0010
0000
,  // measure 30
1000
0000
0001
0000
0000
0010
0000
0100
0000
0000
0000
0000
1000
0000
0000
0000
,  // measure 31
0001
0000
0000
0100
0000
0010
1000
0001
0010
0100
1000
0001
0000
0000
0100
0000
,  // measure 32
0010
0000
1000
0000
0000
0100
0000
0010
0001
1000
0000
0010
0000
0000
0100
0000
,  // measure 33
0000
0001
0010
0100
0000
1000
0001
0000
1001
0000
1000
0000
1000
0000
0010
0000
,  // measure 34
0100
0001
0000
1000
0100
0010
0001
1000
0010
0100
0000
0001
1000
0000
0001
0000
,  // measure 35
0010
0000
0100
2000
3000
L000
0000
0000
0001
0000
0100
0000
0010
0000
1000
0001
,  // measure 36
0000
1000
0100
0010
0100
1000
0001
0100
0000
0010
1000
0000
0001
0000
0010
0000
,  // measure 37
0000
0000
0100
0000
0000
0000
0000
0000
0000
0000
0000
0000
0000
0000
0000
0100
0000
0000
0000
0000
0000
0000
0000
0000
1000
0000
0000
0000
1000
0000
0000
0000
,  // measure 38
0001
0000
0100
0010
0000
1000
0100
0010
0001
1000
0010
0100
0000
0001
0010
0000
,  // measure 39
0100
0000
1000
0000
0001
0100
0000
0010
1000
0001
0000
0010
0000
0000
0100
0000
,  // measure 40
0000
1000
0001
0100
0000
0020
0000
0000
0000
0000
0000
0000
0000
0000
0000
0000
,  // measure 41
0000
0000
1030
0000
1000
0000
0001
0000
0010
0100
0000
1000
0001
0100
0010
1000
,  // measure 42
0001
0010
0000
0100
1000
0000
0001
0000
0100
0000
0000
1020
0000
0000
0000
0000
,  // measure 43
0000
0000
0000
0000
0000
0000
0130
0000
0001
0000
1000
0000
0100
0010
0000
0100
,  // measure 44
1000
0001
0100
0010
1000
0001
0000
1000
0100
0000
0010
0000
0001
0000
0000
1200
,  // measure 45
0000
0000
0000
0000
0300
1000
1000
0010
,  // measure 46
0100
0001
0000
1000
0100
0010
0001
0010
0100
1000
0000
0000
0101
0000
1001
0000
,  // measure 47
1100
0000
0000
0201
0000
0000
0000
0000
0000
0000
0000
0000
0300
0000
0011
0000
,  // measure 48
1001
0000
1010
0000
0000
1100
0000
1000
0100
0010
0001
0100
0010
1000
0001
0000
,  // measure 49
1000
0100
0010
0000
0001
0100
0010
0000
1000
0100
0010
0001
0100
0000
0000
0000
,  // measure 50
0101
0000
0000
0000
1001
0000
0000
1100
0000
0000
0110
0000
0000
0000
0010
0000
,  // measure 51
0001
1000
0010
0100
0001
1000
0000
0100
,  // measure 52
1000
0001
0000
0100
0001
1001
0000
1100
,  // measure 53
0000
0110
0000
0000
0011
0000
0000
0000
0010
0000
0100
0000
1000
0000
0001
0000
,  // measure 54
0100
0010
1000
0000
0001
0010
0100
0000
,  // measure 55
1000
0000
0001
0000
0101
0000
0000
0000
0110
0000
0000
1010
0000
0000
1001
0000
,  // measure 56
0000
0001
0010
0100
1000
0001
0100
0010
,  // measure 57
0100
0001
1000
0100
1000
0001
0000
1000
,  // measure 58
0100
0010
0001
0010
0100
1000
0000
0001
,  // measure 59
0100
0010
1000
0010
0100
0001
0000
1000
,  // measure 60
0100
0010
0001
0100
0010
1000
0001
0010
,  // measure 61
0000
0000
0110
0000
0000
0000
1100
0000
0000
1001
0000
0000
0101
0000
0000
0000
,  // measure 62
0001
0100
0010
1000
0001
0100
0010
0100
,  // measure 63
0001
0100
0010
0100
0001
1000
1001
0000
,  // measure 64
1100
0000
0000
0110
0000
0000
0011
0000
0000
0000
0001
0000
1000
0000
0100
0000
,  // measure 65
0010
0001
1000
0010
1000
0001
1000
0010
,  // measure 66
1000
0000
0001
0000
1000
0000
1100
0000
0000
0000
0110
0000
0000
0011
0000
0000
,  // measure 67
1001
0000
0001
0100
0010
1000
0001
0010
,  // measure 68
0100
0010
0001
0010
0100
0010
0001
0000
,  // measure 69
1000
0010
0100
0010
1000
0010
0100
0000
,  // measure 70
0001
1000
0100
1000
0001
1000
0100
0000
,  // measure 71
1000
0100
0010
0100
1000
0100
0010
0000
,  // measure 72
0001
0100
0010
0100
0001
0100
0010
0000
,  // measure 73
1000
0100
0010
0100
1000
0100
0010
0100
,  // measure 74
1000
0001
0100
0001
1000
0001
0100
0001
,  // measure 75
1000
0010
0100
0010
1000
0010
0100
0010
,  // measure 76
1000
0001
0010
0100
1000
0001
0100
0002
,  // measure 77
2000
0000
0000
0000
,  // measure 78
0000
0000
0000
0000
0000
0000
0000
0000
3003
0000
0001
0010
0100
1000
0000
0000
,  // measure 79
0001
0100
0010
1000
0000
0000
0001
0010
0100
1000
0001
0100
0010
1000
0001
0010
,  // measure 80
0100
1000
2002
0000
0000
0000
0000
0000
0000
0000
0000
0000
0000
0000
0000
0000
,  // measure 81
0000
0000
0000
3003
;

//---------------dance-single - VERY DESCRIPTION----------------
#NOTEDATA:;
#CHARTNAME:VERY CHART;
#CHARTHASH:316413184;
#STEPSTYPE:dance-single;
#BANNER:;
#DESCRIPTION:VERY DESCRIPTION;
#CHARTSTYLE:VERY PAD;
#DIFFICULTY:Challenge;
#METER:18;
#METERF:18.000000;
#LASTSECONDHINT:103.855904;
#RADARVALUES:1.021610,1.213212,0.760576,0.120579,1.075937,771.000000,689.000000,82.000000,13.000000,9.000000,1.000000,4.000000,1.000000,0.000000,1.021610,1.213212,0.760576,0.120579,1.075937,771.000000,689.000000,82.000000,13.000000,9.000000,1.000000,4.000000,1.000000,0.000000;
#CREDIT:VERY YOSEFU;
#DISPLAYBPM:120.000000:180.000000;
#NOTES:
// measure 0
0000
0000
0000
0000
,  // measure 1
0000
0000
0000
0000
,  // measure 2
0000
0000
0000
0000
,  // measure 3
0000
0000
0000
0000
,  // measure 4
0000
0000
0000
0000
0000
0000
0000
0000
0001
0000
0001
0000
0010
0000
0001
1000
,  // measure 5
0000
0001
1000
0100
0010
0001
0100
0010
1000
0100
0010
0000
0010
0000
0001
0000
,  // measure 6
1000
0040
0000
0000
0000
0000
0000
0000
0000
0130
0001
1000
0000
1000
0000
0010
,  // measure 7
0000
1000
0010
0000
1000
0001
0100
0010
1000
0100
0010
0001
1000
0040
0000
0000
,  // measure 8
0000
0000
0000
0000
0000
0000
0000
0000
0000
0000
0000
0000
1030
0000
0000
0000
0000
0000
0000
0000
0001
0000
0000
0000
0000
0000
0000
0000
1000
0000
0000
0000
0000
0000
0000
0000
0001
0000
0000
0000
0000
0000
0000
0000
0000
0000
0000
0000
0000
0000
0000
0000
0000
0000
0000
0000
0000
0000
0000
0000
0000
0000
0000
0000
0000
0000
0000
0000
0000
0000
0000
0000
0000
0000
0000
4000
0000
0000
0000
0000
0000
0000
0000
0000
0000
0000
0000
0000
0000
0000
0000
0000
0000
0000
0000
0000
0000
0000
0000
0000
0000
0000
0000
0000
0000
0000
0000
0000
0000
0000
0000
0000
0000
0000
0000
0000
0000
0000
0000
0000
0000
0000
0000
0000
0000
0000
0000
0000
0000
0000
0000
0000
3001
0000
0000
0000
0000
0000
0000
0000
0000
0000
0000
0000
0010
0000
0000
0000
0000
0000
0000
0000
0000
0000
0000
0000
0100
0000
0000
0000
0000
0000
0000
0000
0000
0000
0000
0000
1000
0000
0000
0000
0000
0000
0000
0000
0000
0000
0000
0000
0001
0000
0000
0000
0000
0000
0000
0000
0000
0000
0000
0000
,  // measure 9
0100
0000
0100
0000
0010
0000
1000
0001
0000
1000
0100
0010
0001
1000
0001
0100
,  // measure 10
0010
1000
0001
0000
0010
0000
0100
0000
1000
0001
0000
1000
0010
0100
0001
0010
,  // measure 11
0100
1000
0000
0001
0100
0000
0010
0000
1000
0000
0001
0010
0000
0001
1000
0010
,  // measure 12
0100
0001
0100
0010
1000
0001
0010
0000
0100
0000
1000
0000
0001
0100
0000
0001
,  // measure 13
0100
0010
0100
1000
0100
0010
0100
0001
1000
0000
1000
0000
0100
0000
0010
0100
,  // measure 14
0000
1000
0010
0100
0001
1000
0001
0100
0010
1000
0001
0000
0010
0000
0110
0000
,  // measure 15
0000
2100
0000
0000
3000
0000
0000
0001
0100
0010
0100
0001
1000
0000
0100
0000
,  // measure 16
0010
0000
0000
0001
0000
1000
0010
0100
0001
1000
0100
0010
0001
1000
0011
0000
,  // measure 17
1100
0000
0101
0000
0000
2002
0000
0000
0000
0000
0000
0000
0000
0000
3003
0000
,  // measure 18
0001
0000
1000
0000
0010
0000
0100
0001
0000
1000
0100
0010
0001
1000
0001
0100
,  // measure 19
0010
1000
0001
0000
0010
0000
0100
0000
1000
0001
0010
1000
0001
0100
1000
0001
,  // measure 20
0100
0000
1000
0000
0100
0000
0001
0000
1000
0000
0000
0000
0100
M000
0100
0000
0001
0000
0000
0000
1000
0000
0010
0000
0000
0000
1000
0000
0010
0000
0100
0000
,  // measure 21
0001
0000
1000
0000
0001
0000
0010
0000
0100
0000
1000
0000
0001
0000
0000
0000
0100
000M
0100
0000
1000
0000
0000
0000
0001
0000
1000
0000
0100
M000
0100
0000
,  // measure 22
0001
0000
0100
000M
0100
0000
1000
0000
0000
0000
0001
0000
1100
0000
0000
0000
0001
0000
0000
0000
0001
0000
0000
0000
1000
0000
0000
0000
0100
0000
0010
0000
,  // measure 23
0000
0001
0100
0010
1000
0001
1000
0010
0100
0001
1100
0000
0011
0000
1100
0000
,  // measure 24
0000
1020
0000
0000
0000
0000
0000
0130
0100
0100
0100
0100
0011
0000
1001
0000
,  // measure 25
1010
0000
1001
0000
1000
0100
0001
0100
0010
1000
0010
0001
1000
0010
1010
0000
,  // measure 26
1001
0000
0011
0000
0000
0104
0000
0000
0000
0000
0000
0000
0000
0000
0000
0000
,  // measure 27
1003
0000
0000
0000
0001
0000
0000
0100
0000
0001
0100
0010
1000
0001
1000
0010
,  // measure 28
0100
0001
1000
0000
0100
0000
0010
0000
0000
0001
0000
0000
1000
0000
0001
0000
,  // measure 29
0100
0000
0000
0010
0000
1000
0100
0010
0001
1000
0001
0010
0100
1000
0001
0000
,  // measure 30
0100
0000
0010
0000
0000
1000
0000
0011
0000
0000
0000
0000
0001
0000
0000
0000
,  // measure 31
1000
0000
0000
0001
0000
1000
0100
0010
0001
1000
0001
0010
0100
1000
0001
0000
,  // measure 32
0100
0000
0010
0000
0000
1000
0000
0001
0010
0100
1000
0010
0000
0000
1000
0001
,  // measure 33
0000
1000
0010
0100
0001
1000
0100
0000
1001
0000
1000
0000
1000
0000
0010
0000
,  // measure 34
0100
0001
0000
1000
0100
0010
0001
1000
0001
0100
0010
1000
0001
0000
0010
0000
,  // measure 35
0100
0000
1000
0020
0030
00L0
0000
0000
1000
0000
0010
0000
0100
0001
0010
0100
,  // measure 36
0000
1000
0001
0100
0010
1000
0001
0010
0100
0010
0001
0000
1000
0000
0001
0000
,  // measure 37
0000
0000
0100
0000
0000
0000
0000
0000
0000
0000
0000
0000
0000
0000
0000
0100
0000
0000
0000
0000
0000
0000
0000
0000
0001
0000
0000
0000
0001
0000
0000
0000
,  // measure 38
1000
0000
0010
0100
0000
0001
1000
0100
0010
0001
0010
0100
1000
0001
0100
0000
,  // measure 39
0010
0000
1000
0000
0001
0010
0000
0001
0100
0010
1000
0100
0000
0000
1000
0001
,  // measure 40
0000
1000
0010
0100
0001
0010
0200
0000
0000
0000
0000
0000
0000
0000
0000
0000
,  // measure 41
0000
0000
1300
0000
1000
0000
0001
0000
0100
0010
0000
1000
0100
0010
0001
1000
,  // measure 42
0001
0100
0010
1000
0001
0000
1000
0000
0001
0000
0010
0102
0000
0000
0000
0000
,  // measure 43
0000
0000
0000
0000
0000
0000
0000
0000
0000
0000
0000
0000
1003
0000
0000
0000
0100
M000
0100
0000
0001
0000
0000
0000
1000
0000
0010
0000
0000
0000
1000
0000
,  // measure 44
0001
0000
0010
0000
0100
0000
1000
0000
0100
0000
0010
0000
0001
0000
1000
0000
0010
0000
0000
0000
0100
00M0
0100
0000
1000
0000
0000
0000
0001
0000
2100
0000
,  // measure 45
0000
0000
0000
0000
3011
1000
1000
0100
,  // measure 46
0010
0001
0000
1000
0010
0100
0001
1000
0001
0010
0100
1000
0011
0000
1100
0000
,  // measure 47
0011
0000
0000
2001
0000
0000
0000
0000
0000
3001
0010
0100
1000
0010
0110
0000
,  // measure 48
0101
0000
1001
0000
0000
1100
0000
1000
0100
0001
0100
0010
1000
0010
0001
1000
,  // measure 49
0001
0000
0100
000M
0100
0000
1000
0000
0001
0000
0010
000M
0010
0000
1000
0000
0001
0000
0100
000M
0100
0000
1000
0000
0010
0000
0000
0000
0000
0000
0000
0000
,  // measure 50
1001
0000
0000
0000
0101
0000
0000
1001
0000
0000
1010
0000
0000
0000
1001
0000
,  // measure 51
0011
0110
1100
1000
0010
0100
0010
1000
,  // measure 52
0001
0010
0001
1000
0100
0110
0000
0011
,  // measure 53
0000
1001
0000
0000
1010
0000
0000
0000
1001
0000
0011
0000
1001
0000
1100
0000
,  // measure 54
0100
0010
0001
0010
0100
1000
0001
1000
,  // measure 55
0100
0000
0010
0000
0011
0000
0000
0000
1001
0000
0000
1010
0000
0000
0110
0000
,  // measure 56
0000
0101
1001
1100
0110
0010
0001
0010
,  // measure 57
0100
1000
0001
0100
0001
1000
0010
0100
,  // measure 58
0001
1000
0100
0010
0001
1000
0001
0100
,  // measure 59
1000
0100
0010
1000
0001
0010
0100
1000
,  // measure 60
0001
0100
0010
1000
0100
0010
0001
0100
,  // measure 61
0000
0000
0101
0000
0000
0000
1001
0000
0000
1100
0000
0000
0110
0000
0000
0000
,  // measure 62
0011
1001
1010
0110
0100
0001
1000
0001
,  // measure 63
0010
0100
1000
0001
1000
0010
0110
0000
,  // measure 64
0101
0000
0000
1001
0000
0000
1100
0000
0000
0000
0110
0000
0011
0000
1001
0000
,  // measure 65
1010
0010
1000
0001
0010
0100
1000
0001
,  // measure 66
0100
0000
0010
0000
1000
0000
1001
0000
0000
0000
0011
0000
0000
0110
0000
0000
,  // measure 67
1100
0000
1001
0101
0110
1010
1000
0001
,  // measure 68
0010
0001
1000
0100
0010
0100
1000
0001
,  // measure 69
0100
0001
1000
0001
0010
0100
1000
0001
,  // measure 70
0100
0010
1000
0001
1000
0100
0010
0001
,  // measure 71
0100
0010
1000
0001
0010
0100
1000
0001
,  // measure 72
0100
0010
1000
0100
0010
0001
1000
0010
,  // measure 73
0001
0010
0100
0001
0010
0100
1000
0100
,  // measure 74
0001
0100
0010
0001
0100
0010
1000
0010
,  // measure 75
0001
0010
0100
0001
0100
0001
1000
0100
,  // measure 76
0001
0100
1000
0010
0001
0010
0100
0001
,  // measure 77
2002
0000
0000
0000
,  // measure 78
0000
0000
0000
0000
0000
0000
0000
0000
3003
0000
0001
0010
0100
1000
0010
0100
,  // measure 79
0001
1000
0100
0010
0001
1000
0010
0100
0001
1000
0100
0010
0001
0100
0010
1000
,  // measure 80
0100
0010
2002
0000
0000
0000
0000
0000
0000
0000
0000
0000
0000
0000
0000
0000
,  // measure 81
0000
0000
0000
3003
;
