#TITLE:アンノウン・マザーグース;
#SUBTITLE:;
#ARTIST:wowaka;
#TITLETRANSLIT:Unknown Mother-Goose;
#SUBTITLETRANSLIT:;
#ARTISTTRANSLIT:;
#GENRE:VOCALO ROCK;
#CREDIT:;
#BANNER:Unknown Mother-Goose.png;
#BACKGROUND:Unknown Mother-Goose-bg.png;
#LYRICSPATH:;
#CDTITLE:cdtitle.png;
#MUSIC:Unknown Mother-Goose.ogg;
#OFFSET:-0.575000;
#SAMPLESTART:78.454002;
#SAMPLELENGTH:15.000000;
#SELECTABLE:YES;
#BPMS:0.000000=222.000000
,156.000000=220.000000
,159.000000=222.000000
,216.000000=217.500000
,222.000000=222.000000
,224.000000=111.000000
;
#STOPS:
;
#BGCHANGES:-2.000=Unknown Mother-Goose.avi=1.000=0=0=0=StretchNoLoop==CrossFade_Fastest==,
99999=-nosongbg-=1.000=0=0=0 // don't automatically add -songbackground-
;
#KEYSOUNDS:;
#ATTACKS:;

//---------------dance-single - Daff_4K----------------
#NOTES:
     dance-single:
     Daff_4K:
     Beginner:
     3:
     0.087364,0.126626,0.021584,0.000000,0.000000,85.000000,82.000000,3.000000,0.000000,0.000000,0.000000,0.087364,0.126626,0.021584,0.000000,0.000000,85.000000,82.000000,3.000000,0.000000,0.000000,0.000000:
0000
0000
0000
0000
,
0000
0000
0000
0000
,
0000
0000
0000
0000
,
0000
0000
0000
0000
,
0000
0000
0000
0000
,
0000
0000
0000
0000
,
0000
0000
0000
0000
,
0000
0000
0000
0000
,
0001
0000
0000
0000
,
0001
0000
0000
0000
,
1000
0000
0000
0000
,
1000
0000
0000
0000
,
0010
0000
0000
0000
,
0010
0000
0000
0000
,
0100
0000
0000
0000
,
0100
0000
0000
0000
,
0001
0000
0000
0000
,
0000
0000
1000
0000
,
1000
0000
0000
0000
,
0000
0000
0001
0000
,
0001
0000
0000
0000
,
0000
0000
1000
0000
,
1000
0000
0000
0000
,
0000
0000
0000
0000
,
1001
0000
0000
0000
,
0000
0000
0000
0000
,
0001
0000
0000
0000
,
0001
0000
0000
0000
,
0100
0000
0000
0000
,
0100
0000
0000
0000
,
0010
0000
0000
0000
,
0010
0000
0000
0000
,
1000
0000
0000
0000
,
1000
0000
0000
0000
,
0100
0000
0000
0000
,
0100
0000
0000
0000
,
0010
0000
0000
0000
,
0010
0000
0000
0000
,
0001
0000
0000
0000
,
0001
0000
0000
0000
,
1001
0000
0000
0000
,
0000
0000
0000
0000
,
1000
0000
0000
0000
,
1000
0000
0000
0000
,
1000
0000
0000
0000
,
0000
0000
0000
0000
,
0001
0000
0000
0000
,
0001
0000
0000
0000
,
0001
0000
0000
0000
,
0100
0000
0000
0000
,
0010
0000
0000
0000
,
1000
0000
0000
0000
,
0100
0000
0000
0000
,
0010
0000
0000
0000
,
0001
0000
0000
0000
,
0000
0000
0000
0000
,
0100
0000
0000
0000
,
0010
0000
0010
0000
,
0010
0000
0000
0000
,
1000
0000
0000
0000
,
0100
0000
0000
0000
,
0010
0000
0010
0000
,
0010
0000
0000
0000
,
0001
0000
0000
0000
,
1000
0000
1000
0000
,
1000
0000
0000
0000
,
0010
0000
0000
0000
,
0100
0000
0000
0000
,
0001
0000
0001
0000
,
0001
0000
0000
0000
,
0010
0000
0000
0000
,
0100
0000
0000
0000
,
1000
0000
1000
0000
,
1000
0000
0000
0000
,
0001
0000
0001
0000
,
0001
0000
0000
0000
,
0100
0000
0000
0000
,
0010
0000
0000
0000
,
1000
0000
0000
0000
,
0001
0000
0000
0000
,
1001
0000
0000
0000
,
1000
0000
0000
0000
,
0001
0000
0000
0000
,
0001
0000
0000
0000
,
0010
0000
0000
0000
,
0010
0000
0000
0000
,
0100
0000
0000
0000
,
0100
0000
0000
0000
,
0100
0000
0000
0000
;

//---------------dance-single - Daff_4K----------------
#NOTES:
     dance-single:
     Daff_4K:
     Easy:
     5:
     0.171644,0.253252,0.014389,0.093531,0.000000,167.000000,165.000000,2.000000,13.000000,0.000000,0.000000,0.171644,0.253252,0.014389,0.093531,0.000000,167.000000,165.000000,2.000000,13.000000,0.000000,0.000000:
0000
0000
0000
0000
,
0000
0000
0000
0000
,
0000
0000
0000
0000
,
0000
0000
0000
0000
,
0000
0000
0000
0000
,
0000
0000
0000
0000
,
0000
0000
0000
0000
,
0000
0000
0000
0000
,
0001
0000
0001
0000
,
0001
0000
0000
0000
,
0100
0000
0000
0000
,
0010
0000
0000
0000
,
1000
0000
1000
0000
,
1000
0000
0000
0000
,
0100
0000
0000
0000
,
0020
0000
0000
0030
,
0001
0000
0000
0100
,
0000
0000
0001
0000
,
1000
0000
0000
0100
,
0000
0000
1000
0000
,
0001
0000
0000
0010
,
0000
0000
0100
0000
,
1000
0000
0000
0010
,
0000
0000
0100
0000
,
1001
0000
0000
0000
,
0000
0000
0000
0000
,
1000
0000
1000
0000
,
0100
0000
0100
0000
,
0010
0000
0010
0000
,
0001
0000
0001
0000
,
0100
0000
0010
0000
,
1000
0000
0000
0000
,
1000
0000
1000
0000
,
0100
0000
0010
0000
,
0001
0000
0001
0000
,
0100
0000
0100
0000
,
0010
0000
0010
0000
,
1000
0000
1000
0000
,
0100
0000
0010
0000
,
0001
0000
1000
0000
,
0002
0000
0003
0000
,
0200
0000
0300
0000
,
0010
0000
1000
0000
,
0001
0000
0000
0000
,
2000
0000
3000
0000
,
0200
0000
0300
0000
,
0010
0000
0001
0000
,
1000
0000
0000
0000
,
0020
0000
0130
0000
,
0200
0000
0301
0000
,
0002
0000
1003
0000
,
2000
0000
3100
0000
,
0100
0000
0100
0000
,
0010
0000
0010
0000
,
0001
0000
1000
0000
,
1001
0000
0000
0000
,
0001
0000
0100
0000
,
1000
0100
0001
0000
,
0001
0000
0010
0000
,
0100
1000
0001
0000
,
1000
0000
0100
0000
,
0001
0100
1000
0000
,
1000
0000
0010
0000
,
0100
0001
1000
0000
,
0100
0000
0100
0010
,
0001
0000
0100
0010
,
1000
0000
0100
0000
,
0010
0000
0001
0000
,
0100
0000
0100
0010
,
1000
0000
0100
0010
,
0001
0000
0100
0000
,
0010
0010
1000
0001
,
2000
0000
3001
0000
,
0001
0100
0010
0000
,
0020
0000
0130
0000
,
0001
0010
0100
1000
,
0002
0000
1003
0000
,
1000
0100
0010
0000
,
0020
0000
0130
0000
,
1000
0010
0100
0001
,
0010
0000
0010
0001
,
0100
0000
0100
0001
,
1000
0000
1000
0001
,
0010
0000
0100
1000
,
0010
0000
0010
1000
,
0100
0000
0100
1000
,
0001
0000
0001
1000
,
0010
0100
0001
1000
,
0001
0000
0000
0000
;

//---------------dance-single - Daff_4K----------------
#NOTES:
     dance-single:
     Daff_4K:
     Medium:
     8:
     0.269286,0.384195,0.021584,0.215840,0.028779,262.000000,259.000000,3.000000,30.000000,0.000000,0.000000,0.269286,0.384195,0.021584,0.215840,0.028779,262.000000,259.000000,3.000000,30.000000,0.000000,0.000000:
0000
0000
0000
0000
,
0000
0000
0000
0000
,
0000
0000
0000
0000
,
0000
0000
0000
0000
,
0000
0000
0000
0000
,
0000
0000
0000
0000
,
0000
0000
0000
0000
,
0000
0000
0000
0000
,
1000
0000
0010
0000
,
1000
0001
1000
0000
,
0100
0000
1000
0000
,
0010
0100
0001
0000
,
0001
0000
0010
0000
,
0001
1000
0001
0000
,
0100
0000
0001
0000
,
0020
0000
0230
0000
,
1300
0000
0000
1000
0000
0000
0001
0000
,
0000
0001
0000
0000
1000
0000
0001
0000
,
0010
0000
0000
0010
0000
0000
0100
0000
,
0000
0100
0000
0000
1000
0000
0000
0000
,
0001
0000
0000
0001
0000
0000
1000
0000
,
0000
1000
0000
0000
0001
0000
1000
0000
,
0010
0000
0000
0010
0000
0000
0100
0000
,
0000
0100
0000
0000
0001
0000
0000
0000
,
2002
0000
0000
0000
,
3003
0000
0000
0000
,
1000
0000
0001
0000
,
1000
0010
1000
0000
,
0001
0010
0001
0000
,
0100
0000
0010
0000
,
1000
0000
0001
0000
,
0010
0100
0010
0100
,
1000
0000
0001
0000
,
0100
0010
0100
0000
,
0001
0000
1000
0000
,
0001
0010
0001
0000
,
1000
0010
1000
0000
,
0100
0000
0010
0000
,
0001
0000
1000
0000
,
0020
0000
0130
0000
,
2001
0000
3100
0000
,
0020
0000
0031
0000
,
1000
0010
0001
0000
,
0001
0010
1000
0000
,
1002
0000
0103
0000
,
0020
0000
1030
0000
,
0001
0010
1000
0000
,
1000
0010
0001
0000
,
0200
0000
0310
0000
,
2000
0000
3001
0000
,
0020
0000
0130
0000
,
2000
0000
3001
0000
,
0200
0000
0320
0000
,
2030
0000
3002
0000
,
0013
0100
0010
0100
,
1000
0001
1000
0000
,
0002
0100
1003
0000
,
0001
0000
0010
0000
0100
1000
0010
0000
,
0200
0001
0310
0000
,
1000
0001
0010
0100
,
2000
0100
3001
0000
,
1000
0000
0010
0000
0100
0001
0010
0000
,
0200
1000
0310
0000
,
0001
1000
0010
0100
,
0002
0010
1000
0103
,
0200
1000
0010
0301
,
0001
0010
0100
1000
,
0010
0000
0100
0000
0001
0000
1000
0001
,
2000
0010
0001
3100
,
0200
0001
0010
1300
,
1000
0010
0100
0001
,
0020
0130
2000
3001
,
2000
0010
0001
3100
,
1000
0000
0010
0100
0010
0000
1000
0000
,
0002
0010
1000
0103
,
0001
0000
0010
0100
0010
0000
0001
0000
,
1000
0000
0010
0100
0000
0100
0001
0000
,
1000
0000
0100
0010
0001
0000
1000
0000
,
0001
0000
0010
0100
0000
0100
1000
0000
,
0001
0000
0100
0010
1000
0000
0001
0000
,
0010
0000
0000
0010
0000
0000
0010
0000
0000
0000
0100
0000
1000
0000
0000
0000
,
0010
0000
0000
0010
0000
0000
0010
0000
0000
0000
0100
0000
0001
0000
0000
0000
,
1000
0000
0000
1000
0000
0000
1000
0000
0000
0000
0100
0000
0010
0000
0000
0000
,
0001
0000
0000
0001
0000
0000
0001
0000
0000
0000
0100
0000
0010
0000
0000
0000
,
1000
0000
0000
0100
0000
0000
1000
0000
0000
0000
0001
0000
1000
0000
0000
0000
,
0001
0000
0000
0100
0000
0000
0001
0000
0000
0000
1000
0000
0001
0000
0000
0000
,
0010
0000
0000
0100
0000
0000
0010
0000
0000
0000
0001
0000
1000
0000
0000
0000
,
0010
0000
0000
0100
0000
0000
0001
0000
0000
0000
1000
0000
0001
0000
0010
0000
,
0200
0000
0000
0000
,
0300
0000
0000
0000
;

//---------------dance-single - Daff_4K----------------
#NOTES:
     dance-single:
     Daff_4K:
     Hard:
     12:
     0.452236,0.672341,0.323760,0.237424,0.143893,440.000000,395.000000,45.000000,33.000000,0.000000,0.000000,0.452236,0.672341,0.323760,0.237424,0.143893,440.000000,395.000000,45.000000,33.000000,0.000000,0.000000:
0000
0000
0000
0000
,
0000
0000
0000
0000
,
0000
0000
0000
0000
,
0000
0000
0000
0000
,
0000
0000
0000
0000
,
0000
0000
0000
0000
,
0000
0000
0000
0000
,
0000
0000
0000
0000
,
1001
0000
0001
0010
0000
0010
1000
0000
,
0010
0000
0001
1000
0001
0000
0100
0000
,
0010
0000
1000
0001
0000
0001
0010
0000
,
0100
1000
0010
0100
,
0001
0000
1000
0010
0000
0010
0001
0000
,
0010
0000
1000
0001
1000
0000
0100
0000
,
0010
0000
0001
1000
0000
1000
0010
0000
,
0200
0302
2003
3200
,
0310
0000
0001
1000
0000
1000
0001
0000
,
0001
0100
0000
0100
0010
0000
1000
0000
,
0001
0000
0010
0100
0000
0100
0010
0000
,
0001
1000
0000
1000
0001
0000
0100
0000
,
0010
0000
1000
0001
0000
0001
1000
0000
,
1000
0100
0000
0100
0010
0000
0001
0000
,
1000
0000
0010
0100
0000
0100
0010
0000
,
1000
0001
0000
0001
1000
0000
0001
0000
,
2002
0000
0000
0000
,
0000
0000
3003
0000
,
1000
0000
0010
0100
0000
0100
0001
0000
,
1000
0000
0100
0010
0100
0000
1000
0000
,
0001
0100
0001
0000
1000
0100
1000
0000
,
0010
0100
0001
1000
,
0200
0310
0002
1003
,
0010
0100
0001
1000
,
0001
0000
0010
0100
0000
0010
0001
0000
,
1000
0000
0010
0100
0010
0000
1000
0000
,
0001
0000
0010
0100
0000
0100
1000
0000
,
0001
0000
0100
0010
0100
0000
0001
0000
,
1000
0100
1000
0000
0001
0100
0001
0000
,
0010
0100
1000
0001
,
0100
0000
0010
1000
0000
0001
1000
0000
,
0100
0000
0010
0000
0100
0000
1000
0000
0001
0000
0000
0000
,
2001
0000
3020
0000
,
0032
0000
0203
0000
,
1300
0000
0001
0000
1000
0000
0001
0000
0200
0000
0000
0000
,
0310
0000
1000
0000
0001
0000
1000
0000
0001
0000
0000
0000
,
1002
0000
0023
0000
,
2030
0000
3200
0000
,
0301
0000
1000
0000
0001
0000
1000
0000
0200
0000
0000
0000
,
0310
0000
0001
0000
1000
0000
0001
0000
1000
0000
0000
0000
,
1001
0000
0101
0000
,
0110
0000
0010
1000
,
1001
0000
1100
0000
,
0110
0000
0010
0001
,
0101
0000
1010
0000
,
1100
0000
0011
0000
,
0001
0100
0010
1000
,
0100
0010
1001
0000
,
0201
0000
0010
0000
1300
0000
0100
0001
,
1000
0000
0000
1000
0100
0000
0000
0100
0001
0000
0010
0000
1000
0000
0000
0000
,
1002
0000
0013
0000
2100
0000
3010
0100
,
0001
0000
0000
0001
1000
0000
0000
1000
0100
0000
0010
0000
0001
0000
0000
0000
,
1200
0000
0010
0000
0301
0000
0100
1000
,
0001
0000
0000
0001
0100
0000
0000
0100
1000
0000
0010
0000
0001
0000
0000
0000
,
2001
0000
3010
0000
0102
0000
0013
0100
,
1000
0000
0000
1000
0001
0000
0000
0001
0100
0000
0010
0000
1000
0000
0000
0000
,
1002
0000
0103
0100
0010
1000
0001
0000
,
2001
0000
3100
0100
0010
0001
1000
0000
,
0001
0100
1000
0010
1000
0100
0001
0000
,
1000
0100
0001
0010
0001
0100
1000
0000
,
1020
0000
0031
0001
1000
0100
0001
0000
,
0021
0000
1030
1000
0001
0100
1000
0000
,
0001
0100
0010
1000
0100
0010
0001
0000
,
0110
1001
0110
1001
,
0021
0000
0100
0000
1030
0010
0001
0100
,
1000
0000
0000
0001
0000
0000
0010
0000
1000
0000
0100
0000
0010
0000
0000
0000
,
1002
0000
0100
0000
0013
0001
0100
0010
,
1000
0000
0000
0100
0000
0000
0001
0000
0010
0000
1000
0000
0001
0000
0000
0000
,
1020
0000
0100
0000
0031
0010
1000
0100
,
0001
0000
0000
1000
0000
0000
0010
0000
0001
0000
0100
0000
0010
0000
0000
0000
,
2001
0000
0100
0000
3010
1000
0100
0010
,
0001
0000
0000
0100
0000
0000
1000
0000
0010
0000
0001
0000
1000
0000
0000
0000
,
1010
0000
0000
0110
0000
0000
0101
0000
0000
0000
0001
0000
1000
0000
0000
0000
,
0100
0000
0000
0010
0000
0000
0001
0000
0100
0000
0010
0000
1000
0000
0001
0000
,
0011
0000
0000
0110
0000
0000
1100
0000
0000
0000
1000
0000
0001
0000
0000
0000
,
0100
0000
0000
0010
0000
0000
1000
0000
0100
0000
0010
0000
0001
0000
1000
0000
,
1010
0000
0000
0101
0000
0000
0011
0000
0000
0000
0100
0000
1000
0000
0000
0000
,
0001
0000
0000
0100
0000
0000
1000
0000
0100
0000
0010
0000
1000
0000
0001
0000
,
0011
0000
0000
1100
0000
0000
1010
0000
0000
0000
0100
0000
0001
0000
1000
0000
,
0001
0000
0010
0001
0000
0010
0100
1000
0000
0100
1000
0010
0000
0100
0010
0000
,
0200
0000
0000
0000
,
0300
0000
0000
0000
;

//---------------dance-single - Daff_4K----------------
#NOTES:
     dance-single:
     Daff_4K:
     Challenge:
     14:
     0.607435,0.736373,0.640325,0.683493,0.334552,591.000000,502.000000,89.000000,95.000000,0.000000,0.000000,0.607435,0.736373,0.640325,0.683493,0.334552,591.000000,502.000000,89.000000,95.000000,0.000000,0.000000:
// measure 0
0000
0000
0000
0000
,  // measure 1
0000
0000
0000
0000
,  // measure 2
0000
0000
0000
0000
,  // measure 3
0000
0000
0000
0000
,  // measure 4
0000
0000
0000
0000
,  // measure 5
0000
0000
0000
0000
,  // measure 6
0000
0000
0000
0000
,  // measure 7
0000
0000
0000
0000
,  // measure 8
2001
0000
3100
0020
0000
0130
0002
0000
,  // measure 9
0103
1000
0010
0100
0001
0000
1001
0000
,  // measure 10
1200
0000
0310
0002
0000
1003
0020
0000
,  // measure 11
0130
0001
1000
0001
0010
0100
1000
0000
,  // measure 12
1002
0000
0103
0020
0000
0130
2000
0000
,  // measure 13
3100
0001
0010
0100
1000
0000
1001
0000
,  // measure 14
0201
0000
0310
2000
0000
3001
0010
0100
,  // measure 15
2000
0000
0000
3002
0000
0000
0103
0010
0100
0010
0000
0000
,  // measure 16
2001
0000
3100
0010
0100
1000
0002
0000
,  // measure 17
1003
0010
0100
0001
1000
0000
0110
0000
,  // measure 18
1002
0000
0013
0100
1000
0001
0200
0000
,  // measure 19
0310
1000
0100
0001
0100
0000
0110
0000
,  // measure 20
1002
0000
0103
0010
0100
0001
2000
0000
,  // measure 21
3001
0010
0100
1000
0001
0000
0110
0000
,  // measure 22
2001
0000
3010
0100
0001
1000
0200
0000
,  // measure 23
0310
0001
0100
1000
0100
0000
0110
0000
,  // measure 24
2002
0000
0000
0000
,  // measure 25
0000
0000
3003
0000
,  // measure 26
2001
0000
3100
0002
0000
0103
2000
0000
,  // measure 27
3010
0100
0001
1000
0100
0010
0100
1000
,  // measure 28
0001
0100
0010
2000
0000
3001
0010
0100
,  // measure 29
2000
0000
3010
0200
0000
0301
1000
0000
,  // measure 30
1100
0101
0011
1010
,  // measure 31
1001
0000
0001
0010
0100
1000
0001
0000
,  // measure 32
2001
0000
3010
0200
0000
0310
0002
0000
,  // measure 33
0013
1000
0100
0010
0001
0100
0010
0000
,  // measure 34
1002
0000
0103
2000
0000
3100
0002
0000
,  // measure 35
0013
0100
1000
0001
0100
0010
0100
0001
,  // measure 36
1000
0100
0010
0002
0000
1003
0010
0100
,  // measure 37
0002
0000
0013
0200
0000
1300
0001
0000
,  // measure 38
0101
1010
1100
0011
,  // measure 39
0001
0000
1000
0000
0010
0000
0100
0000
0220
0000
0330
0000
,  // measure 40
2002
3003
2200
3300
,  // measure 41
0012
0000
0000
0000
0103
0000
0020
0000
2000
0000
3030
0000
,  // measure 42
1000
0000
0100
0000
0100
0000
0002
0000
2000
0000
3003
0000
,  // measure 43
0001
0000
0010
0000
0010
0000
2000
0000
0002
0000
3003
0000
,  // measure 44
2002
3003
0202
0303
,  // measure 45
2010
0000
0000
0000
3100
0000
0020
0000
0002
0000
0033
0000
,  // measure 46
0001
0000
0100
0000
0100
0000
2000
0000
0002
0000
3003
0000
,  // measure 47
1000
0000
0010
0000
0010
0000
0002
0000
2000
0000
3003
0000
,  // measure 48
2001
0000
0000
3010
0100
0010
0200
0000
0000
0301
1000
0001
,  // measure 49
2000
3200
0320
0031
,  // measure 50
1002
0000
0000
0013
0100
0010
0200
0000
0000
1300
0001
1000
,  // measure 51
0002
0203
0320
1030
,  // measure 52
2001
0000
0000
3010
0100
0010
0200
0000
0000
0301
1000
0001
,  // measure 53
2000
0000
0000
3100
0010
0100
0020
0000
0000
0031
0000
0000
,  // measure 54
0101
1100
1010
0011
,  // measure 55
1001
0110
2002
3003
,  // measure 56
1100
0000
0000
0000
0101
0000
0000
0000
0011
0000
0000
0000
0010
0100
0010
0100
,  // measure 57
2000
0000
0000
3010
0200
0000
0000
0301
0010
0000
0100
0000
1001
0000
0000
0000
,  // measure 58
1010
0000
0000
0000
0101
0000
0000
0001
0010
0000
0100
0000
1000
0001
1000
0001
,  // measure 59
0200
0000
0000
0310
2000
0000
0000
3001
0010
0000
0100
1000
0001
0000
0000
0000
,  // measure 60
0101
0000
0000
0000
1100
0000
0000
0000
1010
0000
0000
0000
0010
0100
0010
0100
,  // measure 61
0002
0000
0000
0013
0200
0000
0000
1300
0010
0000
0100
0000
1001
0000
0000
0000
,  // measure 62
0011
0000
0010
0000
1100
0000
1000
0000
0010
0000
0100
0000
0001
1000
0001
1000
,  // measure 63
0200
0000
0000
0310
0002
0000
0000
1003
0010
0000
0100
0001
1000
0000
0000
0000
,  // measure 64
1001
0000
0000
0001
0010
0000
0100
0000
1000
0000
0010
0000
0010
0000
0001
0000
,  // measure 65
1000
0000
0000
1000
0010
0000
0100
0000
0001
0000
0010
0000
0010
0000
1000
0000
,  // measure 66
0100
0000
0000
0100
0010
0000
0001
0000
0100
0000
0000
0100
0010
0000
1000
0000
,  // measure 67
0100
0000
0010
0100
0010
0000
0001
0000
0100
0000
0010
0000
1000
0001
0000
0000
,  // measure 68
1001
0000
0000
1000
0100
0000
0010
0000
0001
0000
0100
0000
0100
0000
1000
0000
,  // measure 69
0001
0000
0000
0001
0100
0000
0010
0000
1000
0000
0100
0000
0100
0000
0001
0000
,  // measure 70
0010
0000
0000
0010
0100
0000
1000
0000
0010
0000
0100
0000
0001
0000
1000
0000
,  // measure 71
1100
0011
0101
1010
,  // measure 72
1002
0000
0000
0023
0000
0000
0130
0000
1000
0000
0010
0000
0010
0000
0001
0000
,  // measure 73
1000
0000
0001
0010
0000
0010
1000
0000
0100
0000
0010
0001
1000
0000
0010
0000
,  // measure 74
0210
0000
0000
0302
0000
0000
1003
0000
0001
0000
0010
0000
0010
0000
1000
0000
,  // measure 75
0001
0000
1000
0100
0000
0100
0001
0000
0010
0000
0100
1000
0001
0000
0000
0000
,  // measure 76
2001
0000
0000
3020
0000
0000
0130
0000
0001
0000
0010
0000
0010
0000
1000
0000
,  // measure 77
0001
0000
1000
0010
0000
0010
0001
0000
0100
0000
0010
1000
0001
0000
0010
0000
,  // measure 78
0210
0000
0000
2300
0000
0000
3001
0000
1000
0000
0010
0000
0010
0000
0001
0000
,  // measure 79
1000
0000
0001
0100
0000
0100
1000
0000
0010
0000
0100
0001
1000
0000
0000
0000
,  // measure 80
1010
0000
0000
0101
0000
0000
1010
0000
1000
0000
0001
0000
0011
0000
0000
0000
,  // measure 81
1100
0000
0000
0011
0000
0000
1001
0000
1000
0000
0010
0000
0001
0000
0010
0000
,  // measure 82
0110
0000
0000
1001
0000
0000
0011
0000
0010
0000
0100
0000
1000
0000
0000
0000
,  // measure 83
0101
0000
0000
1010
0000
0000
1001
0000
0001
0000
0010
0100
1000
0000
0001
0000
,  // measure 84
0011
0000
0000
1100
0000
0000
0011
0000
0001
0000
1000
0000
1010
0000
0000
0000
,  // measure 85
0101
0000
0000
1010
0000
0000
1001
0000
0001
0000
0010
0000
1000
0000
0010
0000
,  // measure 86
0110
0000
0000
1001
0000
0000
1010
0000
0010
0000
0100
0000
0001
0000
0010
0000
,  // measure 87
0100
0000
1000
0001
0000
0100
0010
1000
0000
0100
0010
0001
0000
0100
0010
0000
,  // measure 88
0200
0000
0000
0000
,  // measure 89
0300
0000
0000
0000
;
