#TITLE:Ultra B+K;
#SUBTITLE:(RoughSketch Remix);
#ARTIST:nora2r;
#TITLETRANSLIT:;
#SUBTITLETRANSLIT:;
#ARTISTTRANSLIT:;
#GENRE:;
#CREDIT:;
#BANNER:Ultra B+K (Roughsketch Remix).png;
#BACKGROUND:Ultra B+K (Roughsketch Remix)-bg.png;
#LYRICSPATH:;
#CDTITLE:;
#MUSIC:Ultra B+K (Roughsketch Remix).ogg;
#OFFSET:0.000000;
#SAMPLESTART:50.391296;
#SAMPLELENGTH:9.599998;
#SELECTABLE:YES;
#BPMS:0.000000=200.000000
;
#STOPS:
;
#BGCHANGES:;
#KEYSOUNDS:;
#ATTACKS:;

//---------------dance-single - ----------------
#NOTES:
     dance-single:
     :
     Challenge:
     15:
     0.692115,0.890688,0.242915,0.398111,0.175439,718.000000,682.000000,36.000000,59.000000,123.000000,0.000000,0.692115,0.890688,0.242915,0.398111,0.175439,718.000000,682.000000,36.000000,59.000000,123.000000,0.000000:
0000
0000
0000
0000
,
0000
0000
0000
0000
,
0000
0000
0000
0000
,
0000
0000
0000
0000
,
0000
0000
0000
0000
,
0000
0000
0000
0000
,
0000
0000
0000
0000
,
0000
0000
0000
0000
,
2000
0010
0001
3002
,
0010
0000
0100
0000
1000
0000
1003
0100
,
0020
1000
0100
0230
,
0001
0000
0000
0000
1000
0000
0000
0000
0310
0000
0001
0100
0001
0000
1000
0010
,
1000
0001
0100
0100
0001
1000
0100
0100
,
0010
0001
1000
1000
0010
0100
0001
0001
,
1000
0000
0010
1000
0010
0000
1000
0001
1000
0000
0001
0010
0001
0000
0010
0100
,
1000
0000
0002
0103
,
M000
0000
0000
0000
0000
0000
0000
0000
M000
0000
M000
M000
M000
0000
M000
M000
,
M000
M000
M000
0000
M002
0000
0013
0000
,
2020
0000
0000
0000
3030
0000
0000
0000
0001
0000
1000
0100
0010
0000
0001
1000
,
0020
0100
0130
0010
1001
0000
0010
0000
,
110M
0000
000M
0000
000M
0000
000M
0000
000M
000M
000M
0000
000M
0000
000M
0000
,
000M
000M
000M
0000
000M
000M
000M
0000
200M
0000
0000
0000
3100
0000
0000
0000
,
0010
0000
0010
0000
0001
0000
0001
0000
0010
0100
1000
0000
0001
0000
0100
0000
,
0010
1000
0001
0000
0100
0001
1000
0000
0200
0000
0000
0000
0000
0000
0000
0000
,
2300
3000
0000
0000
0000
0000
0000
0000
2000
3000
0000
0000
0000
0000
0000
0000
0004
0003
0000
0000
0000
0000
0000
0000
0004
0003
0000
0000
0000
0000
0000
0000
,
2000
3000
0000
0000
0000
0000
0000
0000
0004
0003
0000
0000
0000
0000
0000
0000
0004
0003
0000
0000
0000
0000
0000
0000
0010
0000
0000
0000
0100
0000
0000
0000
,
2000
3000
0000
0000
0000
0000
0000
0000
2000
3000
0000
0000
0000
0000
0000
0000
0004
0003
0000
0000
0000
0000
0000
0000
0004
0003
0000
0000
0000
0000
0000
0000
,
2000
3000
0000
0000
0000
0000
0000
0000
2000
3000
0000
0000
0000
0000
0000
0000
0004
0003
0000
0000
0000
0000
0000
0000
0004
0003
0000
0000
0000
0000
0000
0000
,
0100
0100
0010
1000
0100
0100
0010
0001
,
1000
1000
0010
0001
0010
0010
0100
0001
,
0010
0000
0001
0010
0001
0000
1000
0001
1000
0000
0010
1000
0010
0000
0100
0010
,
0100
0000
0020
0130
,
1001
0000
1001
0000
1001
0000
1001
1001
,
1001
0000
0000
0000
0000
0000
0000
0000
0000
0000
0000
0000
0000
0000
0000
0000
2000
3000
0000
0000
0100
0000
0010
0000
0004
0003
0000
0000
1000
0000
0010
0000
,
0200
0010
0001
0010
,
0010
0000
1000
0000
0302
0000
0013
0010
,
0200
0010
1000
0001
,
1000
0000
1000
0000
0320
0000
0000
0000
0031
0000
0000
0001
1000
0000
MMMM
0000
,
1010
MMMM
0110
MMMM
1010
MMMM
0011
MMMM
,
1100
0000
MMMM
0000
0011
0000
0000
0000
0001
0000
0001
0000
1000
0000
0010
1000
,
0001
MMMM
0011
MMMM
0101
MMMM
1010
0000
,
1000
0100
0010
0001
1000
0100
0010
0001
1000
0000
0100
1000
0001
0000
0100
0000
,
0001
0100
0001
0100
1000
0100
1000
0001
,
0010
0000
1000
0000
0010
0000
1000
0000
0001
0000
0010
0001
1000
0000
0010
0000
,
1000
0100
0001
0100
1000
1000
0001
0001
,
0100
0100
0010
0000
MMMM
0000
0010
1010
,
1000
0010
1000
0010
0001
0010
0001
1000
,
0100
0000
0001
0000
0100
0000
0001
0000
1000
0000
0100
1000
0001
0000
0100
0000
,
0001
0010
1000
0010
0001
0001
1000
1000
,
0100
0000
0000
0000
0000
0000
0000
0000
0010
0000
0100
1000
0001
0000
0000
0000
,
0202
0000
0000
0000
0303
0000
0000
0000
0001
0000
1000
0010
0100
0000
0010
0100
,
0010
1000
1000
0001
1000
0000
0100
0000
,
0120
0000
0002
0000
0033
0000
0000
0000
0010
0000
0100
1000
0001
0000
1000
0001
,
1000
0010
0010
0100
0002
0000
1003
0000
,
2020
0000
0000
0000
3030
0000
0000
0000
1000
0000
0001
0010
0100
0000
0010
0100
,
0010
0001
0001
1000
0001
0000
0010
0000
,
0220
0000
0000
0000
,
0330
0000
0000
0000
,
1000
0000
0001
0000
0010
0000
0001
0100
,
0001
0000
1000
0010
0000
1000
0001
0000
,
0010
0000
0001
0000
1000
0000
0100
0001
,
0100
0000
0010
0001
0000
0100
0010
1000
,
0001
0000
1000
0000
0100
0000
1000
0010
,
1000
0000
0001
0010
0000
0001
1000
0000
,
0010
0000
1000
0000
0100
0000
0010
0001
,
0100
1000
0100
0001
0000
1000
0010
1000
,
0002
0000
0010
0000
0103
0000
0010
1000
,
0001
1000
0100
0010
0000
0100
0010
0001
,
2000
0000
0010
0000
3100
0000
0010
0001
,
0010
1000
0010
0100
0000
1000
0001
0100
,
0020
0000
0001
0000
1030
0000
0100
1000
,
0001
1000
0001
0010
0000
0100
1000
0001
,
0200
0000
1000
0000
0301
0000
1000
0001
,
0010
0000
0000
0000
1000
0000
0000
0000
0010
0000
0000
0000
0001
0000
0000
0000
2000
3000
0000
0000
0000
0000
0000
0000
0004
0003
0000
0000
0000
0000
0000
0000
,
1001
MMMM
0011
MMMM
1010
0000
1000
0010
,
0100
0010
0100
0001
0000
0010
0100
1000
,
0001
MMMM
0101
MMMM
1100
0000
1000
0001
,
0010
1000
0010
0001
0000
1000
0010
0100
,
0001
MMMM
1100
MMMM
1010
0000
0010
0100
,
0001
0100
0001
1000
0000
0100
0010
0001
,
1000
MMMM
0011
MMMM
0101
0000
0100
0001
,
0010
0000
0000
0000
1000
0000
0000
0000
0010
0000
0000
0000
0001
0000
0000
0000
2000
3000
0000
0000
0000
0000
0000
0000
0004
0003
0000
0000
0000
0000
0000
0000
,
2000
3000
0000
0000
0000
0000
0000
0000
2000
3000
0000
0000
0000
0000
0000
0000
0004
0003
0000
0000
0000
0000
0000
0000
0004
0003
0000
0000
0000
0000
0000
0000
,
2000
3000
0000
0000
0000
0000
0000
0000
0004
0003
0000
0000
0000
0000
0000
0000
0004
0003
0000
0000
0000
0000
0000
0000
0100
0000
0000
0000
0010
0000
0000
0000
,
2000
3000
0000
0000
0000
0000
0000
0000
2000
3000
0000
0000
0000
0000
0000
0000
0004
0003
0000
0000
0000
0000
0000
0000
0004
0003
0000
0000
0000
0000
0000
0000
,
2000
3000
0000
0000
0000
0000
0000
0000
2000
3000
0000
0000
0000
0000
0000
0000
0004
0003
0000
0000
0000
0000
0000
0000
0004
0003
0000
0000
0000
0000
0000
0000
,
1000
0010
0100
0100
1000
0100
0001
0001
,
0010
0100
0001
0001
0100
1000
0001
0001
,
1000
0000
0001
0100
0001
0000
1000
0010
1000
0000
0001
0010
0001
0000
0010
0100
,
1000
0000
2000
3001
,
MMMM
0000
MMMM
0000
MMMM
0000
MMMM
MMMM
,
MMMM
0000
0000
0000
0000
0000
0000
0000
1000
0000
0000
0000
0001
0000
0000
0000
2000
3000
0000
0000
0010
0000
1000
0000
0004
0003
0000
0000
0010
0000
0100
0000
,
1000
0100
0001
0100
1000
0010
0100
0001
,
1000
0001
1000
0100
0010
0001
1000
1000
,
1000
0010
0001
0010
1000
0001
0010
0100
,
0001
0000
1000
0000
0010
0000
0001
0000
1000
0000
0001
1000
0001
0000
0001
0000
,
0001
0100
1000
0100
0001
0010
0100
1000
,
0001
1000
0001
0100
0010
0010
0010
1000
,
0001
0000
0010
0000
1000
0000
0010
0000
0001
0000
0001
0000
0001
0000
1000
0010
,
1000
0000
1000
0000
1000
0000
0001
0000
1000
0000
0010
0100
0001
0000
1000
0100
,
0010
0100
0001
0100
1000
0010
0100
0001
,
0010
0100
1000
0010
1000
0001
0100
0100
,
0100
1000
0100
0010
1000
0001
0010
0100
,
1000
0001
1000
0000
1000
0000
0100
0000
1000
0000
0010
0100
0010
0000
0010
0000
,
0010
0100
1000
0100
0001
0010
0100
0100
,
0100
1000
0010
0100
0001
0001
0001
1000
,
0200
0001
0000
0310
0002
1000
0000
0103
,
0010
0000
0000
0000
0010
0000
0000
0000
0010
0000
0000
0000
0000
0000
0000
0000
2000
3000
0000
0000
0000
0000
0100
0000
2000
3000
0000
0000
2000
3000
0000
0000
,
0001
0001
0001
0010
0100
0001
0100
1000
,
0001
1000
0010
0001
0010
0100
0001
0001
,
0001
1000
0010
0100
1000
0100
0001
0010
,
0100
0000
0100
0000
0100
0000
0001
0000
0100
0000
1000
0001
1000
0000
0020
0030
,
1000
0100
0010
1000
0010
0001
0100
0100
,
0100
0010
0001
0010
1000
1000
1000
0001
,
0021
0000
0130
0100
2100
0000
3001
0001
,
1001
0000
0000
0000
1000
0000
0000
0000
0010
0000
0000
0000
0010
0000
0000
0000
2000
3000
0000
0000
1000
0000
0000
0000
0004
0003
0000
0000
0001
0000
0000
0000
,
2002
0000
0000
0000
,
0000
0000
0000
0000
,
0000
0000
0000
0000
,
0000
0000
0000
0000
,
3003
0000
0000
0000
;

//---------------dance-single - ----------------
#NOTES:
     dance-single:
     :
     Hard:
     15:
     0.699827,0.890688,0.249663,0.290148,0.158569,726.000000,689.000000,37.000000,43.000000,0.000000,0.000000,0.699827,0.890688,0.249663,0.290148,0.158569,726.000000,689.000000,37.000000,43.000000,0.000000,0.000000:
0000
0000
0000
0000
,
0000
0000
0000
0000
,
0000
0000
0000
0000
,
0000
0000
0000
0000
,
0000
0000
0000
0000
,
0000
0000
0000
0000
,
0000
0000
0000
0000
,
0000
0000
0000
0000
,
2000
0010
0001
3002
,
0010
0000
0100
0000
1000
0000
1003
0100
,
0020
1000
0100
0230
,
0001
0000
0000
0000
1000
0000
0000
0000
0310
0000
0001
0100
0001
0000
1000
0010
,
1000
0001
0100
0100
0001
1000
0100
0100
,
0010
0001
1000
1000
0010
0100
0001
0001
,
1000
0000
0010
1000
0010
0000
1000
0001
1000
0000
0001
0010
0001
0000
0010
0100
,
1000
0000
0002
0103
,
0000
0000
0000
0000
,
0000
0000
0002
0013
,
2020
0000
0000
0000
3030
0000
0000
0000
0001
0000
1000
0100
0010
0000
0001
1000
,
0020
0100
0130
0010
1001
0000
0010
0000
,
1100
0000
0000
0000
,
0000
0000
2000
3100
,
0010
0000
0010
0000
0001
0000
0001
0000
0010
0100
1000
0000
0001
0000
0100
0000
,
0010
1000
0001
0000
0100
0001
1000
0000
0200
0000
0000
0000
0000
0000
0000
0000
,
1300
1000
0001
0001
,
1000
0000
0001
0000
0001
0000
0010
0100
,
1000
1000
0001
0001
,
1000
1000
0001
0001
,
0100
0100
0010
1000
0100
0100
0010
0001
,
1000
1000
0010
0001
0010
0010
0100
0001
,
0010
0000
0001
0010
0001
0000
1000
0001
1000
0000
0010
1000
0010
0000
0100
0010
,
0100
0000
0020
0130
,
1001
0000
1001
0000
1001
0000
1100
0110
,
0011
0000
0000
0000
0000
0000
0000
0000
1000
0000
0100
0010
0001
0000
1000
0010
,
0200
0010
0001
0010
,
0010
0000
1000
0000
0302
0000
0013
0010
,
0200
0010
1000
0001
,
1000
0000
1000
0000
0320
0000
0000
0000
0031
0000
0000
0001
1000
0000
0000
0000
,
1010
0110
1010
0011
,
1100
0000
0000
0000
0011
0000
0000
0000
0001
0000
0001
0000
1000
0000
0010
1000
,
0001
0011
0101
1010
,
1000
0100
0010
0001
1000
0100
0010
0001
1000
0000
0100
1000
0001
0000
0100
0000
,
0001
0100
0001
0100
1000
0100
1000
0001
,
0010
0000
1000
0000
0010
0000
1000
0000
0001
0000
0010
0001
1000
0000
0010
0000
,
1000
0100
0001
0100
1000
1000
0001
0001
,
0100
0100
0010
0000
0110
0000
0001
1001
,
1000
0010
1000
0010
0001
0010
0001
1000
,
0100
0000
0001
0000
0100
0000
0001
0000
1000
0000
0100
1000
0001
0000
0100
0000
,
0001
0010
1000
0010
0001
0001
1000
1000
,
0100
0000
0000
0000
0000
0000
0000
0000
0010
0000
0100
1000
0001
0000
0000
0000
,
0202
0000
0000
0000
0303
0000
0000
0000
0001
0000
1000
0010
0100
0000
0010
0100
,
0010
1000
1000
0001
1000
0000
0100
0000
,
0120
0000
0002
0000
0033
0000
0000
0000
0010
0000
0100
1000
0001
0000
1000
0001
,
1000
0010
0010
0100
0002
0000
1003
0000
,
2020
0000
0000
0000
3030
0000
0000
0000
1000
0000
0001
0010
0100
0000
0010
0100
,
0010
0001
0001
1000
0001
0000
0010
0000
,
0220
0000
0000
0000
,
0330
0000
0000
0000
,
1000
0000
0001
0000
0010
0000
0001
0100
,
0001
0000
1000
0010
0000
1000
0001
0000
,
0010
0000
0001
0000
1000
0000
0100
0001
,
0100
0000
0010
0001
0000
0100
0010
1000
,
0001
0000
1000
0000
0100
0000
1000
0010
,
1000
0000
0001
0010
0000
0001
1000
0000
,
0010
0000
1000
0000
0100
0000
0010
0001
,
0100
1000
0100
0001
0000
1000
0010
1000
,
0002
0000
0010
0000
0103
0000
0010
1000
,
0001
1000
0100
0010
0000
0100
0010
0001
,
2000
0000
0010
0000
3100
0000
0010
0001
,
0010
1000
0010
0100
0000
1000
0001
0100
,
0020
0000
0001
0000
1030
0000
0100
1000
,
0001
1000
0001
0010
0000
0100
1000
0001
,
0200
0000
1000
0000
0301
0000
1000
0001
,
0010
1000
0010
0001
1000
0000
0001
0000
,
1001
0000
0011
0000
1010
0000
1000
0010
,
0100
0010
0100
0001
0000
0010
0100
1000
,
0001
0000
0101
0000
1100
0000
1000
0001
,
0010
1000
0010
0001
0000
1000
0010
0100
,
0001
0000
1100
0000
1010
0000
0010
0100
,
0001
0100
0001
1000
0000
0100
0010
0001
,
1000
0000
0011
0000
0101
0000
0100
0001
,
0010
1000
0010
0001
1000
0000
0001
0000
,
1000
1000
0001
0001
,
1000
0000
0001
0000
0001
0000
0100
0010
,
1000
1000
0001
0001
,
1000
1000
0001
0001
,
1000
0010
0100
0100
1000
0100
0001
0001
,
0010
0100
0001
0001
0100
1000
0001
0001
,
1000
0000
0001
0100
0001
0000
1000
0010
1000
0000
0001
0010
0001
0000
0010
0100
,
1000
0000
2000
3001
,
2000
0000
3020
0000
0230
0000
0302
2003
,
3002
0000
0000
0000
1003
0000
0100
0000
1000
0000
0010
1000
0001
0000
0010
0100
,
1000
0100
0001
0100
1000
0010
0100
0001
,
1000
0001
1000
0100
0010
0001
1000
1000
,
1000
0010
0001
0010
1000
0001
0010
0100
,
0001
0000
1000
0000
0010
0000
0001
0000
1000
0000
0001
1000
0001
0000
0001
0000
,
0001
0100
1000
0100
0001
0010
0100
1000
,
0001
1000
0001
0100
0010
0010
0010
1000
,
0001
0000
0010
0000
1000
0000
0010
0000
0001
0000
0001
0000
0001
0000
1000
0010
,
1000
0000
1000
0000
1000
0000
0001
0000
1000
0000
0010
0100
0001
0000
1000
0100
,
0010
0100
0001
0100
1000
0010
0100
0001
,
0010
0100
1000
0010
1000
0001
0100
0100
,
0100
1000
0100
0010
1000
0001
0010
0100
,
1000
0001
1000
0000
1000
0000
0100
0000
1000
0000
0010
0100
0010
0000
0010
0000
,
0010
0100
1000
0100
0001
0010
0100
0100
,
0100
1000
0010
0100
0001
0001
0001
1000
,
0200
0001
0000
0310
0002
1000
0000
1003
,
0010
0000
0010
0000
0010
0000
0000
0000
1000
0000
0000
0100
0010
0000
0010
0000
,
0001
0001
0001
0010
0100
0001
0100
1000
,
0001
1000
0010
0001
0010
0100
0001
0001
,
0001
1000
0010
0100
1000
0100
0001
0010
,
0100
0000
0100
0000
0100
0000
0001
0000
0100
0000
1000
0001
1000
0000
0020
0030
,
1000
0100
0010
1000
0010
0001
0100
0100
,
0100
0010
0001
0010
1000
1000
1000
0001
,
0021
0000
0130
0100
2100
0000
3001
0001
,
1001
1000
0010
0010
1000
1000
0001
0001
,
2002
0000
0000
0000
,
0000
0000
0000
0000
,
0000
0000
0000
0000
,
0000
0000
0000
0000
,
3003
0000
0000
0000
;

//---------------dance-single - ----------------
#NOTES:
     dance-single:
     :
     Medium:
     13:
     0.558126,0.647773,0.148448,0.263158,0.010121,579.000000,557.000000,22.000000,39.000000,0.000000,0.000000,0.558126,0.647773,0.148448,0.263158,0.010121,579.000000,557.000000,22.000000,39.000000,0.000000,0.000000:
0000
0000
0000
0000
,
0000
0000
0000
0000
,
0000
0000
0000
0000
,
0000
0000
0000
0000
,
0000
0000
0000
0000
,
0000
0000
0000
0000
,
0000
0000
0000
0000
,
0000
0000
0000
0000
,
1000
0100
0010
0010
,
0001
0000
1000
0000
0010
0000
0010
0100
,
0001
0010
0100
0100
,
1000
0000
0001
0000
0100
0010
0100
0010
,
1000
0000
0001
1000
0001
0000
0010
0001
,
0010
0000
0100
0010
0100
0000
1000
0100
,
1000
0100
0010
0001
1000
0010
0100
0001
,
1000
0000
0000
0000
,
0000
0000
0000
0000
,
0000
0000
0000
0000
,
2002
0000
3003
0000
0001
0010
0001
1000
,
0010
0010
0010
0000
0110
0000
0100
0000
,
1001
0000
0000
0000
,
0000
0000
0000
0000
,
0001
0001
1000
1000
0010
0001
0010
1000
,
0001
1000
0100
0010
0002
0000
0000
0000
,
1003
1000
0100
0100
,
0010
0000
0100
0000
0100
0000
0100
0010
,
0001
0001
0100
0100
,
0010
0000
0010
0000
0100
0001
1000
0001
,
1000
0000
0001
0100
0001
0000
0100
0010
,
0100
0000
0010
1000
0010
0000
1000
0001
,
1000
0001
0010
0100
1000
0010
1000
0010
,
0100
0000
0000
0000
,
0100
0000
0100
0000
0100
0000
0100
0100
,
0100
0000
0010
1000
0001
0000
0011
0000
,
1100
0100
0010
0001
,
1000
0000
0010
0000
0100
0000
0010
0010
,
0010
1000
0001
0010
,
0100
0000
0100
0000
0100
0000
0000
0000
1000
0000
0000
1000
0001
0000
0010
0000
,
0001
0001
0010
0010
,
0100
0000
0100
0000
1000
0010
1000
0100
,
0010
0010
0100
0100
,
1000
0100
0010
0001
1000
1000
0010
0000
,
1010
0000
0110
0000
1010
0000
1000
0001
,
0010
0000
0011
0000
0001
0100
1000
0100
,
0001
0000
0101
0000
0100
0001
1000
0100
,
0010
0010
0010
0000
0002
0000
0103
1000
,
0100
0000
0101
0000
0110
0000
0010
1000
,
0100
0000
0110
0000
0010
0001
1000
0001
,
0100
0000
0110
0000
0010
0100
0001
1000
,
0100
0010
0002
0000
0023
0000
0230
0000
,
2300
0000
0000
0000
3010
0100
0010
1000
,
0001
0001
0001
0000
1001
0000
0000
0000
,
1000
0002
0000
0000
0013
0100
0010
0001
,
1000
1000
1000
0000
1020
0000
0130
0000
,
0102
0000
0000
0000
1003
0010
0100
0001
,
0010
0010
0010
0000
0110
0000
0100
0000
,
1001
0000
0000
0000
,
0000
0000
0000
0000
,
0001
0010
0100
1000
,
0001
0000
1000
0010
0000
0000
1000
0000
,
0001
0100
0010
1000
,
0100
0000
0001
0100
0000
0000
1000
0010
,
1000
0100
0010
0001
,
1000
0000
0010
0100
0000
0000
0010
0000
,
1000
0010
0100
0001
,
1000
0000
0001
0010
0000
0000
0100
0010
,
0200
0000
1000
0000
0310
0000
0010
0001
,
0010
0000
0001
1000
0000
0000
0010
1000
,
0002
0000
0100
0000
1003
0000
1000
0010
,
1000
0000
0100
0010
0000
0100
1000
0000
,
0020
0000
0100
0000
1030
0000
0001
1000
,
0001
0000
0010
0001
0000
0000
1000
0001
,
0200
0000
0010
0000
0301
0000
1000
0010
,
1000
0000
0001
0010
0000
0010
0100
1000
,
0002
0000
0023
0000
0230
0000
1300
0010
,
0100
0010
0100
0001
0000
1000
0001
0000
,
2000
0000
3200
0000
0320
0000
0031
1000
,
0100
0010
0100
1000
0000
0001
1000
0000
,
0002
0000
0203
0000
0320
0000
1030
0001
,
0010
0001
0010
0100
0000
1000
0001
0000
,
2000
0000
3200
0000
0320
0000
0130
1000
,
0001
0010
0001
1000
0000
0001
1000
0000
,
0010
0010
1000
1000
,
0001
0000
1000
0000
1000
0000
0100
0010
,
0001
0001
0010
0010
,
0100
0000
0100
0000
1000
0100
1000
0001
,
1000
0000
0010
1000
0010
0000
0100
0010
,
0100
0000
0001
0100
0001
0000
1000
0001
,
1000
0100
0010
0001
1000
0010
0100
0010
,
1000
0000
0000
0000
,
0010
0000
0010
0000
0010
0000
0010
0010
,
0010
0000
0100
0010
1000
0000
1001
0000
,
0102
0000
0010
0000
1003
0000
0100
0010
,
0001
0010
0001
1000
0000
0010
1000
1000
,
2000
0000
0100
0000
3001
0000
0010
0001
,
1000
0010
1000
0001
0100
0010
0100
0100
,
0200
0000
0010
0000
0301
0000
1000
0001
,
0010
0001
0010
0100
0010
0010
0100
1000
,
0020
0000
0000
0000
0100
0000
0000
0000
1030
0000
0001
0000
1000
0000
0000
1000
,
0001
1000
0001
0000
0010
0100
0010
0010
,
0002
0000
0100
0000
2003
0000
3010
0100
,
0010
0100
0001
1000
0000
0100
0010
0001
,
2000
0000
0100
0000
3002
0000
0013
0100
,
1000
0001
1000
0100
0010
0100
0010
0010
,
0002
0000
0010
0000
2003
0000
3100
0010
,
0001
1000
0001
0100
0010
0010
0010
0100
,
0010
1000
0000
1000
0001
1000
0000
1000
,
0100
0000
0010
0000
0100
0000
0000
0000
0010
0000
0000
0010
0100
0000
0010
0000
,
0001
1000
0001
0000
0100
0010
0100
0001
,
1000
0001
1000
0010
1000
0001
0010
0100
,
0010
0000
0100
1000
0100
0000
0010
0001
,
1000
1000
1000
0001
0100
0010
0100
0001
,
1000
0000
0001
0100
0001
0000
1000
0010
,
0100
0010
0100
0001
0010
0010
0010
0100
,
0010
0000
0001
0001
1000
0000
0010
0010
,
1000
0000
0100
0100
0010
0000
0100
0000
,
2002
0000
0000
0000
,
0000
0000
0000
0000
,
0000
0000
0000
0000
,
0000
0000
0000
0000
,
3003
0000
0000
0000
;

//---------------dance-single - ----------------
#NOTES:
     dance-single:
     :
     Easy:
     10:
     0.388471,0.485830,0.020243,0.094467,0.000000,403.000000,400.000000,3.000000,14.000000,0.000000,0.000000,0.388471,0.485830,0.020243,0.094467,0.000000,403.000000,400.000000,3.000000,14.000000,0.000000,0.000000:
0000
0000
0000
0000
,
0000
0000
0000
0000
,
0000
0000
0000
0000
,
0000
0000
0000
0000
,
0000
0000
0000
0000
,
0000
0000
0000
0000
,
0000
0000
0000
0000
,
0000
0000
0000
0000
,
1000
0010
1000
0000
,
0001
1000
0001
0001
,
0001
0100
0001
0000
,
1000
0100
1000
1000
,
0010
0000
0010
0100
,
0001
0000
1000
0100
,
0010
0010
0100
0100
,
2000
0000
0000
0000
,
3000
0000
0000
0000
,
0000
0000
0000
0000
,
0020
0000
1030
0100
,
1000
0001
1000
0000
0001
0000
0010
0000
,
0001
0000
0000
0000
,
0000
0000
0000
0000
,
0001
0000
0001
0000
1000
0001
1000
0000
,
0001
1000
0001
0000
2000
0000
0000
0000
,
3100
0100
0010
0010
,
0100
0010
0010
0000
,
0100
0100
0010
0010
,
0100
0100
0010
0010
,
0001
1000
0001
0100
,
0010
1000
0001
1000
,
0100
0000
0010
0000
0001
1000
0001
1000
,
0001
0000
0000
0000
,
1000
0000
1000
0000
1000
0000
1000
0001
,
1000
0000
0000
0000
,
0001
0010
0001
1000
,
0001
0000
1000
0000
0010
0000
1000
0001
,
1000
0001
1000
0100
,
1000
0001
1000
0000
0010
0000
0010
0000
,
1000
0100
1000
0001
,
1000
0000
0010
0000
1000
0001
1000
0000
,
0001
0010
0001
1000
,
0200
0000
0010
0310
,
0110
0010
0001
0001
,
1000
0000
0010
0000
1000
0000
1000
0001
,
1000
0100
0010
0010
,
0001
0001
2000
3001
,
1001
1000
0010
0010
,
1000
0000
0001
0000
1000
0000
1000
0001
,
1000
0000
0100
0000
0010
0100
0010
0100
,
0000
0000
0000
0000
,
2000
0000
3100
0010
,
0100
0010
0100
0000
0100
0000
0010
0000
,
0002
0000
0103
0010
,
0100
0010
0100
0000
0020
0000
2030
0000
,
3200
0000
1300
0001
,
1000
0001
1000
0000
0010
0000
0100
0000
,
1001
0000
0000
0000
,
0000
0000
0000
0000
,
1000
0010
0100
0000
,
0010
0000
0000
0010
0000
0000
0100
0000
,
0001
0010
0100
0000
,
0010
0000
0000
0001
0000
0000
1000
0000
,
0001
0100
0010
0000
,
0100
0000
0000
0100
0000
0000
0010
0000
,
1000
0100
0010
0000
,
0001
0000
0000
1000
0000
0000
0010
0000
,
1000
0001
1000
0001
,
0100
0000
0000
0100
0000
0000
0001
0000
,
0010
0100
0010
0100
,
1000
0000
0000
1000
0000
0000
1000
0000
,
0001
0010
0001
0010
,
0100
0000
0000
1000
0000
0000
1000
0000
,
0010
1000
0010
1000
,
0001
0000
0000
0001
0000
0000
0001
0000
,
1000
0010
0001
0010
,
1000
0000
0000
0001
0000
0000
1000
0000
,
0001
0100
1000
0100
,
0001
0000
0000
1000
0000
0000
0100
0000
,
0010
0001
0100
0001
,
0010
0000
0000
0100
0000
0000
0100
0000
,
1000
0010
1000
0100
,
0010
0000
0000
0010
0000
0000
0100
0000
,
1000
1000
0001
0001
,
1000
0001
0001
0000
,
0010
0010
0100
0100
,
0010
0010
0100
0100
,
1000
0010
1000
0001
,
0100
0001
1000
0001
,
0010
0000
0001
0000
1000
0001
1000
0001
,
1000
0000
0000
0000
,
0001
0000
0001
0000
0001
0000
0001
1000
,
0001
0000
0000
0000
,
0001
0010
0100
0010
,
0001
0000
1000
0010
0000
1000
0001
0000
,
1000
0010
0100
0010
,
1000
0000
0001
0100
0000
0001
1000
0000
,
0001
0100
1000
0100
,
0001
0000
0010
0100
0000
0010
0001
0000
,
1000
0100
0001
0100
,
1000
0001
1000
0000
0010
0000
0100
0010
,
0100
0010
1000
0010
,
0100
0000
0001
1000
0000
0001
0010
0000
,
0100
0010
0001
0010
,
0100
0000
1000
0001
0000
1000
0010
0000
,
0100
0001
1000
0001
,
0100
0000
0010
1000
0000
0001
1000
0000
,
0100
0010
0000
0000
0010
0001
0000
0000
,
0001
1000
0001
0000
0010
0000
0010
0000
,
0100
0010
0100
0000
0010
0000
0001
0000
,
0010
0000
0001
0000
1000
0000
0001
1000
,
0001
1000
0010
0100
,
0001
0100
0001
0000
1000
0001
1000
0000
,
0010
0000
1000
0000
0100
0000
1000
0010
,
1000
0000
0001
0000
0010
0100
0010
0000
,
0002
1003
2000
3010
,
0020
0000
0130
0000
0100
0001
1000
0001
,
2000
0000
0000
0000
,
0000
0000
0000
0000
,
0000
0000
0000
0000
,
0000
0000
0000
0000
,
3000
0000
0000
0000
;

//---------------dance-single - ----------------
#NOTES:
     dance-single:
     :
     Beginner:
     5:
     0.248699,0.352227,0.094467,0.000000,0.000000,258.000000,244.000000,14.000000,0.000000,0.000000,0.000000,0.248699,0.352227,0.094467,0.000000,0.000000,258.000000,244.000000,14.000000,0.000000,0.000000,0.000000:
// measure 0
0000
0000
0000
0000
,  // measure 1
0000
0000
0000
0000
,  // measure 2
0000
0000
0000
0000
,  // measure 3
0000
0000
0000
0000
,  // measure 4
0000
0000
0000
0000
,  // measure 5
0000
0000
0000
0000
,  // measure 6
0000
0000
0000
0000
,  // measure 7
0000
0000
0000
0000
,  // measure 8
1000
0000
0010
0000
,  // measure 9
1000
0000
0001
0001
,  // measure 10
0001
0000
0010
0000
,  // measure 11
0100
0000
1000
1000
,  // measure 12
1000
0000
0001
0000
,  // measure 13
1000
0000
0010
0000
,  // measure 14
1000
0001
1000
0001
,  // measure 15
1000
0000
0000
0000
,  // measure 16
0000
0000
0000
0000
,  // measure 17
0000
0000
0000
0000
,  // measure 18
0010
0000
0100
0100
,  // measure 19
0010
0010
0100
0000
,  // measure 20
0000
0000
0000
0000
,  // measure 21
0000
0000
0000
0000
,  // measure 22
0001
0001
1000
1000
,  // measure 23
0001
1000
0001
0000
,  // measure 24
1000
1000
0001
0001
,  // measure 25
1000
0001
0001
0000
,  // measure 26
1000
1000
0001
0001
,  // measure 27
1000
1000
0001
0001
,  // measure 28
1000
0000
0010
0000
,  // measure 29
0100
0000
0001
0000
,  // measure 30
0010
0100
0010
0100
,  // measure 31
0010
0000
0000
0000
,  // measure 32
1001
0000
0000
0000
,  // measure 33
0000
0000
0000
0000
,  // measure 34
1000
0000
0010
0000
,  // measure 35
1000
0000
0001
0001
,  // measure 36
0001
0000
1000
0000
,  // measure 37
0100
0100
0100
0000
,  // measure 38
0010
0000
0001
0000
,  // measure 39
1000
0000
0100
0100
,  // measure 40
0100
0000
1000
0000
,  // measure 41
0010
0000
0110
0000
,  // measure 42
1001
0000
0001
1000
,  // measure 43
0001
0000
1000
1000
,  // measure 44
1000
0000
0001
1000
,  // measure 45
0001
0001
0001
0000
,  // measure 46
0110
0000
0100
0010
,  // measure 47
0100
0000
0010
0010
,  // measure 48
0010
0000
0100
0010
,  // measure 49
0100
0000
0000
0000
,  // measure 50
1001
0000
0001
0000
,  // measure 51
1000
1000
1000
0000
,  // measure 52
1001
0000
1000
0000
,  // measure 53
0010
0010
0010
0000
,  // measure 54
0110
0000
0100
0000
,  // measure 55
0001
0001
0001
0000
,  // measure 56
1001
0000
0000
0000
,  // measure 57
0000
0000
0000
0000
,  // measure 58
1000
0000
0000
0000
,  // measure 59
0001
0000
0000
0000
,  // measure 60
0010
0000
0000
0000
,  // measure 61
0100
0000
0000
0000
,  // measure 62
1000
0000
0000
0000
,  // measure 63
0010
0000
0000
0000
,  // measure 64
1000
0000
0000
0000
,  // measure 65
0001
0000
0000
0000
,  // measure 66
0100
0000
0100
0000
,  // measure 67
0100
0000
0000
0000
,  // measure 68
0001
0000
0001
0000
,  // measure 69
0001
0000
0000
0000
,  // measure 70
1000
0000
1000
0000
,  // measure 71
1000
0000
0000
0000
,  // measure 72
0100
0000
0100
0000
,  // measure 73
0100
0000
0000
0000
,  // measure 74
0010
0010
0010
0000
,  // measure 75
0100
0000
1000
0000
,  // measure 76
0001
0001
0001
0000
,  // measure 77
1000
0000
0010
0000
,  // measure 78
0100
0100
0100
0000
,  // measure 79
0001
0000
1000
0000
,  // measure 80
0100
0100
0100
0000
,  // measure 81
0010
0000
0001
0000
,  // measure 82
1000
1000
0001
0001
,  // measure 83
1000
0001
0001
0000
,  // measure 84
1000
1000
0001
0001
,  // measure 85
1000
1000
0001
0001
,  // measure 86
0010
0000
0100
0000
,  // measure 87
1000
0000
0010
0000
,  // measure 88
1000
0001
1000
0001
,  // measure 89
1000
0000
0000
0000
,  // measure 90
1001
0000
0000
0000
,  // measure 91
0000
0000
0000
0000
,  // measure 92
0001
0001
0001
0000
,  // measure 93
0010
0000
0100
0000
,  // measure 94
0010
0010
0010
0000
,  // measure 95
0100
0000
1000
1000
,  // measure 96
1000
0001
1000
0000
,  // measure 97
0010
0000
0010
0000
,  // measure 98
0100
0010
0100
0000
,  // measure 99
0001
0000
1000
1000
,  // measure 100
1000
0001
1000
0000
,  // measure 101
0001
0000
0010
0010
,  // measure 102
0010
0000
0001
0000
,  // measure 103
1000
0000
0010
0010
,  // measure 104
0010
0100
0010
0000
,  // measure 105
0100
0000
0001
0000
,  // measure 106
1001
0000
1001
0000
,  // measure 107
1001
1001
0000
0000
,  // measure 108
0001
1000
0001
0000
,  // measure 109
0010
0000
0010
0000
,  // measure 110
0100
0010
0100
0000
,  // measure 111
1000
0000
1000
0000
,  // measure 112
0010
0100
0010
0000
,  // measure 113
1000
0000
1000
0000
,  // measure 114
1000
1000
0001
0001
,  // measure 115
1000
0001
0001
0000
,  // measure 116
1001
0000
0000
0000
;
