#VERSION:0.83;
#TITLE:UZA;
#SUBTITLE:;
#ARTIST:AKB48;
#TITLETRANSLIT:;
#SUBTITLETRANSLIT:;
#ARTISTTRANSLIT:;
#GENRE:J-ELECTROPOP;
#ORIGIN:;
#CREDIT:;
#BANNER:UZA.png;
#BACKGROUND:UZA-bg.png;
#PREVIEWVID:;
#JACKET:UZA-jacket.png;
#CDIMAGE:;
#DISCIMAGE:;
#LYRICSPATH:;
#CDTITLE:cdtitle.png;
#MUSIC:UZA.ogg;
#OFFSET:-0.000000;
#SAMPLESTART:60.273998;
#SAMPLELENGTH:15.000000;
#SELECTABLE:YES;
#BPMS:0.000=131.400;
#STOPS:128.000=1.370;
#DELAYS:;
#WARPS:;
#TIMESIGNATURES:0.000=4=4;
#TICKCOUNTS:0.000=4;
#COMBOS:0.000=1;
#SPEEDS:0.000=1.000=0.000=0;
#SCROLLS:0.000=1.000;
#FAKES:;
#LABELS:0.000=Song Start;
#BGCHANGES:1.000=UZA.avi=1.000=0=0=0=StretchNoLoop==CrossFade_Fastest==,
99999=-nosongbg-=1.000=0=0=0 // don't automatically add -songbackground-
;
#KEYSOUNDS:;
#ATTACKS:
;

//---------------dance-single - Daff_4K----------------
#NOTEDATA:;
#CHARTNAME:Daff_4K;
#STEPSTYPE:dance-single;
#DESCRIPTION:Daff_4K;
#CHARTSTYLE:;
#DIFFICULTY:Beginner;
#METER:1;
#RADARVALUES:0.085636,0.128383,0.055949,0.000000,0.000000,75.000000,68.000000,7.000000,0.000000,0.000000,0.000000,0.000000,0.000000,0.000000,0.085636,0.128383,0.055949,0.000000,0.000000,75.000000,68.000000,7.000000,0.000000,0.000000,0.000000,0.000000,0.000000,0.000000;
#CREDIT:Daff_4K;
#NOTES:
0000
0000
0000
0000
,
0000
0000
0000
0000
,
0000
0000
0000
0000
,
0000
0000
0000
0000
,
0000
0000
0000
0000
,
1000
0000
0000
0000
,
1000
0000
0000
0000
,
0001
0000
0000
0000
,
0001
0000
0000
0000
,
1001
0000
0000
0000
,
1000
0000
1000
0000
,
1000
0000
0000
0000
,
0000
0000
0000
0000
,
0010
0000
0000
0000
,
0100
0000
0100
0000
,
0100
0000
0000
0000
,
0000
0000
0000
0000
,
1001
0000
0000
0000
,
0001
0000
0001
0000
,
0001
0000
0000
0000
,
0000
0000
0000
0000
,
0010
0000
0000
0000
,
0100
0000
0100
0000
,
0100
0000
0000
0000
,
0000
0000
0000
0000
,
1000
0000
1000
0000
,
1000
0000
0000
0000
,
0001
0000
0001
0000
,
0001
0000
0000
0000
,
0100
0000
0000
0000
,
0010
0000
0000
0000
,
1000
0000
0000
0000
,
1001
0000
0000
0000
,
0000
0001
0000
0001
,
0000
0001
0000
0000
,
0000
1000
0000
1000
,
0000
1000
0000
0000
,
0000
0010
0000
0000
,
0000
0100
0000
0000
,
0000
0000
0000
0000
,
0000
1001
0000
0000
,
0000
1000
0000
1000
,
0000
1000
0000
0000
,
0000
0001
0000
0001
,
0000
0001
0000
0000
,
0000
0010
0000
0000
,
0000
0100
0000
0000
,
0000
0000
0000
0000
,
0000
1000
0000
1000
,
0000
1000
0000
0000
,
0000
0010
0000
0010
,
0000
0010
0000
0000
,
0000
0100
0000
0100
,
0000
0100
0000
0000
,
0000
1001
0000
0000
,
0000
0000
0000
0000
,
0000
0001
0000
0001
,
0000
0001
0000
0000
,
0000
0010
0000
0010
,
0000
0010
0000
0000
,
0000
0100
0000
0100
,
0000
0100
0000
0000
,
0000
1001
0000
0000
,
0000
0000
0000
0000
,
0000
1001
0000
0000
;

//---------------dance-single - Daff_4K----------------
#NOTEDATA:;
#CHARTNAME:Daff_4K;
#STEPSTYPE:dance-single;
#DESCRIPTION:Daff_4K;
#CHARTSTYLE:;
#DIFFICULTY:Easy;
#METER:4;
#RADARVALUES:0.204385,0.234686,0.039964,0.135876,0.000000,179.000000,174.000000,5.000000,17.000000,0.000000,0.000000,0.000000,0.000000,0.000000,0.204385,0.234686,0.039964,0.135876,0.000000,179.000000,174.000000,5.000000,17.000000,0.000000,0.000000,0.000000,0.000000,0.000000;
#CREDIT:Daff_4K;
#NOTES:
0000
0000
0000
0000
,
0000
0000
0000
0000
,
0000
0000
0000
0000
,
0000
0000
0000
0000
,
0000
0000
0000
0000
,
0001
0000
1000
0000
,
0001
0001
0100
0010
,
1000
0000
0001
0000
,
2002
0000
3003
0000
,
1000
0000
0100
0000
,
0001
0100
1000
0000
,
0001
0000
0100
0010
,
1000
0000
0100
0010
,
0001
0000
0100
0000
,
1000
0100
0001
0000
,
1000
0000
0100
0010
,
0001
0000
0100
0010
,
1000
0000
0001
0000
,
1000
0010
0001
0010
,
1000
0000
0001
0010
,
0100
0000
0100
1000
,
0001
0000
1000
0000
,
0001
0010
1000
0010
,
0001
0000
0100
0010
,
1000
0000
0001
0010
,
0100
2000
0000
0001
,
0000
3001
1000
0010
,
0100
0002
0000
1000
,
0000
1003
0000
0000
,
0010
0010
0100
0100
,
0001
0001
1000
1000
,
0200
0000
0310
0000
,
1001
0001
0000
0100
,
0000
1000
0100
0001
,
0100
1000
0000
0100
,
0000
0001
0010
0100
,
1000
0010
0000
0100
,
0000
0001
1000
0001
,
0010
0100
0000
1000
,
0000
0001
0000
0100
,
0010
1000
0000
0100
,
0000
0001
0100
1000
,
0100
0001
0000
0100
,
0000
1000
0010
0100
,
0001
0010
0000
0100
,
0000
1000
0001
1000
,
0010
0100
0000
0001
,
0000
0010
0010
0100
,
0100
1000
0010
0001
,
0010
2000
0000
3001
,
0001
1000
0100
0001
,
0100
2000
0000
3010
,
0010
1000
0100
0010
,
0001
0200
0000
0310
,
0000
2002
0000
3003
,
0000
0010
0010
0100
,
0100
0001
0010
1000
,
0010
0002
0000
1003
,
1000
0001
0100
1000
,
0100
0002
0000
0013
,
0010
0001
0100
0010
,
1000
0200
0000
0310
,
0000
2002
0000
3003
,
0000
0100
0010
0100
,
0010
2002
0000
0000
,
0000
3003
0000
0000
;

//---------------dance-single - Daff_4K----------------
#NOTEDATA:;
#CHARTNAME:Daff_4K;
#STEPSTYPE:dance-single;
#DESCRIPTION:Daff_4K;
#CHARTSTYLE:;
#DIFFICULTY:Medium;
#METER:7;
#RADARVALUES:0.311716,0.312915,0.047956,0.431606,0.000000,273.000000,267.000000,6.000000,54.000000,0.000000,0.000000,0.000000,0.000000,0.000000,0.311716,0.312915,0.047956,0.431606,0.000000,273.000000,267.000000,6.000000,54.000000,0.000000,0.000000,0.000000,0.000000,0.000000;
#CREDIT:Daff_4K;
#NOTES:
0000
0000
0000
0000
,
0000
0000
0000
0000
,
0000
0000
0000
0000
,
0000
0000
0000
0000
,
0000
0000
0000
0000
,
1000
0010
1000
0000
0002
0000
1003
0100
,
1000
0020
0130
1001
,
0001
0010
0001
0000
2000
0000
3001
0000
,
0220
0000
0330
1001
,
1000
0100
0001
0100
,
1000
0010
0001
0010
,
2000
0000
3001
0000
1000
0100
1000
0000
,
0002
0000
0103
0000
0001
0010
0001
0000
,
0001
0100
1000
0100
,
0001
0010
1000
0010
,
0002
0000
1003
0000
0001
0100
0001
0000
,
2000
0000
3100
0000
1000
0010
1000
0000
,
1000
0100
0001
0010
,
1000
0100
0001
0100
,
2000
0000
3010
0000
0100
0001
0100
0000
,
0002
0000
0013
0000
0100
1000
0100
1000
,
0001
0100
1000
0010
,
0001
0100
1000
0100
,
0001
0010
0100
1000
,
2002
0000
3003
0001
,
1000
0020
0100
0100
,
1000
1030
0001
1000
,
0001
0020
0100
0100
,
0001
0031
1000
0001
,
1000
0100
1000
0000
0001
0100
0001
0000
,
0010
0100
0010
0000
0100
0000
1000
0000
,
0100
0001
0100
1000
,
1001
0000
0001
0100
0001
0000
1000
0100
,
1000
0020
0130
0002
,
1003
0000
0001
0010
0001
0000
1000
0010
,
1000
0200
0310
0002
,
1003
0000
0001
0100
0001
0000
1000
0100
,
1000
0002
0103
2000
,
3100
0001
0010
1000
,
0010
0001
0100
0010
,
1000
0001
1000
0100
1000
0000
0001
0100
,
0001
0020
0130
2000
,
3001
0000
1000
0010
1000
0000
0001
0010
,
0001
0200
0310
2000
,
3001
0000
1000
0100
1000
0000
0001
0100
,
0001
2000
3100
0002
,
0103
1000
0010
0001
,
0010
2000
0001
0001
,
3001
0000
1000
0100
0000
1000
0001
0000
,
1000
0010
0000
0000
2000
0000
3002
0000
,
0023
0000
0130
1000
0000
0100
0010
0000
,
0100
1000
0000
0000
0200
0000
0320
0000
,
0032
0000
1003
0010
0000
1000
0001
0000
,
1000
0100
0000
0000
2000
0000
3020
0000
,
0230
0302
2000
0000
,
3003
0000
0001
1000
0001
1000
0020
0000
,
0230
0000
0301
0100
0000
0001
1000
0000
,
0001
0010
0000
0000
0002
0000
2003
0000
,
3020
0000
0130
0001
0000
0100
0010
0000
,
0100
0001
0000
0000
0200
0000
0320
0000
,
2030
0000
3001
0010
0000
0001
1000
0000
,
0001
0100
0000
0000
0002
0000
0023
0000
,
0230
2300
0002
0000
,
3003
0000
1000
0001
1000
0001
0010
0100
,
1000
2002
0000
0000
,
0000
3003
0000
0000
;

//---------------dance-single - Daff_4K----------------
#NOTEDATA:;
#CHARTNAME:Daff_4K;
#STEPSTYPE:dance-single;
#DESCRIPTION:Daff_4K;
#CHARTSTYLE:;
#DIFFICULTY:Hard;
#METER:12;
#RADARVALUES:0.479563,0.495448,0.063942,0.159854,0.267756,420.000000,412.000000,8.000000,20.000000,0.000000,0.000000,0.000000,0.000000,0.000000,0.479563,0.495448,0.063942,0.159854,0.267756,420.000000,412.000000,8.000000,20.000000,0.000000,0.000000,0.000000,0.000000,0.000000;
#CREDIT:Daff_4K;
#NOTES:
0000
0000
0000
0000
,
0000
0000
0000
0000
,
0000
0000
0000
0000
,
0000
0000
0000
0000
,
0000
0000
0000
0000
,
1000
0010
0100
0001
0020
0000
0031
0100
,
0010
1000
0200
0000
0310
0000
1001
0000
,
0001
0010
0100
1000
0020
0000
1030
0001
,
0020
0100
0130
1001
,
1000
0000
0010
0000
0001
0000
0000
0000
0010
0000
1000
0000
0100
0000
0000
0100
,
0010
0000
0000
0010
0001
0000
0000
0001
1000
0000
0000
1000
0010
0000
0100
0000
,
0001
0000
0000
0001
0010
0000
0100
0000
1000
0000
0001
0000
0100
0000
0000
0000
,
0010
0000
0000
0010
1000
0000
0001
0000
0010
0000
0100
0000
1000
0000
0000
0000
,
0001
0000
0010
0000
1000
0000
0000
0000
0010
0000
0001
0000
0100
0000
0000
0100
,
0010
0000
0000
0010
1000
0000
0000
1000
0001
0000
0000
0001
0010
0000
0100
0000
,
1000
0000
0000
1000
0010
0000
0100
0000
0001
0000
1000
0000
0100
0000
0000
0000
,
0010
0000
0000
0010
0001
0000
1000
0000
0010
0000
0100
0000
0001
1000
0001
0000
,
1000
0000
0100
0000
0001
0000
0000
0000
1000
0000
0010
0000
0001
0000
0000
0001
,
0100
0000
0000
0100
0010
0000
0000
0010
1000
0000
0000
1000
0001
0000
0010
0000
,
0100
0000
0000
0100
1000
0000
0001
0000
0100
0000
0010
0000
1000
0000
0000
0000
,
0001
0000
0000
0001
0010
0000
0100
0000
1000
0000
0010
0000
0100
0000
0000
0000
,
0001
0100
1000
0000
0001
0010
1000
0000
,
0100
0000
0000
0100
0010
0000
0001
0000
1000
0000
0010
0000
0100
0000
0001
0000
,
0020
1000
0100
0001
,
0230
0000
2300
0000
3001
1000
0100
0001
,
0100
1000
0002
0000
0010
0000
1000
0000
,
0100
0000
0010
0000
1003
0001
0100
1000
,
0100
0001
2000
0000
0010
0000
0001
0000
,
0100
0000
0010
0000
3001
0000
1000
0010
,
0001
0010
1000
0001
0010
0100
1000
1000
,
0010
0100
0001
0001
1000
0100
0001
0200
,
1000
0010
0001
0310
,
1001
0000
0001
0100
0010
0000
1000
0001
,
0010
0000
0000
0010
0100
0000
0000
0100
1000
0000
0000
1000
0001
0000
0000
0001
,
0100
0010
1000
0100
0001
0000
1000
0010
,
0001
0000
0000
0001
1000
0000
0000
1000
0010
0000
0000
0010
0100
0000
0000
0100
,
0001
0010
0100
1000
0010
0000
0100
0001
,
1000
0000
0000
1000
0100
0000
0000
0100
0001
0000
0000
0001
0010
0000
0000
0010
,
1000
0001
0020
0000
1000
0000
0230
0000
,
0001
0000
2300
0000
0001
0000
3010
0100
,
0001
1000
0001
0000
1000
0000
0100
0000
0010
0000
0000
0000
0001
0000
1000
0000
,
0010
0000
0000
0010
0100
0000
0000
0100
0001
0000
0000
0001
1000
0000
0000
1000
,
0100
0010
0001
0100
1000
0000
0001
0010
,
1000
0000
0000
1000
0001
0000
0000
0001
0010
0000
0000
0010
0100
0000
0000
0100
,
1000
0010
0100
0001
0010
0000
0100
1000
,
0001
0000
0000
0001
0100
0000
0000
0100
1000
0000
0000
1000
0010
0000
0000
0010
,
0001
1000
0020
0000
0001
0000
0230
0000
,
1000
0000
0302
0000
2003
0000
3100
0010
,
0001
1000
0001
1000
0001
0000
0100
0000
1000
0000
0100
0000
0001
0000
0100
0000
,
0010
0000
1000
0000
0100
0000
0000
0100
0010
0000
0000
0010
0001
0000
0000
0001
,
1000
0000
0000
1000
0001
0000
0100
0000
1000
0000
0001
0000
0010
0000
1000
0000
,
0100
0000
0010
0000
0001
0000
0000
0001
1000
0000
0000
1000
0010
0000
0000
0010
,
0100
0000
0000
0100
0001
0000
0010
0000
1000
0000
0100
0000
1000
0000
0010
0000
,
0001
0000
0100
0000
0010
0000
0000
0010
1000
0000
0000
1000
0001
0000
0010
0000
,
0100
1000
0020
0000
0001
0000
0100
0000
,
1000
0000
0130
0100
0010
0010
1000
0001
,
1000
0001
1000
0100
0001
0100
1000
0100
,
0010
0000
0001
0000
0100
0000
0000
0100
0010
0000
0000
0010
1000
0000
0000
1000
,
0001
0000
0000
0001
1000
0000
0100
0000
0001
0000
1000
0000
0010
0000
0001
0000
,
0100
0000
0010
0000
1000
0000
0000
1000
0001
0000
0000
0001
0010
0000
0000
0010
,
0100
0000
0000
0100
1000
0000
0010
0000
0001
0000
0100
0000
0001
0000
0010
0000
,
1000
0000
0100
0000
0010
0000
0000
0010
0001
0000
0000
0001
1000
0000
0010
0000
,
0100
0001
0011
0000
1100
0000
1010
0000
,
0101
0000
0001
0010
0100
1000
0010
0100
,
0001
1000
2002
0000
0000
0000
0000
0000
,
0000
3003
0000
0000
;

//---------------dance-single - Daff_4K----------------
#NOTEDATA:;
#CHARTNAME:Daff_4K;
#STEPSTYPE:dance-single;
#DESCRIPTION:Daff_4K;
#CHARTSTYLE:;
#DIFFICULTY:Challenge;
#METER:13;
#RADARVALUES:0.548072,0.651905,0.287738,0.519526,0.255767,480.000000,444.000000,36.000000,65.000000,0.000000,0.000000,0.000000,0.000000,0.000000,0.548072,0.651905,0.287738,0.519526,0.255767,480.000000,444.000000,36.000000,65.000000,0.000000,0.000000,0.000000,0.000000,0.000000;
#CREDIT:Daff_4K;
#NOTES:
// measure 0
0000
0000
0000
0000
,  // measure 1
0000
0000
0000
0000
,  // measure 2
0000
0000
0000
0000
,  // measure 3
0000
0000
0000
0000
,  // measure 4
0000
0000
0000
0000
,  // measure 5
1000
0000
0100
0000
0010
0000
0001
0000
0100
0000
0000
0100
1000
0000
0010
0000
,  // measure 6
0100
0001
1000
0000
0110
0000
1001
0000
,  // measure 7
0001
0000
0100
0000
0010
0000
1000
0000
0100
0000
0000
0100
0001
0000
0010
0000
,  // measure 8
0100
1001
0110
1001
,  // measure 9
1000
0010
0001
1000
0001
0010
1000
0100
,  // measure 10
0010
0000
0000
0010
0001
0000
0000
0001
1000
0000
0010
0000
0100
0000
0001
0000
,  // measure 11
2000
0000
0000
3100
0010
0000
0001
0000
1000
0020
0100
0000
0130
0000
0000
0000
,  // measure 12
0020
0000
0000
1030
0001
0000
0010
0000
0100
2000
0001
0000
3001
0000
0000
0000
,  // measure 13
0001
0010
1000
0001
1000
0010
0001
0100
,  // measure 14
0010
0000
0000
0010
1000
0000
0000
1000
0001
0000
0010
0000
0100
0000
1000
0000
,  // measure 15
0002
0000
0000
0103
0010
0000
1000
0000
0001
0020
0100
0000
0130
0000
0000
0000
,  // measure 16
0020
0000
0000
0031
0100
0000
0010
0000
1000
0000
1001
0000
0001
1000
0001
0000
,  // measure 17
1000
0010
0001
1000
0100
0010
1000
0100
,  // measure 18
0001
0000
0000
0001
1000
0000
0000
1000
0010
0000
0100
0000
1000
0000
0001
0000
,  // measure 19
0200
0000
0000
0310
1000
0000
0001
0000
0010
0200
1000
0000
1300
0000
0000
0000
,  // measure 20
0002
0000
0000
0103
0010
0000
1000
0000
0100
0020
0001
0000
0031
0000
0000
0000
,  // measure 21
0001
0010
1000
0001
0100
0010
0001
0100
,  // measure 22
1000
0100
0001
0010
0100
1000
0001
0100
,  // measure 23
0020
0000
1000
0000
0100
0000
0031
0010
,  // measure 24
2000
0000
0000
0000
3002
0000
0000
0000
0013
0000
0100
0010
0100
0000
1000
0000
,  // measure 25
0001
0200
1000
0000
0010
0000
0001
0000
,  // measure 26
0010
0000
0000
0000
1000
0000
0000
0000
0310
0000
0100
0010
0100
0000
0001
0000
,  // measure 27
1000
0200
0001
0000
0010
0000
1000
0000
,  // measure 28
0010
0000
0000
0000
0001
0000
0000
0000
0310
0000
0100
0000
1000
0000
0010
0100
,  // measure 29
0010
0000
1000
0000
0001
0000
0010
0100
0010
0000
0001
0000
1000
0000
0010
0000
,  // measure 30
0100
0001
0100
0000
0001
0000
0010
0000
0100
1000
0100
0000
1000
0000
0001
0000
,  // measure 31
0200
0000
1000
0000
0010
0000
0301
1000
,  // measure 32
1001
0000
0000
0000
0001
0000
0100
0000
1000
0000
0100
0000
0001
0000
0010
0100
,  // measure 33
1000
0000
0001
0000
0200
0000
0000
0310
2000
0000
0000
3001
0020
0000
0000
0130
,  // measure 34
1000
0000
1002
0000
0000
0000
0103
0000
0010
0000
0001
0000
1000
0000
0100
0010
,  // measure 35
0100
0000
0001
0000
2000
0000
0000
3100
0020
0000
0000
0031
2000
0000
0000
3010
,  // measure 36
0100
0000
0102
0000
0000
0000
1003
0000
0100
0000
0001
0000
0100
0000
1000
0001
,  // measure 37
0100
0000
0010
0000
2000
0000
0000
3001
0020
0000
0000
0130
2000
0000
0000
3001
,  // measure 38
0100
0010
2000
0100
3002
0100
2003
0010
,  // measure 39
3002
0010
2003
0100
3002
0010
0103
0110
,  // measure 40
0010
1000
0001
0000
1000
0000
0100
0000
0001
0000
0100
0000
1000
0000
0010
0100
,  // measure 41
0001
0000
1000
0000
0200
0000
0000
0310
0002
0000
0000
1003
0020
0000
0000
0130
,  // measure 42
0001
0000
2001
0000
0000
0000
3100
0000
0010
0000
1000
0000
0001
0000
0100
0010
,  // measure 43
0100
0000
1000
0000
0002
0000
0000
0103
0020
0000
0000
1030
0002
0000
0000
0013
,  // measure 44
0100
0000
2100
0000
0000
0000
3001
0000
0100
0000
1000
0000
0100
0000
0001
1000
,  // measure 45
0100
0000
0010
0000
0002
0000
0000
1003
0020
0000
0000
0130
0002
0000
0000
1003
,  // measure 46
0100
0010
0002
0100
2003
0100
3002
0010
,  // measure 47
2003
0010
3001
0100
1000
0100
0001
1000
,  // measure 48
0100
0010
0100
0010
0001
0000
0100
0000
0010
0000
0001
0000
0100
0000
0010
0000
,  // measure 49
0001
0100
0010
0000
1001
0000
0110
0000
,  // measure 50
1001
0000
0000
0001
1000
0000
0100
0000
0001
0000
1000
0000
0100
0000
0001
0000
,  // measure 51
1000
0100
0001
0000
0110
0000
1001
0000
,  // measure 52
0110
0000
0000
0001
1000
0000
0001
0000
0010
0000
1000
0000
0001
0000
0010
0000
,  // measure 53
1000
0001
0010
0000
1100
0000
1001
0010
,  // measure 54
0100
0010
1002
0000
0010
0000
2003
0000
,  // measure 55
0100
0000
3010
1001
0100
1001
2000
3002
,  // measure 56
2003
3002
1003
0100
0010
1000
0100
0010
,  // measure 57
1000
0100
0010
0000
1001
0000
0110
0000
,  // measure 58
1001
0000
0000
1000
0001
0000
0100
0000
1000
0000
0001
0000
0100
0000
1000
0000
,  // measure 59
0001
0100
1000
0000
0110
0000
1001
0000
,  // measure 60
0110
0000
0000
1000
0001
0000
1000
0000
0010
0000
0001
0000
1000
0000
0010
0000
,  // measure 61
0001
1000
0010
0000
0101
0000
1001
0010
,  // measure 62
0100
0010
2002
3003
2200
3300
0202
0303
,  // measure 63
2002
0000
3003
0000
1000
0100
1000
0100
0010
0001
0010
0001
0100
0010
1000
0100
,  // measure 64
0010
0001
1000
0000
2002
0000
0000
0000
0000
0000
0000
0000
0000
0000
0000
0000
,  // measure 65
0000
3003
0000
0000
;
