#VERSION:0.83;
#TITLE:UCHU ;
#SUBTITLE:;
#ARTIST:Ken Plus Ichiro ;
#TITLETRANSLIT:;
#SUBTITLETRANSLIT:;
#ARTISTTRANSLIT:;
#GENRE:;
#CREDIT:;
#MUSIC:UCHU.ogg;
#BANNER:UCHU.png;
#BACKGROUND:UCHU bg.png;
#PREVIEWVID:;
#JACKET:UCHU jacket.png;
#CDTITLE:;
#SAMPLESTART:57.392;
#SAMPLELENGTH:14.348;
#SELECTABLE:YES;
#OFFSET:-0.001;
#BPMS:0.000=138.000
,159.000=69.000
,160.000=138.000
,190.000=69.000
,191.000=138.000
;
#STOPS:128.000=1.304;
#DISPLAYBPM:138.000;
#BGCHANGES:;
#FGCHANGES:;

//--------------- dance-single - ----------------
#NOTEDATA:;
#STEPSTYPE:dance-single;
#DESCRIPTION:;
#DIFFICULTY:Hard;
#METER:13;
#RADARVALUES:0,0,0,0,0;
#NOTES:
0000
0000
0000
0000
,
0000
0000
0000
0000
,
0000
0000
0000
0000
,
0000
0000
0000
0000
,
0000
0000
0000
0000
,
1000
0000
0000
0001
0000
0000
0100
0000
0010
1000
0000
0010
0000
0000
1000
0000
,
0100
0000
0000
0010
0000
0000
0100
0000
1000
0100
0000
1000
0000
0000
0100
0000
,
0010
0000
0000
0001
0000
0000
0100
0000
0001
0100
0000
0010
0000
0000
1000
0000
,
0010
0000
0000
0100
0000
0000
0001
0000
0010
0001
0000
0010
0000
0000
0100
0000
,
0010
0000
0000
0110
0000
0000
0001
0000
1000
0100
0000
0100
1000
0000
0010
0000
,
0100
0000
0000
0101
0000
0000
0001
0000
0100
0010
0000
0010
0100
0000
0001
0000
,
1000
0000
0000
1001
0000
0000
0001
0000
0010
0100
0000
0100
0010
0000
0001
0000
,
0010
0000
0000
0011
0000
0000
0001
0000
1000
0010
0000
0010
1000
0000
0100
0000
,
1000
0000
0000
1010
0000
0000
0010
0000
1000
0001
0000
0001
1000
0000
0100
0000
,
1000
0000
0000
1100
0000
0000
0010
0000
0100
0001
0000
0001
0100
0000
0010
0000
,
0100
0000
0000
0110
0000
0000
0001
0000
0100
0010
0000
0010
1000
0000
0100
0000
,
1100
0000
0000
0110
0000
0000
1001
0000
1000
0010
0100
0000
0001
1000
0001
1000
,
0002
0000
0000
0200
0000
0000
0303
0000
,
0020
0000
0000
0200
0000
0000
0330
0000
,
0002
0000
0000
2000
0000
0000
3003
0000
,
0002
0000
0000
0000
1003
0100
0001
0010
,
2000
0000
0000
0200
0000
0000
3300
0000
,
0020
0000
0000
0002
0000
0000
0033
0000
,
2000
0000
0000
0002
0000
0000
3003
0000
,
2000
0000
0000
3001
0100
1000
0010
0001
,
1000
0000
0010
0000
1000
0000
0000
0010
0000
0010
0000
0100
0000
0100
0000
0000
,
0010
0000
1000
0000
0100
0000
0000
0010
0000
0010
0000
0100
0000
0100
0000
0000
,
1000
0000
0001
0000
0010
0000
0000
0001
0000
0001
0000
0100
0000
0100
0000
0000
,
0001
0000
0100
0000
0010
0000
0000
0100
0000
0100
0000
0010
0000
0010
0000
0000
,
1000
0010
1000
0001
0010
0001
1000
0100
,
1000
0001
0100
0001
1000
0100
0001
0100
,
1000
0100
1000
0000
0001
0100
0001
0000
1000
0010
1000
0000
0001
0010
0001
1000
,
0002
0000
0003
0000
1000
0000
0010
0000
1000
0000
0000
0100
0000
0100
0000
0001
,
0000
1000
0001
0000
1000
0000
0100
0000
1000
0000
0000
0010
0000
0010
0000
0001
,
0000
0100
0001
0000
0010
0000
0100
0000
1000
0000
0000
0100
0000
0100
0000
0001
,
0000
0100
0010
0000
0100
0000
0001
0000
1000
0000
0000
0010
0000
0010
0000
0001
,
0000
1000
0100
0000
0010
0000
0100
0000
1000
0000
0000
0100
0000
0100
0000
0001
,
0000
1000
0100
0000
0001
0000
0100
0000
1000
0000
0000
0010
0000
0010
0000
0001
,
0000
1000
0010
0000
0001
0000
0010
0000
1000
0000
0000
0100
0000
0100
0000
0001
,
0000
0000
1000
0000
0100
0000
0000
0000
1000
0000
0000
0000
0010
0000
0000
0000
0100
0000
0000
0000
0001
0000
0000
0000
1000
0000
0000
1001
0000
0000
0110
0000
,
0001
0000
0010
0000
0001
0000
0000
0100
0000
0100
0000
1000
0000
0100
1000
0000
,
0010
0000
0100
0000
0001
0000
0000
0010
0000
0010
0000
1000
0000
0010
1000
0000
,
0100
0000
0010
0000
0001
0000
0000
0100
0000
0100
0000
1000
0000
0100
1000
0000
,
0001
0000
0010
0000
0001
0000
0000
0010
0000
0010
0000
1000
0000
0010
1000
0000
,
0010
0000
0100
0000
0001
0000
0000
0100
0000
0100
0000
1000
0000
0100
1000
0000
,
0001
0000
0100
0000
0001
0000
0000
0010
0000
0010
0000
1000
0000
0010
1000
0000
,
0100
0000
0010
0000
0001
0000
0000
0100
0000
0100
0000
1000
0000
0100
0010
0000
,
0001
0000
0100
0000
0010
0000
1000
0000
0001
0010
0100
1000
0001
0000
0100
0000
,
0001
0000
0000
0010
0000
0010
0000
1000
0000
0001
1000
0000
0001
0000
0010
0000
,
0001
0000
0000
0100
0000
0100
0000
1000
0000
0010
1000
0000
0100
0000
0010
0000
,
0001
0000
0000
0010
0000
0010
0000
1000
0000
0010
0100
0000
0010
0000
1000
0000
,
0001
0000
0000
0100
0000
0100
0000
1000
0000
0001
0010
0000
0100
0000
0010
0000
,
0001
0000
0000
0010
0000
0010
0000
1000
0000
0001
0010
0000
1000
0000
0010
0000
,
0001
0000
0000
0100
0000
0100
0000
1000
0000
0001
0100
0000
1000
0000
0100
0000
,
0001
0000
0000
0010
0000
0010
0000
1000
0000
0001
0010
0000
2002
0000
0000
0000
,
3003
0001
1000
0100
0001
0010
0220
0000
,
0000
0000
0000
0000
,
0330
0000
0000
0000
;
