#TITLE:TwisteD! XD;
#SUBTITLE:;
#ARTIST:t+pazolite;
#TITLETRANSLIT:;
#SUBTITLETRANSLIT:;
#ARTISTTRANSLIT:;
#GENRE:;
#CREDIT:;
#MUSIC:TwisteD! XD.ogg;
#BANNER:TwisteD! XD.png;
#BACKGROUND:TwisteD! XD-bg.png;
#CDTITLE:;
#SAMPLESTART:93.301;
#SAMPLELENGTH:15.000;
#SELECTABLE:YES;
#OFFSET:1.199;
#BPMS:0.000=200.000;
#STOPS:;
#BGCHANGES:;
#FGCHANGES:;

//--------------- dance-single - chrononical ----------------
#NOTES:
     dance-single:
     chrononical:
     Beginner:
     3:
     0,0,0,0,0:
0000
0000
0000
0000
,
0000
0000
0000
0000
,
0000
0000
0000
0000
,
0000
0000
0000
0000
,
0000
0000
0000
0000
,
0000
0000
0000
0000
,
0000
0000
0000
0000
,
0000
0000
0000
0000
,
0000
0000
0000
0000
,
0000
0000
0000
0000
,
0000
0000
0000
0000
,
1001
0000
0000
0000
,
0110
0000
0000
0000
,
1001
0000
0000
0000
,
1000
0000
0100
0000
,
1001
0000
0000
0000
,
0110
0000
0000
0000
,
1001
0000
1000
0000
,
0200
0000
0000
2300
,
3001
0000
0100
0000
,
1000
0000
0100
0100
,
0001
0000
0010
0000
,
0100
0000
0100
0100
,
1000
0000
0010
0000
,
0001
0000
0010
0010
,
1000
0000
0100
0000
,
0010
0000
0010
0010
,
0001
0100
0010
0000
,
0010
0100
0001
0000
,
0001
0010
0100
0000
,
0100
0000
0100
0100
,
1000
0010
0100
0000
,
0100
0010
1000
0000
,
1000
0100
0010
0000
,
0010
0000
0010
0010
,
0001
0000
1000
0000
,
0001
0000
1000
0000
,
0100
0010
0001
1000
,
0002
0000
0000
0203
,
0301
0000
1000
1000
,
1000
0000
0100
0000
,
0010
0000
0001
0001
,
0001
0000
0100
0000
,
0010
0000
1000
1000
,
1000
0000
0100
0000
,
0010
0000
0001
0001
,
0001
0000
2000
3000
,
0001
0000
0010
0000
,
0100
0100
0100
0000
,
1000
0000
0010
0000
,
0100
0100
0100
0000
,
0001
0000
0010
0000
,
0100
0100
0100
0000
,
1000
0000
0001
1000
,
0002
0000
0000
0003
,
2000
0000
0000
0000
,
3020
0000
0000
0000
,
0230
0000
0000
0000
,
0000
0000
0000
0000
,
0302
0000
0000
0000
,
0023
0000
0000
0000
,
0230
0000
2300
0000
,
0000
0000
0000
3000
,
0001
0100
0001
0000
,
1000
0000
0100
0000
,
1000
0000
0010
0000
,
0100
0000
0001
0000
,
1000
0100
1000
0000
,
0001
0000
0010
0000
,
0001
0000
0100
0000
,
0010
0000
1000
0000
,
0001
0010
0001
0000
,
1000
0000
0100
0000
,
1000
0000
0010
0000
,
0100
0000
0001
0000
,
1000
0000
0100
0000
,
0001
0000
0010
0000
,
1000
0000
0001
0000
,
1000
0001
1000
0001
,
2000
0000
0000
0000
,
3200
0000
0000
0000
,
0320
0000
0100
0000
,
0100
0000
0001
0000
,
0032
0000
0000
0000
,
0203
0000
0000
0000
,
0320
0000
0100
0000
,
2030
0000
0000
3001
,
2000
0000
0000
0000
,
3200
0000
0000
0000
,
0320
0000
1000
0000
,
1000
0000
0001
0000
,
0031
0000
0100
0000
,
0010
0000
1000
0000
,
0001
0000
1000
0000
,
0001
1000
0001
0000
,
1001
0000
0000
0000
,
0110
0000
0000
0000
,
1001
0000
0000
0000
,
0001
0000
0010
0000
,
1001
0000
0000
0000
,
0110
0000
0000
0000
,
1001
0000
0001
0000
,
0020
0000
0000
0032
,
0003
0000
0000
0000
;

//--------------- dance-single - chrononical ----------------
#NOTES:
     dance-single:
     chrononical:
     Easy:
     7:
     0,0,0,0,0:
0000
0000
0000
0000
,
0000
0000
0000
0000
,
0000
0000
0000
0000
,
0000
0000
0000
0000
,
0000
0000
0000
0000
,
0000
0000
0000
0000
,
0000
0000
0000
0000
,
0000
0000
0000
0000
,
0000
0000
0000
0000
,
0000
0000
0000
0000
,
0000
0000
0000
0000
,
1001
0001
0010
0100
,
0110
0010
0001
1000
,
1001
0001
0100
0010
,
1000
0100
0010
0001
,
1001
1000
0010
0100
,
0110
0010
1000
0001
,
1001
1000
0100
0010
,
0002
0000
0000
2003
,
3001
0010
1000
0010
,
0001
0100
1000
0100
,
0001
0010
0100
1000
,
1000
1000
0001
0001
,
1000
0010
0001
0010
,
1000
0100
0001
0100
,
1000
0010
0100
0001
,
0001
0001
1000
1000
,
0010
0002
0013
1000
,
0100
0002
0103
1000
,
0010
0002
0013
0010
,
1000
1000
0001
0001
,
0010
2000
3010
0001
,
0100
2000
3100
0001
,
0010
2000
3010
0010
,
0001
0001
1000
1000
,
0010
0002
0013
0010
,
1000
1000
0100
0100
,
0010
0010
0010
0010
,
0001
1000
0001
0200
,
0301
0010
0100
0001
,
0100
1000
0001
0100
,
0001
0100
1000
0100
,
0001
0010
0100
2000
,
3001
0100
0010
0001
,
0010
1000
0001
0010
,
0001
0010
0100
0010
,
0001
0100
0020
0030
,
1000
0100
0010
0100
,
1000
0010
0100
0001
,
1000
0100
0001
0100
,
1000
0100
0010
0001
,
0001
0100
0010
0100
,
0001
0010
0100
1000
,
0001
0100
0010
1000
,
2002
0000
0000
3003
,
2000
0000
0000
3200
,
0320
0000
0000
0230
,
2300
0000
0000
3020
0000
0000
0000
0000
,
0000
0000
0000
0130
,
0002
0000
0000
0023
,
0230
0000
0000
2300
,
3002
0000
0000
2000
0000
0000
0000
0000
,
0000
0000
0000
3003
,
1000
0010
0100
0010
,
1000
1000
0100
0020
,
0031
0100
1000
0100
,
0001
0010
1000
0010
,
0001
0100
0010
0100
,
0001
0001
0010
0100
,
1000
0010
0001
0010
,
1000
0100
0001
0100
,
1000
0010
0100
0010
,
1000
0100
0010
0001
,
1000
0100
0001
0100
,
1000
0010
0001
0010
,
1000
0100
0001
0010
,
1000
0010
0001
0100
,
1000
0010
0100
1000
,
0100
0001
1000
0001
,
1000
1000
0100
0100
,
0010
0001
1000
0001
,
1000
0010
0100
0001
,
0100
0010
1000
0100
,
1000
1000
0010
0010
,
0100
0001
1000
0001
,
1000
0100
0010
0001
,
2000
0000
0000
3001
,
0001
0001
0100
0100
,
0010
1000
0001
1000
,
0001
0010
0100
1000
,
0100
0010
0001
0100
,
0001
0001
0100
0100
,
0010
0010
1000
1000
,
0001
0010
0100
1000
,
0001
0100
0010
1000
,
1001
1000
0100
0010
,
0110
0100
1000
0001
,
1001
1000
0010
0100
,
0001
0010
0100
1000
,
1001
0001
0100
0010
,
0110
0100
0001
1000
,
1001
0001
0010
0100
,
2000
0000
0000
3002
,
0003
0000
0000
0000
;

//--------------- dance-single - chrononical ----------------
#NOTES:
     dance-single:
     chrononical:
     Medium:
     12:
     0,0,0,0,0:
0000
0000
0000
0000
,
0000
0000
0000
0000
,
0000
0000
0000
0000
,
0000
0000
0000
0000
,
0000
0000
0000
0000
,
0000
0000
0000
0000
,
0000
0000
0000
0000
,
0000
0000
0000
0000
,
0000
0000
0000
0000
,
0000
0000
0000
0000
,
0000
0000
0000
0000
,
1000
0000
0000
0100
0000
0000
0010
0000
0000
0000
0010
0000
0001
0000
1000
0000
,
0001
0000
0000
0100
0000
0000
0010
0000
0000
0000
0010
0000
0001
0000
0010
0000
,
1000
0000
0000
0100
0000
0000
0010
0000
0000
0000
0010
0000
0001
0000
1000
0000
,
0001
0100
0010
0000
0100
0001
1000
0000
,
0001
0000
0000
0010
0000
0000
0100
0000
1000
0000
0001
0000
1000
0000
0000
0000
,
1000
0000
0000
0010
0000
0000
0100
0000
0001
0000
1000
0000
0001
0000
0000
0000
,
0001
0010
0100
1000
0001
0100
0010
1000
,
0010
1000
0100
0000
0010
0001
0200
0000
,
0302
0000
0013
1000
0010
0000
0010
0000
,
0001
0000
0100
1000
0100
0000
0001
0000
,
2000
0000
3200
0000
0310
0001
1000
0000
,
0001
1001
1000
1001
,
2000
0000
3010
0001
0010
0000
0010
0000
,
1000
0000
0100
0001
0100
0000
1000
0000
,
0002
0000
0203
0000
0310
1000
0001
0000
,
1000
1001
0001
1001
,
0001
0010
2000
0000
3001
0100
1000
0000
,
1000
0010
0002
0000
1003
0100
0001
0000
,
0001
0010
2000
0000
3001
0100
1000
0000
,
0001
0101
0100
0101
,
0001
0100
2000
0000
3001
0010
1000
0000
,
1000
0100
0002
0000
1003
0010
0001
0000
,
0001
0100
2000
0000
3001
0010
1000
0000
,
1000
1100
0100
1100
,
1000
0010
0200
0000
0000
1000
0000
0001
,
0301
0010
0100
0000
0100
0010
0001
0000
,
1000
0010
0100
0001
1000
0100
0010
0001
,
0100
0100
0100
0110
,
1001
0000
0001
0100
0010
1000
0001
0000
,
1000
0100
1000
0010
1000
0001
1000
0000
,
0001
0000
1000
0100
0010
0010
0200
0000
,
1300
0010
1000
0100
1000
0001
2000
0000
,
3001
0000
1000
0100
0010
0001
1000
0000
,
0001
0010
0001
0100
0001
1000
0001
0000
,
1000
0000
0100
0010
0001
0100
0010
0000
,
1000
0010
0100
0010
2000
0000
3000
0000
,
0200
1000
0001
1000
,
1300
0010
1000
0001
1000
0100
1000
0000
,
0020
1000
0001
0001
,
1030
0100
1000
0001
1000
0010
2000
0000
,
3200
1000
0001
1000
,
1300
0010
1000
0001
1000
0100
1000
0000
,
0001
0010
0100
1000
0001
0000
0100
0000
,
0220
0000
0000
0030
,
0302
0000
0000
0023
,
0230
0000
0000
2300
,
3020
0000
0000
0230
0000
0000
0000
0000
,
0000
0000
0000
0301
,
2000
0000
0000
3200
,
0320
0000
0000
0032
,
2003
0000
0000
0002
0000
0000
0000
0000
,
0000
0000
0000
3003
,
0001
0010
0100
0000
1000
0000
0001
0000
,
1000
0000
0010
0100
0000
0100
0002
0000
,
2003
0000
3010
0100
1000
0000
0100
0000
,
0001
1000
0100
0000
0001
0000
0100
0000
,
1000
0010
0100
0000
0001
0000
1000
0000
,
0001
0000
0010
0100
0000
0100
1000
0000
,
1000
0000
0010
0100
1000
0000
0100
0000
,
0010
0000
0000
1000
0000
0000
0100
0000
0001
0000
0000
0000
0100
0000
0000
0000
,
1000
0100
0010
0000
0001
0000
1000
0000
,
0001
0000
0100
0010
0000
0010
1000
0000
,
0002
0000
0013
0100
0001
0000
0100
0000
,
1000
0010
0100
0000
1000
0000
0100
0000
,
0001
0000
0010
0000
1000
0000
0010
0001
,
1000
0000
0010
0000
0001
0000
0010
1000
,
0001
0000
1000
0100
0100
0000
1000
0010
,
0010
1000
0010
0100
0001
1000
0002
0000
,
1003
0100
0010
0000
0100
0010
0001
0000
,
0001
0100
0010
0000
0100
0010
1000
0000
,
0001
0010
0000
0010
0100
1000
0001
1000
,
0001
0000
0000
0100
0000
0000
0001
0000
1000
0000
0000
0100
0000
0000
0010
0000
,
0001
0100
0010
0000
0100
0010
1000
0000
,
1000
0100
0010
0000
0100
0010
0001
0000
,
1000
0010
0000
0010
0100
0001
1000
0001
,
2000
0000
0000
3001
,
1000
0010
0100
0000
0100
0001
1000
0000
,
0001
0010
0100
0000
0100
1000
0001
0000
,
1000
0100
0000
0100
0010
0100
1000
0001
,
1000
0000
0000
0001
0000
0000
0100
0000
0001
0000
0000
0010
0000
0000
0100
0000
,
1000
0010
0100
0001
1000
0001
1000
0000
,
0001
0010
0100
1000
0001
1000
0001
0000
,
1000
0100
0010
0001
1000
0100
0010
0001
,
1000
0010
0100
0001
1000
0010
0200
0000
,
0301
0000
0000
0100
0000
0000
0010
0000
0000
0000
0010
0000
1000
0000
0001
0000
,
1000
0000
0000
0100
0000
0000
0010
0000
0000
0000
0010
0000
1000
0000
0010
0000
,
0001
0000
0000
0100
0000
0000
0010
0000
0000
0000
0010
0000
1000
0000
0001
0000
,
1000
0100
0010
0000
0100
1000
0001
0000
,
1000
0000
0000
0010
0000
0000
0100
0000
0001
0000
1000
0000
0001
0000
0000
0000
,
0001
0000
0000
0010
0000
0000
0100
0000
1000
0000
0001
0000
1000
0000
0000
0000
,
1000
0010
0100
0001
1000
0100
0010
0100
,
0010
0001
0100
0000
0010
1000
0200
0000
,
0300
0000
0000
0000
;

//--------------- dance-single - chrononical ----------------
#NOTES:
     dance-single:
     chrononical:
     Hard:
     15:
     0,0,0,0,0:
0000
0000
0000
0000
,
0000
0000
0000
0000
,
0000
0000
0000
0000
,
0000
0000
0000
0000
,
0000
0000
0000
0000
,
0000
0000
0000
0000
,
0000
0000
0000
0000
,
0000
0000
0000
0000
,
0000
0000
0000
0000
,
0000
0000
0000
0000
,
0000
0000
0000
0000
,
1001
0000
0000
0001
0000
0000
0100
0000
0000
0010
0100
0000
0001
0000
1000
0000
,
1001
0000
0000
0001
0000
0000
0010
0000
0000
0100
0010
0000
0001
0000
1000
0000
,
1001
0000
0000
0001
0000
0000
0100
0000
0000
0010
0100
0000
0001
0000
1000
0000
,
0001
0010
1000
0010
0001
0100
1000
0100
,
0001
0100
0010
0100
0001
1000
0001
1000
,
0001
0010
0100
0010
0001
1000
0001
1000
,
0001
0100
0010
1000
0001
0010
0100
1000
,
0001
0000
0100
0000
0010
0000
0100
0000
0001
1000
0001
1000
0002
0000
0000
0000
,
2003
0000
0000
3100
0010
0000
1000
0000
0010
0000
0100
0000
1000
0000
0001
0000
,
1000
0000
0010
0100
0010
0000
0001
0000
0010
0000
0100
0000
0001
0000
1000
0000
,
0002
0000
0000
0013
0100
0000
0100
0000
1000
0000
1000
0000
0001
0000
0100
0000
,
0010
0110
0100
0101
,
0002
0000
0000
0103
0010
0000
0001
0000
0010
0000
0100
0000
0001
0000
1000
0000
,
0001
0000
0010
0100
0010
0000
1000
0000
0010
0000
0100
0000
1000
0000
0001
0000
,
2000
0000
0000
3010
0100
0000
0100
0000
0001
0000
0001
0000
0010
0000
0100
0000
,
0010
0110
0100
1100
,
1000
0010
0002
0000
1003
0100
0001
1000
,
0001
0010
2000
0000
3001
0100
0010
0001
,
1000
0010
0002
0000
1003
0100
0001
1000
,
0100
1001
0010
1001
,
0001
0100
2000
0000
3001
0010
1000
0001
,
1000
0100
0002
0000
1003
0010
0100
1000
,
0001
0100
2000
0000
3001
0010
1000
0001
,
0010
1001
0100
1001
,
0001
0010
2000
0000
3010
0100
0010
0001
,
1000
0010
0100
0001
1000
0010
0100
0001
,
1000
0100
0010
0001
1000
0100
0010
0001
,
0100
0100
0100
0110
,
1001
0000
0000
0000
1000
0000
0100
0000
0010
0000
0000
0010
0001
0000
1000
0000
,
0001
0100
0001
0000
1000
0000
1000
0000
0001
0010
0001
0000
1000
0000
1000
0000
,
0001
0000
0000
0100
0010
0000
0010
0000
1000
0000
1000
0000
0200
0000
0000
0000
,
1300
0100
1000
0000
0001
0000
0001
0000
1000
0010
1000
0000
0010
0000
0010
0000
,
1000
0000
0000
1000
0100
0000
0010
0000
0100
0000
0001
0000
0100
0000
1000
0000
,
0010
0100
0010
0000
0001
0000
0001
0000
0010
0100
0010
0000
1000
0000
1000
0000
,
0001
0000
0000
0001
0100
0000
0100
0000
1000
0000
0100
0000
0010
0000
1000
0000
,
0100
0010
0100
0000
0010
0001
1000
0001
2000
0000
0000
0000
3000
0000
0000
0000
,
0001
0010
0100
0010
0001
1000
0010
0100
,
0001
0010
0001
0000
1000
0000
1000
0000
0001
0100
0001
0000
1000
0000
1000
0000
,
0001
0000
0100
0000
0010
0000
0010
0000
1000
0000
0001
1000
0001
0000
0010
0000
,
0100
0010
0100
0000
0001
0000
0001
0000
0100
0010
0100
0000
1000
0000
1000
0000
,
0001
0100
0010
0100
0001
0010
0100
0010
,
0001
0100
0010
1000
0001
0100
0010
1000
,
0001
0000
0010
0000
0100
0000
1000
0000
0001
0010
0001
0000
1000
0010
1000
0000
,
0002
0000
0000
0000
,
2003
0000
0000
0100
,
3002
0000
0000
0010
,
2003
0000
0000
3200
0000
0000
0000
0000
,
0000
0000
0000
0310
,
0002
0000
0000
0010
,
2003
0000
0000
0001
,
3020
0000
0000
0200
0000
0000
0000
0000
,
0000
0000
0000
0330
,
0010
0000
1000
0000
0001
0000
0010
0000
0100
0000
0000
0100
0000
0000
0100
0000
,
1000
0001
0010
0001
1000
0010
1020
0000
,
2030
0000
3010
0100
1000
0100
0001
1000
,
0100
0010
0100
0100
0001
0100
1000
0001
,
0100
0000
0001
0000
1000
0000
0100
0000
0010
0000
0000
0010
0000
0000
0010
0000
,
0001
1000
0100
1000
0001
0100
0001
1000
,
0010
0100
0010
0100
1000
0100
0001
1000
,
0100
0000
0000
0100
0000
0000
0100
0000
0001
0000
0100
0000
1000
0000
0001
0000
,
0010
0000
0001
0000
1000
0000
0010
0000
0100
0000
0000
0100
0000
0000
0100
0000
,
0001
1000
0010
1000
0001
0010
0001
1000
,
0002
0000
0013
0100
0001
0100
1000
0001
,
0100
0010
0100
0100
1000
0100
0001
1000
,
0100
0010
0001
0010
1000
0010
0001
1000
,
0010
0100
0001
0100
1000
0100
0001
1000
,
0001
0001
1000
0001
0010
0100
1000
0001
,
1000
0010
0100
0001
1000
0100
0020
0000
,
0031
0100
0010
0100
0001
1000
0001
0000
,
1000
0100
0010
0100
1000
0001
1000
0000
,
0001
0000
0100
0000
0000
0000
0100
0010
0000
0100
0000
0001
1000
0000
0001
0000
,
1000
0000
0100
0010
0000
0100
0010
0000
0001
1000
0000
0001
1000
0000
0001
0000
,
1000
0010
0100
0010
1000
0001
1000
0000
,
0001
0010
0100
0010
0001
1000
0001
0000
,
1000
0000
0010
0000
0000
0010
0000
0100
0001
0000
0100
0000
0001
0000
1000
0000
,
0002
0000
0000
1003
,
1000
0100
0010
0100
1000
0001
1000
0000
,
0001
0100
0010
0100
0001
1000
0001
0000
,
1000
0000
0100
0000
0000
0000
0100
0010
0000
0100
0000
1000
0001
0000
1000
0000
,
0001
0000
0100
0010
0000
0100
0010
0000
1000
0001
0000
1000
0001
0000
1000
0000
,
0001
0010
0100
0010
0001
0010
0100
1000
,
0001
0100
0010
0100
0001
0100
0010
1000
,
0001
0010
0100
1000
0001
0100
0010
1000
,
0001
0000
0010
0000
0100
0010
0100
0000
1000
0001
1000
0000
0001
0000
0000
0000
,
1001
0000
0000
1000
0000
0000
0100
0000
0000
0010
0100
0000
1000
0000
0001
0000
,
1001
0000
0000
1000
0000
0000
0010
0000
0000
0100
0010
0000
1000
0000
0001
0000
,
1001
0000
0000
1000
0000
0000
0100
0000
0000
0010
0100
0000
1000
0000
0001
0000
,
1000
0010
0001
0010
1000
0100
0001
0100
,
1000
0100
0010
0100
1000
0001
1000
0001
,
1000
0010
0100
0010
1000
0001
1000
0001
,
1000
0100
0010
0001
1000
0010
0100
0001
,
1000
0000
0100
0000
0010
0000
0100
0000
1000
0001
1000
0001
2000
0000
0000
0000
,
3000
0000
0000
0000
;

//--------------- dance-single - chrononical ----------------
#NOTES:
     dance-single:
     chrononical:
     Challenge:
     18:
     0,0,0,0,0:
0000
0000
0000
0000
,
0000
0000
0000
0000
,
0000
0000
0000
0000
,
0000
0000
0000
0000
,
0000
0000
0000
0000
,
0000
0000
0000
0000
,
0000
0000
0000
0000
,
0000
0000
0000
0000
,
0000
0000
0000
0000
,
0000
0000
0000
0000
,
0000
0000
0000
0000
,
1001
0000
0000
1000
0000
0000
0100
0000
0000
0010
0100
0000
1000
0000
0001
0000
,
1001
0000
0000
0001
0000
0000
0100
0000
0000
0010
0100
0010
1000
0000
0001
0000
,
1001
0000
0000
1000
0000
0000
0100
0000
0000
0010
0100
0000
1000
0000
0001
0000
,
1000
0000
0100
1000
0100
0000
1000
0001
1000
0000
0010
1000
0010
0000
1000
0000
,
1001
0001
0010
0100
0010
0001
1000
0001
,
1000
0010
1000
0010
1000
0010
0100
0010
0100
0010
0100
0001
1000
0001
1000
0001
,
1000
0100
1000
0100
1000
0100
0010
0100
0010
0100
0010
0001
1000
0001
1000
0001
,
1000
0000
0010
0000
0100
0001
1000
0001
0010
0100
0010
0100
0020
0000
0000
0000
,
0032
0000
0000
0103
0010
0000
0001
0000
0010
0100
0001
1000
0100
0000
0010
0000
,
0100
0000
1000
0001
0100
0000
1000
0000
0100
0010
1000
0001
0010
0000
0100
0010
,
0002
0000
0000
0000
0000
0000
0000
0000
0000
0103
0000
0000
0010
0000
0000
1000
0000
0000
0001
0000
0000
1000
0000
0000
0001
0000
0000
0010
0000
0000
0100
0000
0000
0010
0000
0000
0001
0000
0000
0000
1000
0000
0000
0000
0001
0000
0000
0000
,
0100
1001
0010
1001
,
2000
0000
0000
3100
0010
0000
1000
0000
0010
0100
1000
0001
0100
0000
0010
0000
,
0100
0000
0001
1000
0100
0000
0001
0000
0100
0010
0001
1000
0010
0000
0100
0010
,
2000
0000
0000
0000
0000
0000
0000
0000
0000
3100
0000
0000
0010
0000
0000
0001
0000
0000
1000
0000
0000
0001
0000
0000
1000
0000
0000
0010
0000
0000
0100
0000
0000
0010
0000
0000
1000
0000
0000
0000
0100
0000
0000
0000
0010
0000
0000
0000
,
0100
1001
0010
1001
,
0001
0000
0100
0000
2000
0000
0000
0000
3100
0010
0100
0001
1000
0000
0100
0010
,
0001
0000
0010
0000
2000
0000
0000
0000
3010
0100
0010
0001
1000
0000
0010
0100
,
0001
0000
0000
0000
0000
0000
0100
0000
0000
0000
0000
0000
2000
0000
0000
0000
0000
0000
0000
0000
0000
0000
0000
0000
3100
0000
0000
0010
0000
0000
1000
0000
0000
0001
0000
0000
1000
0000
0000
0000
0100
0000
0000
0000
0010
0000
0000
0000
,
0001
1010
0001
1100
,
1000
0000
0010
0000
0002
0000
0000
0000
0013
0100
0010
1000
0001
0000
0010
0100
,
1000
0000
0100
0000
0002
0000
0000
0000
0103
0010
0100
1000
0001
0000
0100
0010
,
1000
0000
0000
0000
0000
0000
0010
0000
0000
0000
0000
0000
0002
0000
0000
0000
0000
0000
0000
0000
0000
0000
0000
0000
0013
0000
0000
0100
0000
0000
0010
0000
0000
1000
0000
0000
0001
0000
0000
0000
0010
0000
0000
0000
0100
0000
0000
0000
,
1000
0011
1000
0101
,
0001
0001
0100
0100
0010
0010
1000
1000
,
0001
0010
0100
1000
0001
0010
0100
1000
,
0001
0100
0010
0100
0010
1000
0001
1000
0001
0010
0100
0010
0100
1000
0001
1000
,
0001
0100
0100
0110
,
1001
0000
0000
0000
1000
0000
0100
0000
0100
0000
0010
0001
1000
0000
0010
0000
,
0010
0100
0001
0000
1000
0000
0100
0000
0100
1000
0001
1000
0001
0000
0100
0000
,
0001
0000
0000
0010
0100
0000
0100
0000
0001
0000
0001
0000
0200
0000
0000
0000
,
1300
0001
0100
0000
0010
0000
0010
0000
1000
0001
0010
0001
0010
0100
0010
0001
,
1000
0000
0000
0010
0100
0000
0100
0000
0001
0000
0001
1000
0100
0000
0010
0000
,
0100
1000
0001
0000
0100
0000
0100
0000
0010
1000
0001
1000
0001
0000
0100
0000
,
0001
0000
0000
0010
1000
0000
0001
0000
0100
0000
1000
0001
0100
0000
0100
0000
,
0001
1000
0100
0000
1000
0001
0100
0010
0200
0000
0000
0000
0300
0000
0000
0000
,
0001
0010
0100
0010
0001
0100
0010
0100
,
0010
1000
0001
0000
0010
0000
0010
0000
0100
1000
0001
1000
0001
0000
0001
0000
,
1000
0000
0010
0000
0001
0000
0010
0000
0100
0000
0010
1000
0001
0000
0010
0000
,
0100
1000
0001
0000
0100
0000
0100
0000
0010
1000
0001
1000
0100
0010
0100
1000
,
0001
0100
0010
0100
0001
0010
0100
0010
,
0100
1000
0001
0000
0100
0000
0100
0000
0010
1000
0001
1000
0001
0000
0100
0000
,
0010
0100
0010
0100
0001
1000
0001
1000
0100
1000
0001
0000
0010
0001
1000
0000
,
2002
0000
0000
3003
,
0002
0000
0000
0203
,
0320
0000
0000
2030
,
3020
0000
0000
0230
0000
0000
0000
0000
,
0000
0000
0000
0000
0000
0000
0310
1000
,
0002
0000
0000
0023
,
0230
0000
0000
0302
,
0203
0000
0000
2300
0000
0000
0000
0000
,
0000
0000
0000
0000
,
3001
0000
1000
0100
1000
0000
0001
0000
2000
0000
0000
3020
0000
0000
0130
0000
,
0001
1000
0000
1000
0100
0000
0100
0010
0000
0010
0001
0000
1002
0000
0000
0000
,
2003
0000
0000
0000
3010
0000
0100
0000
1000
0100
0000
0100
0001
0000
1000
0000
,
0001
0000
0010
0100
0010
0000
0100
0000
0001
0100
0000
0100
1000
0001
1000
0000
,
0001
0000
1000
0010
1000
0000
0001
0000
2000
0000
0000
3200
0000
0000
0310
0000
,
0001
0000
0000
0101
0000
0000
0110
0000
0000
0010
1000
0001
0010
0000
0100
0000
,
1000
0000
0100
1000
0001
0000
0100
0000
1000
0100
0000
0100
0010
0000
1000
0000
,
0001
0000
0010
0100
0000
0000
0100
0000
0001
0100
0000
0100
0010
0001
1000
0000
,
0001
0000
1000
0100
1000
0000
0001
0000
2000
0000
0000
3020
0000
0000
0130
0000
,
0001
0000
0000
0011
0000
0000
0110
0000
0000
0010
0001
1000
0010
0000
0100
0000
,
0002
0000
0000
0000
0103
0000
0010
0000
0001
0010
0000
0010
1000
0000
0001
0000
,
1000
0000
0100
0010
0100
0000
0010
0000
1000
0010
0000
0010
0001
0000
1000
0001
,
1000
0000
0001
0100
0001
0000
0100
0000
1000
0100
0000
0100
0010
0000
1000
0000
,
0001
0000
0001
0000
0010
0000
0010
0000
1000
0010
0000
0010
0001
1000
0001
1000
,
0001
0000
0001
0000
0100
0000
0100
0001
1000
0000
1000
0000
0100
0010
0001
1000
,
0001
0100
0010
0100
0010
1000
0001
1000
0001
0010
0100
0010
0002
0000
0000
0000
,
1003
0000
0010
0000
0100
0000
0010
1000
0001
0000
0010
0000
0100
0000
0010
0000
,
0001
0000
0100
0000
0010
0000
0100
0001
1000
0000
0100
0000
0010
0000
0100
0000
,
1000
0000
0010
0000
0100
0000
0010
1000
0001
0010
0000
0100
0010
0000
0001
1000
,
0001
0000
0100
0010
0000
0100
0010
0000
1000
0100
0000
0100
0010
0000
0010
0000
,
0001
0000
0100
0000
0010
0000
0100
0001
0010
0000
0100
0000
0010
0000
0001
0000
,
1000
0000
0010
0000
0100
0000
0010
1000
0100
0000
0010
0000
0100
0000
1000
0000
,
0001
0000
0100
0000
0010
0100
0000
0001
1000
0100
0010
0000
0001
0000
1000
0000
,
0002
0000
0000
1003
,
0001
0000
0010
0000
0100
0000
0010
0001
1000
0000
0010
0000
0100
0000
0010
0000
,
1000
0000
0100
0000
0010
0000
0100
1000
0001
0000
0100
0000
0010
0000
0100
0000
,
0001
0000
0010
0000
0100
0000
0010
0001
1000
0010
0000
0100
0010
0000
1000
0001
,
1000
0000
0100
0010
0000
0100
0010
0000
0001
0100
0000
0100
0010
0000
0010
0000
,
1000
1000
0100
0100
0010
0010
0001
0001
,
1000
1000
0010
0010
0100
0100
0001
0001
,
1000
0010
0100
0010
0100
0001
1000
0001
1000
0100
0010
0100
0010
0001
1000
0001
,
1000
0010
0100
0001
1000
0010
0100
0001
1000
0100
0010
0001
1000
0000
0000
0000
,
1001
0000
0000
0001
0000
0000
0100
0000
0000
0010
0100
0000
0001
0000
1000
0000
,
1001
0000
0000
1000
0000
0000
0100
0000
0000
0010
0100
0010
0001
0000
1000
0000
,
1001
0000
0000
0001
0000
0000
0100
0000
0000
0010
0100
0000
0001
0000
1000
0000
,
0001
0000
0010
0001
0010
0000
0001
1000
0001
0000
0100
0001
0100
0000
0001
0000
,
1001
1000
0100
0010
0100
1000
0001
1000
,
0001
0010
0001
0010
0001
0010
0100
0010
0100
0010
0100
1000
0001
1000
0001
1000
,
0001
0100
0001
0100
0001
0100
0010
0100
0010
0100
0010
1000
0001
1000
0001
1000
,
0001
0000
0010
0000
0100
1000
0001
1000
0010
0100
0010
0100
0020
0000
0000
0000
,
0030
0000
0000
0000
;
