#TITLE:Trident of Sadness;
#SUBTITLE:;
#ARTIST:梅干茶漬け;
#TITLETRANSLIT:;
#SUBTITLETRANSLIT:;
#ARTISTTRANSLIT:Umeboshi Chazuke;
#GENRE:;
#CREDIT:;
#MUSIC:Trident of Sadness.ogg;
#BANNER:Trident of Sadness.png;
#BACKGROUND:Trident of Sadness-bg.png;
#CDTITLE:;
#SAMPLESTART:74.223;
#SAMPLELENGTH:15.000;
#SELECTABLE:YES;
#OFFSET:0.518;
#BPMS:0.000=232.000
,352.000=116.000
,368.000=232.000
;
#STOPS:;
#BGCHANGES:;
#FGCHANGES:;

//--------------- dance-single - ----------------
#NOTES:
     dance-single:
     :
     Beginner:
     5:
     0,0,0,0,0:
0000
0000
0000
0000
,
0000
0000
0000
0000
,
0000
0000
0000
0000
,
0000
0000
0000
0000
,
0001
0000
0001
0000
,
0010
0000
0000
0000
,
0100
0000
0100
0000
,
1000
0000
0000
0000
,
0001
0000
0001
0000
,
0100
0000
0000
0000
,
0010
0000
0010
0000
,
1000
0000
0000
0000
,
1000
0000
0100
0000
,
1000
0000
0000
0000
,
0001
0000
0100
0000
,
0001
0000
0000
0000
,
1000
0000
0010
0000
,
1000
0000
0000
0000
,
0001
0000
0010
0000
,
0001
0000
0000
0000
,
1001
0000
0000
0000
,
1001
0000
0000
0000
,
1001
0000
0000
0000
,
1001
0000
0000
0000
,
0001
0000
0100
0000
,
0001
0000
0100
0000
,
0010
0000
1000
0000
,
0010
0000
1000
0000
,
2002
0000
0000
0000
,
0000
0000
3003
0000
,
0100
0000
0100
0000
,
0100
0000
0000
0000
,
0001
0000
0010
0000
,
0001
0000
0010
0000
,
0100
0000
1000
0000
,
0100
0000
0000
0000
,
1000
0000
0100
0000
,
1000
0000
0100
0000
,
0010
0000
0001
0000
,
0010
0000
0000
0000
,
0010
0000
0100
0000
,
0010
0000
0000
0000
,
0100
0000
0010
0000
,
0100
0000
0000
0000
,
1000
0000
0000
0000
,
0010
0000
0000
0000
,
0001
0000
0000
0000
,
0010
0000
0000
0000
,
1000
0000
0100
0000
,
1000
0000
0100
0000
,
0010
0000
0001
0000
,
0010
0000
0000
0000
,
0001
0000
0100
0000
,
0001
0000
0100
0000
,
0010
0000
1000
0000
,
0010
0000
0000
0000
,
1000
0000
0001
0000
,
0100
0000
0000
0000
,
0001
0000
1000
0000
,
0100
0000
0000
0000
,
0010
0000
0000
0000
,
0100
0000
0000
0000
,
2002
0000
0000
0000
,
3003
0000
0000
0000
,
2000
0000
0000
0000
,
3000
0000
0100
0000
,
0200
0000
0300
0000
,
0010
0000
0010
0000
,
0002
0000
0003
0000
,
0100
0000
0100
0000
,
0020
0000
0030
0000
,
1001
0000
0000
0000
,
0000
0010
0000
0000
,
1000
0000
1000
0000
,
0001
0000
0001
0000
,
1000
0000
0000
0000
,
0100
0000
0100
0000
,
1000
0000
0000
0000
,
0001
0000
0001
0000
,
0100
0000
0000
0000
,
1001
0000
0000
0000
,
0001
0000
0010
0000
,
0001
0000
0010
0000
,
0001
0000
0001
0000
,
0100
0000
0000
0000
,
0010
0000
0000
0000
,
1001
0000
0000
0000
,
0110
0000
0000
0000
,
1000
0000
0100
0000
,
0010
0010
0010
0000
,
0001
0000
0100
0000
,
0010
0010
0010
0000
,
1000
0000
0010
0000
,
1000
0000
1000
0000
,
0001
0000
0100
0000
,
0001
0000
0000
0000
,
1000
0000
0010
0000
,
1000
0000
1000
0000
,
0001
0000
0100
0000
,
0001
0000
0000
0000
,
0100
0000
0100
0000
,
0010
0000
0010
0000
,
1000
0000
0001
0000
,
1000
0000
0000
0000
,
0100
0000
0100
0000
,
0010
0000
0010
0000
,
0001
0000
0000
0000
,
1001
0000
0000
0000
,
1000
0000
0000
0000
,
1001
0000
0000
0000
,
0010
0000
0000
0000
,
0110
0000
0000
0000
,
0100
0000
0000
0000
,
0010
0000
0010
0000
,
2002
0000
0000
0000
,
0000
0000
0000
0000
,
3003
0000
0000
0000
;

//--------------- dance-single - ----------------
#NOTES:
     dance-single:
     :
     Easy:
     9:
     0,0,0,0,0:
0000
0000
0000
0000
,
0000
0000
0000
0000
,
0000
0000
0000
0000
,
0000
0000
0000
0000
,
0001
0100
0020
0000
,
1030
0001
2002
3003
,
1000
0100
0020
0000
,
0031
1000
2002
3003
,
0001
0100
0020
0000
,
1030
0100
2200
3300
,
1000
0100
0020
0000
,
0031
0001
1000
1000
,
0010
0001
0020
0000
,
1030
0001
0202
0303
,
0001
0010
2000
0000
,
3010
0001
0022
0033
,
1000
0010
0002
0000
,
0013
1000
2020
3030
,
1000
0100
0002
0000
,
0103
1000
0100
1000
,
0010
0000
0000
0010
0000
0000
0010
0000
,
0100
0000
0000
0100
0000
0000
0100
0000
,
0001
0000
0000
0001
0000
0000
0001
0000
,
1000
0000
0000
1000
0000
0000
1000
0000
,
0100
0000
0000
0010
0000
0000
0010
0000
,
0001
0000
0000
0100
0000
0000
0100
0000
,
0010
0000
0000
1000
0000
0000
0100
0000
,
0001
0000
0000
0100
0000
0000
1000
0000
,
1001
0000
0000
0000
,
0000
0000
0000
0000
,
0001
0100
0010
1000
,
1001
0000
0000
0000
,
1000
0100
1000
0100
,
0020
0000
0000
0032
0000
0000
2003
0000
,
3001
0100
0001
0100
,
1000
0100
0001
0000
,
0010
0100
0010
0100
,
2000
0000
0000
3020
0000
0000
0230
0000
,
0301
0010
0001
0010
,
1000
0010
0001
0000
,
1000
0100
1000
0010
,
1000
0001
0200
0300
,
0001
0010
0001
0100
,
0001
1000
0200
0300
,
0020
0032
2003
3020
,
0230
0010
0310
0000
,
2000
3020
0230
0302
,
0013
0100
0010
0000
,
0001
0100
0001
0100
,
0020
0000
0000
2030
0000
0000
3002
0000
,
1003
0100
1000
0100
,
0001
0100
1000
0000
,
0010
0100
0010
0100
,
0002
0000
0000
0023
0000
0000
0230
0000
,
1300
0010
1000
0010
,
0001
0010
1000
0000
,
0001
0100
0001
0010
,
0001
1000
0200
0300
,
1000
0010
1000
0100
,
1000
0001
0200
0300
,
0020
2030
3002
0023
,
0230
0010
0310
0000
,
0002
0000
2003
0000
,
3020
0000
0100
0130
,
0002
0000
0000
0000
,
0000
0000
0103
1000
,
0200
0000
0000
0310
,
1000
0000
0000
1000
0000
0000
0100
0000
,
0020
0000
0000
0000
,
0230
0000
0000
0320
0000
0000
0032
0000
,
2003
0000
0000
0000
,
3010
0000
0000
0110
0000
0000
1001
0000
,
0000
0001
0000
0010
,
0100
0100
0010
0010
,
0001
0100
1000
0000
,
1000
0100
0001
0000
,
0010
0010
0100
0100
,
1000
1000
0001
0000
,
0100
0100
0010
0010
,
1000
0100
1000
0010
,
2000
0000
3100
0010
,
0001
0001
0100
0100
,
1000
1000
0100
0100
,
0002
0000
0023
0000
,
0230
0000
2300
0000
,
3020
0000
0230
0300
,
1002
0000
0013
0010
,
0001
0100
0010
1000
,
0001
0010
0001
0000
0001
0000
0100
0000
,
0010
0000
0010
1000
0002
0000
0003
0000
,
1000
0100
1000
0000
1000
0000
0100
0000
,
0010
0000
0010
0001
2000
0000
3000
0000
,
0001
0100
0001
0010
,
0002
0000
0000
0203
0000
0000
0310
0000
,
1000
0100
1000
0010
,
1000
0001
1001
0000
,
1000
0100
1000
0010
,
0200
0000
0000
0320
0000
0000
0130
0000
,
0002
0000
0000
0023
0000
0000
0130
0000
,
1000
1000
0001
0001
,
1000
0100
1000
0010
,
2000
0000
0000
3200
0000
0000
0310
0000
,
0001
0100
0001
0010
,
0001
1000
1001
0000
,
0001
0100
0001
0010
,
0200
0000
0000
0320
0000
0000
0130
0000
,
2000
0000
0000
3020
0000
0000
0130
0000
,
0100
0001
1000
1000
,
0001
0000
0000
0100
0000
0000
0010
0000
,
1000
0100
0010
0010
,
0002
0000
0000
0203
0000
0000
2300
0000
,
3100
0100
0001
0001
,
2000
0000
0000
3200
0000
0000
0302
0000
,
0103
0100
0010
0000
,
2002
0000
0000
0000
,
0000
0000
0000
0000
,
3003
0000
0000
0000
;

//--------------- dance-single - ----------------
#NOTES:
     dance-single:
     :
     Medium:
     13:
     0,0,0,0,0:
0000
0000
0000
0000
,
0000
0000
0000
0000
,
0000
0000
0000
0000
,
0000
0000
0000
0000
,
0001
0010
0000
0001
0010
0000
0001
0200
,
0000
0310
1000
0001
2000
0000
3000
0000
,
1000
0100
0000
1000
0100
0000
0010
0002
,
0000
1003
0010
0100
0002
0000
0003
0000
,
0001
0100
0000
0001
0100
0000
0010
2000
,
0000
3001
0010
0001
0200
0000
0300
0000
,
0001
0010
0000
0001
0010
0000
0100
2000
,
0000
3001
0100
0010
0100
0000
0110
0000
,
1000
0100
0010
0000
0020
0000
0130
2000
,
0000
3001
0100
0010
2000
0000
3000
0000
,
0001
0100
0010
0000
0020
0000
0130
0002
,
0000
1003
0100
0010
0002
0000
0003
0000
,
0100
0010
1000
0000
0001
0000
0010
0200
,
0000
0310
0001
0100
0020
0000
0030
0000
,
1000
0100
0010
0000
0200
0000
1300
0020
,
0000
0130
0001
1000
0010
0100
0001
0000
,
1000
0000
0000
1100
0000
0000
0011
0000
,
0001
0000
0000
0101
0000
0000
1010
0000
,
1000
0000
0000
1100
0000
0000
0101
0000
,
0001
0000
0000
0011
0000
0000
1010
0000
,
1000
0100
0010
0100
0000
0100
0010
0000
,
0001
0100
0010
0100
0000
0100
0010
0000
,
1000
0001
0100
0001
0000
0001
0010
0000
,
0001
1000
0100
1000
0000
1000
0010
0000
,
0200
0000
0000
0000
,
0000
0000
0320
0000
,
1030
0100
0010
0000
0100
0010
0001
0000
,
1001
0000
0000
0000
,
1001
0000
0001
0000
0010
0001
1000
0000
,
0200
0000
0000
2300
0000
3010
0200
0000
,
0302
0010
0010
0010
,
1003
0010
0100
0000
0001
0010
0100
0000
,
1001
0000
1000
0000
0010
1000
0001
0000
,
0200
0000
0000
0302
0000
0013
0200
0000
,
2300
0010
0010
0010
,
3001
0100
0010
0000
1000
0100
0010
0000
,
0002
0100
2003
0100
,
3010
0100
0001
0010
0000
0010
0100
0000
,
2000
0010
3002
0010
,
0103
0010
1000
0100
0000
0100
0020
0000
,
0031
1000
0010
0000
1000
0010
0100
0000
,
0010
0100
0001
0000
1001
0000
0001
0010
,
0001
0010
0001
0000
1000
0010
1000
0000
,
0002
0203
0320
0130
,
1001
0000
1000
0000
0010
1000
0001
0000
,
0200
0000
0000
0302
0000
0013
0200
0000
,
2300
0010
0010
0010
,
3001
0010
0100
0000
1000
0010
0100
0000
,
1001
0000
0001
0000
0010
0001
1000
0000
,
0200
0000
0000
2300
0000
3010
0200
0000
,
0302
0010
0010
0010
,
1003
0100
0010
0000
0001
0100
0010
0000
,
2000
0100
3002
0100
,
0013
0100
1000
0010
0000
0010
0100
0000
,
0002
0010
2003
0010
,
3100
0010
0001
0100
0000
0100
0020
0000
,
1030
0001
0010
0000
0001
0010
0100
0000
,
0010
0100
1000
0000
1001
0000
1000
0010
,
0200
0000
0000
0000
0010
0000
0000
0310
,
0000
0010
0100
0000
0010
0000
0010
0000
,
1000
0000
0100
0000
0010
0001
0000
0010
,
0001
0000
1000
0010
0000
1000
0010
0000
,
0100
0000
0001
0000
1000
0100
0000
1000
,
0100
0000
0010
0001
0000
0010
0001
0000
,
1000
0000
0010
0000
0100
0010
0000
0100
,
0010
0000
1000
0100
0000
1000
0100
0000
,
0010
0000
0001
0000
0100
0010
0000
0010
,
0100
0000
0000
1001
0000
0000
0110
0000
,
0000
2001
0000
3100
,
0010
0001
1000
0000
0010
1000
0001
0000
,
0200
2300
3200
0302
,
0013
0100
0010
0000
0100
0010
0100
0000
,
2000
0000
0010
0000
3001
0010
0001
0000
,
0002
0000
0100
0000
1003
0100
1000
0000
,
0020
0032
0023
2030
,
3002
0203
0302
0023
,
0230
0000
0000
0310
0001
0000
1000
0000
,
0010
1000
0010
0000
0100
0001
0100
0000
,
0002
0023
2030
3020
,
0031
0101
0110
1010
,
1000
0100
1000
0000
0001
0100
0001
0000
,
1000
0010
1000
0000
0001
0010
0001
0000
,
2002
0000
3003
0000
,
2000
3020
0230
0302
,
1003
0000
0100
0000
1000
0000
1000
0000
1000
0000
0000
0010
0000
0000
0100
0000
,
0001
0000
0000
0010
0000
0100
0010
0000
2002
0000
0000
0000
3003
0000
0000
0000
,
0001
0000
0001
0000
0001
0000
0100
0000
0010
0000
0000
1000
0000
0000
0100
0000
,
0010
0000
0000
0001
0000
0100
0010
0000
2002
0000
0000
0000
3003
0000
0000
0000
,
1000
0100
0010
0000
0100
0010
0001
0010
,
0002
0000
0103
0020
0000
1030
0002
0000
,
1003
0010
0100
0000
0010
0100
0001
0100
,
0002
0023
2030
3020
,
0031
0100
0010
0000
0100
0000
0001
0000
,
1000
0100
0010
0000
0100
0000
1000
0000
,
0020
0000
0000
0230
0000
0310
1000
0000
,
1100
0100
0010
0011
,
0001
0100
0010
0000
0100
0010
1000
0010
,
2000
0000
3100
0020
0000
0031
2000
0000
,
3001
0010
0100
0000
0010
0100
1000
0100
,
2000
3020
0032
0023
,
1030
0100
0010
0000
0100
0000
1000
0000
,
0001
0100
0010
0000
0100
0000
0001
0000
,
0020
0000
0000
0230
0000
0310
0002
0000
,
2003
0000
0010
0000
0010
0000
3010
0100
,
0020
0000
0000
0230
0000
0310
2000
0000
,
3002
0000
0010
0000
0010
0000
0013
0100
,
2000
0000
3001
0200
0000
0301
2000
0000
,
3100
0010
0001
0000
1000
0010
0100
0000
,
0002
0000
0103
0020
0000
1030
0002
0000
,
0013
0100
0010
0100
0010
0000
0110
0000
,
2002
0000
0000
0000
,
0000
0000
0000
0000
,
3003
0000
0000
0000
;

//--------------- dance-single - ----------------
#NOTES:
     dance-single:
     :
     Hard:
     16:
     0,0,0,0,0:
0000
0000
0000
0000
,
0000
0000
0000
0000
,
0000
0000
0000
0000
,
0000
0000
0000
0000
,
1000
0100
1000
0100
0020
0000
0031
0200
,
0000
0310
1000
0010
2000
0000
3000
0000
,
0001
0100
0001
0100
0020
0000
1030
0200
,
0000
0310
0001
0010
0002
0000
0003
0000
,
0100
0010
0100
0010
2000
0000
3100
0020
,
0000
0031
0100
0001
0200
0000
0300
0000
,
0010
0100
0010
0100
0002
0000
0013
0200
,
0000
1300
0100
0010
0001
1000
0100
0010
,
0001
0100
1000
0100
0002
0000
0013
0100
,
0000
0010
0001
0100
0020
0000
0030
0000
,
1000
0100
0001
0100
2000
0000
3010
0100
,
0000
0010
1000
0100
0020
0000
0030
0000
,
0001
0100
0001
0010
0002
0000
0103
2000
,
0000
3100
0001
1000
0002
0000
0003
0000
,
1000
0100
1000
0010
2000
0000
3100
0002
,
0000
0103
1000
0001
1000
0010
0100
0001
,
1000
0000
0000
1100
0000
0000
0110
0000
,
1001
0000
0000
0101
0000
0000
0110
0000
,
1001
0000
0000
1010
0000
0000
0110
0000
,
1001
0000
0000
0011
0000
0000
0110
0000
,
1000
0001
1000
0100
0010
0001
0100
0001
,
1000
0010
1000
0001
0010
0100
0010
0001
,
0100
0010
1000
0001
1000
0100
0010
0001
,
1000
0010
1000
0001
0010
0001
0100
0010
,
2000
0000
0000
0000
,
0000
0000
3002
0000
,
0103
0010
1000
0100
1000
0010
0100
0010
,
2000
0000
3002
0000
,
1003
0100
1000
0100
0001
0100
0001
0100
,
2000
0000
3010
0200
0000
0310
2000
0000
,
3001
0010
0100
1000
0001
0010
0100
1000
,
0001
0100
0002
0000
1003
0100
2000
0000
,
3001
0100
0001
0100
1000
0100
1000
0100
,
0002
0000
0013
0200
0000
0310
0002
0000
,
1003
0100
0010
0001
1000
0100
0010
0001
,
1000
0010
2000
0000
3001
0010
0002
0000
,
0203
0000
0310
1000
0100
0010
0100
0010
,
1000
0010
0001
2000
0000
3010
0100
0000
,
0020
0000
0130
0001
0010
0100
0010
0100
,
0001
0100
1000
0002
0000
0103
0010
0000
,
1000
0100
0010
0001
1000
0001
0100
0010
,
1000
0010
0100
0001
0100
0010
1000
0100
,
0010
0001
1000
0001
0010
0001
1000
0001
,
0100
0000
0110
0000
1000
0001
1000
0000
,
0001
0100
0001
0100
1000
0100
1000
0100
,
0002
0000
0013
0200
0000
0310
0002
0000
,
1003
0010
0100
0001
1000
0010
0100
0001
,
1000
0100
2000
0000
3001
0100
0002
0000
,
1003
0100
1000
0100
0001
0100
0001
0100
,
2000
0000
3010
0200
0000
0310
2000
0000
,
3001
0100
0010
1000
0001
0100
0010
1000
,
0001
0010
0002
0000
1003
0010
2000
0000
,
3200
0000
0310
0001
0100
0010
0100
0010
,
0001
0010
1000
0002
0000
0013
0100
0000
,
0020
0000
0130
1000
0010
0100
0010
0100
,
1000
0100
0001
2000
0000
3100
0010
0000
,
0001
0100
0010
1000
0001
1000
0100
0010
,
0001
0010
0100
1000
0100
0010
0001
0100
,
0020
0000
0000
0100
0230
0000
0010
0320
,
0000
1030
0100
0010
0001
0000
1001
0000
,
2000
0000
0010
0000
3100
0010
0100
0010
,
0001
0010
0001
1000
0010
0100
0010
0000
,
0200
0000
0001
0000
0310
1000
0010
0100
,
0001
0020
0000
0230
0000
0010
0310
0000
,
0002
0000
0100
0000
0013
0100
0010
0100
,
1000
0010
1000
0001
0100
0010
0100
0000
,
0020
0000
1000
0000
0130
0001
1000
0001
,
1001
0000
0000
0110
0000
0000
1001
0000
,
0000
0000
0002
0000
0000
0000
0103
0010
,
1000
0010
1000
0100
1000
0010
0100
0010
,
1000
0000
0000
1000
0000
0000
1000
0000
0100
0000
0010
0000
0001
0000
0200
0000
,
0000
0310
1000
0010
1000
0010
0001
0010
,
1000
0001
0200
0000
0301
1000
0200
0000
,
0310
0001
0010
0001
1000
0010
1000
0010
,
0100
0000
0000
0100
0000
0000
0100
0000
0000
0010
0000
0000
0010
0000
0100
0000
,
0010
1000
0001
0100
0010
1000
0100
0010
,
0200
0000
0000
0310
0001
0010
0001
1000
,
0010
1000
0001
1000
0010
0100
0001
1000
,
0100
0000
0000
0100
0000
0000
0100
0000
0010
0000
0100
0000
0010
0000
0001
0000
,
0000
0000
0100
0000
0000
0000
1000
0000
0000
0100
0000
0000
0001
0000
1000
0000
,
0001
0100
0001
0100
0010
0100
0010
0100
,
0010
1000
0010
1000
0001
1000
0001
0000
,
2001
0000
0000
0000
0000
0000
0000
0000
3100
0000
0000
0100
0000
0000
0100
0000
,
0010
0001
0100
0010
1000
0100
0010
0000
,
0001
0100
0010
0100
0001
0000
1000
0000
0020
0000
0000
2030
0000
0000
3100
0010
,
0200
0000
0000
0320
0000
0031
1000
0000
2002
0000
0000
0000
3003
0000
0000
0000
,
1000
0100
0010
0100
1000
0000
0001
0000
0020
0000
0000
0032
0000
0000
0103
0010
,
0200
0000
0000
0320
0000
1030
0001
0000
2002
0000
0000
0000
3003
0000
0000
0000
,
0001
0100
0010
1000
0001
0100
0010
1000
,
0200
0000
0010
0320
0000
0000
0031
1000
,
0010
0100
0001
0100
0010
1000
0010
1000
,
0100
0001
0100
1000
0200
0000
0310
0001
,
1000
0010
1000
0010
0100
0001
0100
0001
,
0020
0000
0100
0230
0000
0310
0001
1000
,
0020
0000
0000
0230
0000
0310
1000
0001
,
1000
1100
0101
1001
,
1000
0100
0010
0001
1000
0100
0010
0001
,
0200
0000
0010
0320
0000
0000
1030
0001
,
0010
0100
1000
0100
0010
0001
0010
0001
,
0100
1000
0100
0001
0200
0000
0310
1000
,
0001
0010
0001
0010
0100
1000
0100
1000
,
0020
0000
0100
0230
0000
0310
1000
0001
,
0020
0000
0000
0230
0000
0310
0002
0000
,
1003
0010
1000
0100
1000
0001
0010
0001
,
0200
0000
0000
0320
0000
0000
2030
0000
,
3001
0100
0001
0010
0001
1000
0100
1000
,
0020
0000
0000
0032
0000
0000
0023
0000
,
1030
0001
0100
0001
1000
0010
1000
0100
,
0010
0001
0010
0001
0010
1000
0010
1000
,
0010
0001
0010
0001
0100
0010
1000
0000
,
2002
0000
0000
0000
,
0000
0000
0000
0000
,
3003
0000
0000
0000
;

//--------------- dance-single - ----------------
#NOTES:
     dance-single:
     :
     Challenge:
     18:
     0,0,0,0,0:
0000
0000
0000
0000
,
0000
0000
0000
0000
,
0000
0000
0000
0000
,
0000
0000
0000
0000
,
1000
0000
0010
0000
0100
0000
0001
0000
2000
0000
0000
0000
3001
0000
0010
0001
,
0010
0100
1000
0001
0200
0000
0300
0000
,
0001
0000
0100
0000
0010
0000
1000
0000
0002
0000
0000
0000
1003
0000
0100
1000
,
0100
0010
0001
1000
0020
0000
0030
0000
,
0100
0000
0001
0000
1000
0000
0010
0000
0200
0000
0000
0000
0301
0000
1000
0010
,
1000
0100
0010
0001
0200
0000
0300
0000
,
0010
0000
1000
0000
0001
0000
0100
0000
0020
0000
0000
0000
1030
0000
0001
0100
,
0001
0010
0100
1000
0001
0010
0100
1000
,
0001
0000
0100
0000
0001
0000
0010
0000
0002
0000
0000
0000
0103
0000
0010
1000
,
0010
1000
0100
0010
0200
0000
0300
0000
,
1000
0000
0010
0000
1000
0000
0100
0000
2000
0000
0000
0000
3010
0000
0100
0001
,
0100
0001
0010
0100
0020
0000
0030
0000
,
0001
0000
0100
0000
0001
0000
1000
0000
0002
0000
0000
0000
0103
0000
0010
1000
,
0010
1000
0001
0010
0200
0000
0300
0000
,
1000
0000
0100
0000
1000
0000
0001
0000
2000
0000
0000
0000
3100
0000
0010
0001
,
0010
0001
0100
0010
1000
0001
1000
0001
,
1001
0000
1000
0100
0000
0100
0010
0000
,
1001
0000
0001
0100
0000
0100
0010
0000
,
1001
0000
1000
0100
0000
0010
0001
0000
,
1001
0000
0001
0100
0000
0010
1000
0000
,
0001
1000
0001
0000
0100
0000
0010
0000
1000
0000
0001
0000
0100
0000
0000
0000
,
0001
1000
0001
0000
1000
0000
0100
0000
0010
0000
0001
0000
1000
0000
0000
0000
,
0001
0100
0001
0000
0100
0000
0010
0000
1000
0000
0001
0000
0010
0000
0000
0000
,
0100
1000
0100
0000
0010
0000
0001
0000
1000
0000
0010
0000
0100
0000
0010
0000
,
0200
0000
0000
0000
,
0000
0000
0320
0000
,
1030
0001
1000
0000
0100
0000
0010
0000
0001
1000
0001
0000
0100
0000
0010
0000
,
2000
0000
3002
0000
,
1003
0010
1000
0010
0100
0001
1000
0010
,
1000
0100
1000
0000
0100
0001
0100
0000
,
0010
0001
1000
0100
0010
0001
1000
0100
,
1000
0010
0100
0000
0001
0010
0100
0000
,
0010
0001
0010
0001
1000
0010
1000
0010
,
0100
1000
0100
0000
0001
0100
0001
0000
,
0010
0100
0010
0100
1000
0001
0010
0100
,
1000
0010
1000
0000
0001
0100
0001
0000
,
1000
0010
1000
0010
0100
0001
1000
0010
,
1000
0000
0100
0000
0010
0000
0001
1000
0001
0000
1000
0000
0010
0000
0100
0000
,
0001
0010
0001
0010
0100
1000
0001
0010
,
0001
0000
0100
0000
0010
0000
1000
0001
1000
0000
0001
0000
0100
0000
0000
0000
,
0010
1000
0010
0100
0010
1000
0001
1000
,
0010
0100
0001
0100
0010
1000
0001
1000
,
0100
0010
0001
0010
0100
1000
0001
1000
,
0010
0100
0001
0000
0010
0100
1000
0000
,
0001
0010
0001
0010
0100
1000
0001
0010
,
0001
0100
0001
0000
0100
1000
0100
0000
,
0010
1000
0001
0100
0010
1000
0001
0100
,
0001
0010
0100
0000
1000
0010
0100
0000
,
0010
1000
0010
1000
0001
0010
0001
0010
,
0100
0001
0100
0000
1000
0100
1000
0000
,
0010
0100
0010
0100
0001
1000
0010
0100
,
0001
0010
0001
0000
1000
0100
1000
0000
,
0001
0010
0001
0010
0100
1000
0001
0010
,
0001
0000
0100
0000
0010
0000
1000
0001
1000
0000
0001
0000
0010
0000
0100
0000
,
1000
0010
1000
0010
0100
0001
1000
0010
,
1000
0000
0100
0000
0010
0000
0001
1000
0001
0000
1000
0000
0100
0000
0000
0000
,
0010
0001
0010
0100
0010
0001
1000
0001
,
0010
0100
1000
0100
0010
0001
1000
0001
,
0200
0000
0000
0010
0310
0000
1000
0100
,
0000
0010
0001
0000
1001
0000
1001
0000
,
0002
0000
0100
0000
0103
0010
1000
0010
,
0100
0010
1000
0010
0100
0001
0010
0000
,
0200
0000
0010
0000
0310
0001
1000
0100
,
0010
0002
0000
0203
0000
0000
0320
0000
,
2030
0000
0100
0000
3100
0010
0001
0010
,
0100
0010
0001
0010
0100
1000
0010
0000
,
0200
0000
0010
0000
0310
1000
0001
1000
,
1001
0000
0000
0110
0000
0000
1001
0000
,
1000
0001
1000
0001
2000
0000
0000
0000
0000
0000
0000
0000
3100
0000
0010
0000
,
0001
0010
0001
0000
0100
0000
0010
0000
1000
0010
1000
0000
0100
0000
0010
0000
,
0001
0000
0000
0001
0000
0000
0001
0000
0100
0000
0010
0000
0100
0000
0020
0000
,
0000
0000
1030
0000
0100
0000
0010
0001
0010
0000
0100
0000
1000
0000
0010
0000
,
0100
0000
0000
0100
0000
0000
0100
0000
0010
0000
1000
0000
0010
0000
1000
0000
,
0001
0100
0001
0000
0100
0000
0010
0000
1000
0010
1000
0000
0100
0000
0010
0000
,
0001
0000
0000
0001
0000
0000
0001
0000
0010
0000
0100
0000
0010
0000
0100
0000
,
1000
0001
1000
0000
0100
0000
0010
0000
0001
1000
0001
0000
0100
0000
0000
0000
,
0020
0000
0000
0000
0000
0000
0130
0001
0100
0000
0010
0000
1000
0000
0100
0000
,
0010
0001
0010
0000
0100
0000
1000
0000
0010
1000
0010
0000
0100
0000
0001
0000
,
1000
0000
0000
1000
0000
0000
1000
0000
0010
0000
0100
0000
0010
0000
0100
0000
,
0000
0000
0001
0000
0000
0000
1000
0000
0000
0100
0000
0000
0010
0000
0001
0000
,
1000
0010
1000
0010
1000
0000
0000
0000
0001
0010
0001
0010
0001
0000
0000
0000
,
1000
0100
1000
0100
1000
0000
0000
0000
0001
0100
0001
0100
0001
0000
0000
0000
,
2001
0000
0000
0000
0000
0000
0000
0000
3010
0000
0000
0010
0000
0000
0010
0000
,
1000
0001
0100
0000
0001
0000
1000
0000
0001
1000
0100
0000
0010
0000
0000
0000
,
0001
0100
0001
0100
1000
0000
0100
0000
0002
0000
0000
0023
0000
0000
0130
0001
,
0200
0000
0000
2300
0000
3010
0100
0000
2002
0000
0000
0000
3003
0000
0000
0000
,
1000
0100
1000
0100
0001
0000
0100
0000
2000
0000
0000
3020
0000
0000
0130
1000
,
0200
0000
0000
0302
0000
0013
0100
0000
0010
0000
0010
0000
0010
0000
0010
0000
,
0001
1000
0001
1000
0100
0010
0001
1000
,
0010
1000
0010
0000
0100
0000
0001
0100
0002
0000
0000
0000
1003
0000
0100
0000
,
0010
0001
0010
0001
0010
1000
0010
0001
,
1000
0100
1000
0000
0001
0100
0001
0000
2000
0000
0000
0000
3001
0000
0100
0000
,
0010
1000
0010
1000
0100
1000
0001
0010
,
0001
0100
0001
0100
0001
0000
0200
0000
0000
0000
0310
0000
1000
0000
0010
0000
,
2000
0000
0000
3200
0000
0310
0001
1000
,
0010
1010
0011
1001
,
1000
0001
1000
0001
0100
0010
1000
0001
,
0010
0001
0010
0000
0100
0000
1000
0100
2000
0000
0000
0000
3001
0000
0100
0000
,
0010
1000
0010
1000
0010
0001
0010
1000
,
0001
0100
0001
0000
1000
0100
1000
0000
0002
0000
0000
0000
1003
0000
0100
0000
,
0010
0001
0010
0001
0100
0001
1000
0010
,
1000
0100
1000
0100
1000
0000
0200
0000
0000
0000
0310
0000
0001
0000
0010
0000
,
0001
0000
0100
0000
0010
0000
1000
0000
0001
0000
0100
0000
0001
1000
0001
0000
,
1000
0100
0001
0100
0010
0100
0010
0100
,
1000
0000
0010
0000
0100
0000
0001
0000
1000
0000
0010
0000
1000
0001
1000
0000
,
0001
0010
1000
0010
0100
0010
0100
0010
,
0001
0000
0100
0000
0010
0000
1000
0000
0100
0000
0010
0000
0001
1000
0001
0000
,
0100
1000
0100
1000
0100
0001
0100
0001
,
0010
0000
0100
0000
1000
0000
0001
0000
0100
0000
0010
0000
1000
0001
1000
0000
,
0001
0010
0100
1000
0001
0100
0010
0000
,
2002
0000
0000
0000
,
0000
0000
0000
0000
,
3003
0000
0000
0000
;
