#TITLE:Track 2;
#SUBTITLE:Twisted Edge Extreme Snowboarding ;
#ARTIST:Zach Ohren;
#TITLETRANSLIT:;
#SUBTITLETRANSLIT:;
#ARTISTTRANSLIT:;
#GENRE:;
#CREDIT:;
#MUSIC:Track 2.ogg;
#BANNER:;
#BACKGROUND:;
#CDTITLE:;
#SAMPLESTART:0.000;
#SAMPLELENGTH:0.000;
#SELECTABLE:YES;
#OFFSET:-0.192;
#BPMS:0.000=149.239;
#STOPS:;
#BGCHANGES:;
#FGCHANGES:;

//--------------- dance-single - ----------------
#NOTES:
     dance-single:
     :
     Beginner:
     3:
     0,0,0,0,0:
0000
0000
0000
0000
,
0000
1001
0000
1000
,
0000
0001
0000
0100
,
0000
0110
0000
0010
,
0000
1000
0000
0001
,
0000
1001
0000
1000
,
0000
0010
0000
0100
,
0000
0110
0000
0010
,
0000
1000
0000
0000
,
0000
1001
0000
0001
,
0000
0100
0000
0010
,
0000
1001
0000
1000
,
0000
0010
0000
0100
,
0000
0110
0000
0010
,
0000
1000
0000
0001
,
0000
1001
0000
1000
,
0000
0010
0000
0100
,
0000
0002
0000
0000
,
0000
0003
0000
1000
,
0000
0020
0000
0000
,
0000
0030
0000
0100
,
0000
0020
0000
0000
,
0000
0030
0000
1000
,
0000
0002
0000
0000
,
0000
0003
0000
1000
,
0000
0020
0000
0030
,
1000
0000
0002
0000
,
0003
1001
0000
0000
,
0000
1000
0000
0010
,
0000
0100
0000
0010
,
0000
2000
0000
3000
,
0000
0001
0000
1000
,
0000
0001
0000
0000
,
0000
0000
0000
2000
,
0000
0000
0000
3000
,
0000
0000
0000
0002
,
0000
0000
0000
0003
,
0000
0000
0000
0200
,
0000
0000
0000
0300
,
0000
0000
0000
0010
,
0000
1000
0000
0001
,
0000
1001
0000
1000
,
0000
0010
0000
0100
,
0000
0110
0000
0010
,
0000
1000
0000
0001
,
0000
1001
0000
1000
,
0000
0010
0000
0100
,
0000
1001
0000
0001
,
0000
0010
0000
0100
,
0000
0220
0000
0000
,
0000
0330
0000
0100
,
0000
0001
0000
1000
,
0000
0010
0000
0100
,
0000
0220
0000
0000
,
0000
0330
0000
0100
,
0000
0002
0000
0000
,
0000
0003
0000
0100
,
0000
0010
0000
1000
,
0000
0001
0000
0100
,
0000
0010
0000
1000
,
0000
0001
0000
1000
,
0000
1001
0000
0000
,
0000
0001
0000
0000
,
0000
0100
0000
0010
,
0000
1000
0000
0000
,
0000
0001
0000
1000
,
0000
0010
0000
0100
,
0000
1001
0000
0001
,
0000
0010
0000
0100
,
0000
0110
0000
0010
,
0000
0001
0000
0100
,
0000
1001
0000
0010
,
0000
1000
0000
0000
,
0000
1001
0000
0000
;

//--------------- dance-single - ----------------
#NOTES:
     dance-single:
     :
     Easy:
     6:
     0,0,0,0,0:
0000
0000
0000
0000
,
0000
1001
0001
0200
,
0300
0010
1000
0001
,
0001
1001
1000
0020
,
0030
1000
0100
0010
,
0010
0011
0001
0200
,
0300
0010
1000
0001
,
0100
0110
0010
2000
,
3000
0001
0100
0010
,
1000
1001
0001
0100
,
0100
0010
0010
1000
,
0001
1001
1000
0010
,
0010
0100
0001
0010
,
0100
1100
1000
0001
,
0001
0100
0100
0010
,
1000
1010
0010
0100
,
0100
0001
1000
0010
,
1000
0002
0100
0100
,
0000
1003
0010
0100
,
0001
2001
0010
0010
,
0000
3010
0100
0001
,
1000
2001
0001
0001
,
0000
3010
0100
0001
,
0001
0101
0100
0010
,
1000
0001
0100
0010
,
0010
2000
0001
3001
,
0200
0310
2000
0001
,
3100
0010
1000
0001
,
0001
2000
0000
3010
,
0100
0120
0000
1030
,
0001
2000
0000
3100
,
0010
0100
1000
0010
,
0100
0001
0020
0130
,
0000
1000
0001
1000
,
0010
0100
0001
0010
,
0001
0101
0100
0010
,
1000
0000
0100
0000
0020
0000
0000
0031
,
0000
1000
0001
0100
,
0010
1000
0100
0010
,
0001
1001
0100
0010
,
1000
0001
0010
0100
,
1000
1001
0001
0100
,
0100
0010
1000
0001
,
0100
0110
0010
1000
,
1000
0001
0100
0010
,
1000
1001
0001
0100
,
0100
0010
0010
1000
,
0100
0011
0001
0100
,
0100
0010
1000
0001
,
2000
0001
0001
0001
,
3100
0010
1000
1001
,
0001
2000
0010
3100
,
0010
0002
0003
0010
,
0100
1001
0010
0100
,
0001
0010
0100
1000
,
1000
0002
0100
0103
,
0010
0100
0001
1000
,
1000
0001
0010
0001
,
0100
0010
1000
0001
,
0010
0011
0001
0100
,
1000
0100
0001
0100
,
0010
1010
1000
0001
,
0100
0010
0100
0001
,
0010
1100
1000
0100
,
0010
0001
0100
0010
,
1000
1010
0010
0200
,
0300
0001
0100
1000
,
0100
0101
0001
0020
,
0030
0100
0010
0001
,
0001
1001
1000
0020
,
0030
0100
0001
0100
,
0100
0110
0010
2000
,
3000
0001
0100
0010
,
1000
0110
0000
0000
;

//--------------- dance-single - ----------------
#NOTES:
     dance-single:
     :
     Medium:
     11:
     0,0,0,0,0:
0000
0000
0000
0000
,
0000
0000
0000
1001
0000
1000
0010
0000
0100
0020
0000
0000
,
1030
0000
1000
0200
0000
0000
0310
0000
0001
1000
0000
0000
,
0010
0000
0000
1010
0000
1000
0100
0000
0010
0002
0000
0000
,
0103
0000
0010
2000
0000
0000
3001
0000
0100
0010
0000
0000
,
0010
0000
0000
1010
0000
1000
0100
0000
0010
0002
0000
0000
,
0103
0000
0010
1000
0000
0100
0010
0000
0001
0100
0000
0000
,
0010
0000
0000
0101
0000
0001
0010
0000
0100
2000
0000
0000
,
3010
0000
0100
0001
0000
0000
0100
0010
0100
0001
0010
0001
,
1000
0000
0000
1010
0000
0000
0010
0000
1000
0010
0000
0000
,
0001
0000
0010
1000
0000
0000
0001
0000
1000
0100
0000
0000
,
0010
0001
0010
0100
0000
0000
1000
0000
0010
0001
0000
0000
,
0010
0000
0100
0001
0000
0000
1000
0010
1000
0001
0100
0001
,
1000
0000
0000
1001
0000
0000
0001
0000
0100
0010
0000
0000
,
1000
0000
0001
1000
0000
0000
1010
0000
1000
0100
0000
0000
,
0010
0000
0000
0011
0000
0000
0001
0000
0100
1000
0000
0000
,
0100
0000
0001
0010
0000
0000
0100
0000
0000
1000
0001
1000
,
0010
0100
0010
2000
0000
0000
3002
0000
0000
0103
0000
0000
,
0001
0010
0100
1000
0001
0000
1000
0000
,
0010
1000
1020
0000
1030
0000
0001
0100
,
0010
0000
1000
0100
0010
0000
0001
0100
,
0001
0010
1002
0000
0203
0000
0310
0000
,
1000
0100
0010
0100
1000
0000
0001
0000
,
0100
0010
2010
0000
3200
0000
1300
0001
,
1000
0000
0000
0000
0000
0000
0001
0000
0000
0100
0000
0000
0001
0000
0000
0000
0000
0000
1000
0000
0100
0000
1000
0000
,
0001
0010
0001
2000
0000
0000
0010
0000
0000
3100
0000
0000
,
0001
0010
0100
1000
0001
0000
1000
0000
,
0001
0000
1000
0010
0001
0010
1000
0100
,
0010
0100
2000
0000
3001
0000
0100
0010
,
1000
0001
0021
0000
0230
0000
0310
0000
,
0010
0000
1000
0001
1000
0000
0010
0000
,
1000
1000
0001
0010
1000
0010
0001
0100
,
0010
1000
0100
0010
0002
0000
1003
0010
,
0100
0001
0100
0000
0010
0000
1000
0100
,
0002
0103
1000
0001
,
0100
0000
1010
0000
1000
0000
0001
0010
,
2000
0000
3010
0000
0002
0000
0000
0103
,
0010
0000
1010
0000
1000
0000
0001
0100
,
2000
3001
0010
0100
,
0001
0000
1010
0000
1000
0000
0001
0100
,
0010
0000
0000
1000
0100
0010
0001
0010
0100
1000
0000
0000
,
0001
0000
0000
1001
0000
0000
1010
0000
1000
0100
0000
0000
,
0010
0000
0000
0001
0000
0000
0100
0000
0010
1000
0000
0000
,
0001
0000
0000
0101
0000
0000
0100
0000
0010
1000
0000
0000
,
0100
0000
0010
0001
0000
0000
0100
0000
0000
0010
0000
0000
,
1000
0000
0000
1100
0000
0000
1000
0000
0001
0100
0000
0000
,
0010
0000
1000
0100
0000
0000
0010
0000
0000
0001
0000
0010
,
0001
0000
0100
0010
0000
0000
1010
0000
0000
0100
0000
0000
,
0001
0000
0100
0010
0000
0000
1000
0000
0000
0100
0000
0000
,
0010
0012
1000
0013
,
0100
0010
1000
0001
1000
0000
0001
0010
,
0001
0000
0102
0000
1000
0000
0013
0100
,
0010
1000
0200
0000
0000
0000
1300
0010
,
0100
0001
0200
0000
0010
0000
1000
0000
,
0301
0010
0001
0100
0010
0000
1000
0100
,
1000
0000
2001
0000
0001
0000
3100
0100
,
0100
0000
0010
1000
0001
0000
0100
0000
,
0010
0000
0000
1000
0010
1000
0001
0010
0001
1000
0010
1000
,
0001
0000
0010
0000
0001
0000
1000
0000
0000
0100
0000
0000
0010
0000
0000
0100
0000
0000
1000
0000
0000
0001
0000
0000
,
0100
0000
0110
0010
1000
0100
0001
0100
,
1000
0010
0100
0001
0010
0100
1000
0010
,
0100
0001
1000
0010
0100
0001
0100
0010
,
1000
1000
0001
0010
0001
0100
0010
1000
,
0001
0100
0001
0010
1000
0010
0001
0100
,
0010
1000
0100
0000
0010
0000
0001
0000
,
0100
0000
0000
0101
0000
0010
1000
0010
1000
0010
0000
0000
,
1010
0000
1000
0200
0000
0000
0310
0000
0001
0100
0000
0000
,
0010
0000
0000
1010
0000
1000
0001
1000
0010
1000
0000
0000
,
0101
0000
0001
1000
0000
0000
0010
0000
0100
0001
0000
0000
,
0010
0000
0000
0011
0000
0001
0100
0010
1000
0001
0000
0000
,
1000
0000
0001
0200
0000
0000
1300
0000
0100
0001
0000
0000
,
0100
0000
0000
0011
0000
0001
0010
0100
1000
0010
0000
0000
,
0100
0000
0001
0010
0001
0100
0010
1000
0100
0010
0001
1000
,
0010
1000
0001
0010
0000
0000
0000
0000
0000
0000
0000
0000
;

//--------------- dance-single - XO+ ----------------
#NOTES:
     dance-single:
     XO+:
     Hard:
     15:
     0,0,0,0,0:
0000
0000
0000
0000
,
0000
0000
0000
1001
0000
1000
0100
0001
0100
1000
0000
0000
,
1010
0000
0010
0100
1000
0100
0010
0000
1000
0002
0000
0000
,
1003
0010
0100
0001
0000
1000
0100
0001
0100
1000
0000
0000
,
1001
0000
0001
0010
1000
0010
0001
0000
0100
0002
0000
0000
,
0013
0000
0000
1001
0000
1000
0001
0010
1000
0010
0000
0000
,
0011
0000
0001
0100
1000
0100
0001
0000
0100
0010
0000
1000
,
0001
0100
0010
2000
3000
0010
0100
1000
0100
0010
0000
0000
,
1010
0000
1000
0020
0000
0000
1030
0100
1000
0001
0010
0001
,
1000
0010
0100
0001
0000
0000
0110
0000
0010
0001
0010
0100
,
0001
0000
0001
0010
0000
0000
0110
0000
0100
1000
0010
0001
,
0010
1000
0001
0100
0000
0000
0110
0000
0010
1000
0000
0000
,
1100
0000
1000
0001
0000
0000
0001
0010
1000
0001
0100
1000
,
0001
0010
0100
0010
0000
0000
0011
0000
0001
0100
0000
0000
,
0110
0000
0010
1000
0000
0000
1100
0000
1000
0001
0100
1000
,
0100
0010
1000
0001
0000
0000
0101
0000
0100
0010
0000
0000
,
1010
0000
1000
0001
0000
0000
1000
0100
0010
0001
0100
0010
,
0001
0010
1000
2010
0000
0000
0001
0000
0000
3100
0000
0000
,
1000
0100
0010
0001
0100
0010
1000
0001
,
1000
0010
1000
0010
2000
0000
0000
0000
0001
0000
0000
0000
3010
0000
1000
0000
,
0100
0000
1000
0000
0001
0000
1000
0000
0010
0000
0000
0000
1000
0010
1000
0000
,
0001
0100
0001
0000
0102
0000
0000
0000
0100
0000
0000
0000
0013
0000
0000
0000
,
0100
0000
0000
0001
0000
0000
0100
0000
0000
1000
0000
0000
0100
0000
0000
0000
0000
0000
0001
0000
0010
0000
0001
0000
,
1000
0000
0100
0000
1000
0000
0010
0000
0000
0100
0000
0000
0002
0000
0000
0000
0000
0000
0103
0000
0000
0010
0000
0000
,
1000
0000
0000
0000
0000
0000
0001
0000
0000
0100
0000
0000
1000
0000
0000
0000
0000
0000
0100
0000
0001
0000
0100
0000
,
0010
1000
0100
0020
0000
0000
0001
0000
0000
0001
0000
0000
,
0130
0000
0000
0010
0000
0000
0001
0000
0000
0010
0000
0000
0100
0000
0000
0000
0000
0000
1000
0000
0010
0000
1000
0000
,
0001
0000
0010
0000
0001
0000
1000
0000
0000
0100
0000
0000
0001
0000
0000
0100
0000
0000
1000
0000
0000
0010
0000
0000
,
0001
0010
0100
0001
1000
0000
0100
0001
,
0100
0000
0000
0010
0000
0000
0012
0000
0000
0000
0000
0000
1000
0000
0000
0000
0000
0000
0103
0000
0010
0000
0001
0000
,
1000
0100
0020
0001
0031
1000
1001
0000
,
0001
1000
0001
1000
0001
0000
0100
0000
1000
0000
0100
0000
0001
0000
0010
0000
,
1000
0000
0010
0000
0001
0000
1000
0000
0200
0000
0000
0000
0310
0001
0010
0001
,
0010
0001
0010
0001
2000
0000
0000
0000
3010
0000
0000
0000
1000
0000
0001
0000
,
2000
0000
0000
0100
0000
0000
3001
0000
0010
0100
0010
0001
,
1000
0000
1010
0000
0010
0000
1000
0100
,
0020
0130
0020
0130
,
0001
0000
0101
0000
0001
1000
0100
0001
,
0200
0000
0000
1000
0000
0000
1300
0000
0001
0010
0001
0100
,
0010
0000
1010
0000
1000
0000
0001
0100
,
0010
0000
0000
1000
0100
0001
0100
0010
0100
1000
0001
0100
,
1000
0100
0010
1010
0000
0000
1000
0000
0100
0001
0100
0010
,
0100
0000
1000
0001
0000
0000
0101
0000
0001
1000
0100
0001
,
1000
0010
0001
0010
0000
0000
0011
0000
0001
0100
0000
0000
,
0110
0000
0010
1000
0000
0000
0001
0100
1000
0001
0010
1000
,
0001
0100
0010
0100
0000
0000
0101
0000
0001
1000
0000
0000
,
1100
0000
1000
0010
0000
0000
0110
0000
0100
0001
0010
1000
,
0001
0100
1000
0001
0000
0000
0101
0000
0001
0010
0000
0000
,
1100
0000
1000
0001
0000
0000
1000
0010
1000
0001
0100
1000
,
0001
0010
0100
0002
0000
0000
1000
0000
0000
0010
0000
0000
,
1003
0100
0010
0001
1000
0010
0110
0100
,
0001
0000
0000
0000
2001
0000
0000
0000
3010
0000
0000
0000
1000
0001
1000
0000
,
0001
0100
0010
0100
0002
0000
0000
0000
1003
0000
0000
0000
0001
0100
0010
0000
,
1000
0001
1000
0000
2001
0000
0000
0000
0010
0000
0000
0000
3100
0000
0000
0000
,
1000
0000
0000
0010
0000
0000
0100
0000
0000
0001
0000
0000
1000
0000
0000
0000
0000
0000
0001
0000
0010
0000
0100
0000
,
1000
0010
1000
0000
0001
0000
0100
0000
0010
0000
1000
0000
0100
0000
0010
0000
,
0200
0000
0000
0000
1300
0000
0010
0000
1000
0000
0000
0000
0001
0010
0001
0010
,
0001
0000
0100
0000
0010
0000
1000
0000
0000
0100
0000
0000
0001
0000
0100
0000
0010
0000
0001
0000
0000
1000
0000
0000
,
0010
0000
0100
0000
0001
0000
0100
0000
0000
0010
0000
0000
0100
0000
0000
0100
0000
0000
1000
0000
0000
1000
0000
0000
,
0001
0010
0001
0000
1000
0000
0010
0000
0100
0000
1000
0000
0100
0000
0010
0000
,
1000
0001
0100
0010
0001
0010
1000
0100
,
0010
0000
0001
0000
1001
0000
0000
0000
1000
0000
0100
0000
0010
0001
0010
0000
,
0002
0100
0103
1000
0100
0010
1000
0100
,
1000
0001
1000
0100
1000
0000
0010
0000
0001
0000
0010
0000
1000
0000
0100
0000
,
0010
0000
0000
1000
0000
0000
0010
0000
0100
0000
1000
0000
0001
0000
0010
0000
0100
0000
1000
0000
0010
0000
0100
0000
,
0001
0010
0100
1000
0000
0001
0010
1000
0010
0001
0000
0000
,
0011
0000
0010
0100
0001
0100
1000
0000
0010
1000
0000
0000
,
0100
0010
0001
1000
0000
0001
0100
1000
0100
0001
0000
0000
,
0011
0000
0010
0100
0001
0100
1000
0000
0010
1000
0000
0100
,
0010
0001
1000
0001
0000
0001
0010
1000
0010
0001
0000
0000
,
0101
0000
0000
0000
0001
0000
0100
0000
1000
0000
0100
0000
0001
0000
0000
0000
0010
0000
0001
0000
0000
0010
0000
0000
,
0100
1000
0010
1000
0000
0001
1000
0100
0001
0100
0000
0000
,
1100
0000
1000
0001
0010
1000
0001
0100
1000
0001
0010
0100
,
1000
0001
1000
1001
0000
0000
0000
0000
0000
0000
0000
0000
;

//--------------- dance-single - XO+ FS BU+ SJ ----------------
#NOTES:
     dance-single:
     XO+ FS BU+ SJ:
     Challenge:
     17:
     0,0,0,0,0:
0000
0000
0000
0000
,
0000
0000
0000
1001
0000
1000
0100
0001
0100
1000
0000
0000
,
1010
0000
0000
0000
1000
0000
0001
0000
0010
0000
0100
0000
1000
0000
0000
0000
0010
0000
2000
0000
0000
3001
0010
0100
,
1000
0010
1000
1001
0000
0001
0100
1000
0100
0001
0000
0000
,
0101
0000
0000
0000
0001
0000
1000
0000
0000
0001
0010
0100
1000
0000
0000
0000
0010
0000
2000
0000
0000
0000
3001
0000
,
0010
0100
1000
1100
0000
1000
0010
0001
0010
1000
0000
0000
,
1100
0000
0000
0000
1000
0000
0100
0000
0001
0000
0100
0000
0010
0000
0000
0000
0001
0000
1000
0000
0000
0100
0010
0001
,
1000
0100
1000
1001
0000
0001
1000
0100
0001
0100
0000
0000
,
1100
0000
0000
0000
1000
0000
0001
0000
0000
1000
0100
1000
0001
0000
0100
0000
0010
0000
1000
0000
0100
0000
1000
0000
,
0001
0010
0001
0011
0000
0000
0010
0000
0001
0100
0010
0000
,
1010
0000
0000
0000
1000
0000
0100
0000
0000
0000
0000
0000
0110
0000
0000
0000
0010
0000
0001
0000
1000
0100
1000
0100
,
1000
0001
0010
0011
0000
0000
0101
0000
0001
1000
0000
0000
,
1100
0000
0000
0000
0100
0000
1000
0000
0000
0001
0010
0100
1000
0000
0100
00M0
0100
0000
0001
0000
0010
0M00
0010
0000
,
1000
0001
0010
0011
0000
0000
0101
0000
0001
1000
0000
0000
,
1100
0000
1000
0010
0000
0000
1010
0000
1000
0100
0001
0100
,
1000
0010
1000
1002
0000
0000
0013
0000
0001
0100
0000
0000
,
0110
0000
0000
0000
0010
0000
1000
0000
0000
0001
0010
0100
1000
0000
0010
0000
1000
0000
0100
00M0
0100
0000
0001
0000
,
0010
0M00
0010
0000
1000
0000
2010
0000
0000
0000
0000
0000
3002
0000
0000
0000
0000
0000
0013
0000
0000
0000
0000
0000
,
0001
0000
0100
0000
1000
0000
0100
0000
0001
0000
1000
0100
0010
0000
0001
0000
,
1000
0010
0100
0001
2000
0000
0000
0000
3200
0000
0000
0000
1300
0000
0010
0000
,
0100
0000
0001
0010
0100
0000
1000
0000
0001
0000
1000
0001
0010
0010
1000
0100
,
0010
0001
0100
0010
2000
0000
0000
0000
3002
0000
0000
0000
2003
0000
0000
0000
,
3100
0000
0000
0010
0000
0000
1000
0000
0000
0010
0000
0000
0001
0000
0000
0100
0000
0000
0101
0000
0001
0000
1000
0000
,
0100
0010
0001
0000
0101
0000
0100
0010
2000
0000
0001
0000
3001
0000
0100
0000
,
1000
0000
1000
0000
0001
0000
0010
0000
1000
0000
0001
0000
1000
0010
0100
0001
,
1000
0100
0010
0001
2000
0000
0000
0000
0001
0000
0000
0000
3010
0000
0000
0000
,
0001
0000
0000
0000
0000
0000
1000
0000
0000
0100
0000
0000
0020
0000
0000
0000
0000
0000
0001
0000
0000
0000
0000
0000
0032
0000
0000
0000
0000
0000
0100
0000
0000
0000
0000
0000
0103
0000
0000
0000
0010
0000
0000
0000
1000
0000
0000
0000
,
0001
0010
0100
0000
1000
0010
0100
0001
0010
0100
0001
0100
0010
0001
1000
0001
,
0010
0100
0001
0100
2000
0000
0001
0000
3001
0000
0000
0000
1000
0001
0100
0010
,
1000
0000
0000
0010
0000
0000
0100
0000
0000
0001
0000
0000
0020
0000
0000
0000
0000
0000
0000
0000
0000
0000
0000
0000
0130
0000
0000
0000
0000
0000
0000
0000
0000
0000
0000
0000
1000
0000
0000
0000
0100
0000
0000
0000
0010
0000
0000
0000
,
0001
0000
0000
0000
1000
0000
0100
0000
0000
0000
0010
0000
0002
0000
0000
0000
0000
0000
1000
0000
0000
0000
0000
0000
1003
0000
0000
0000
0000
0000
0100
0000
0000
0010
0000
0000
0002
0000
0000
0000
0000
0000
0000
0000
0000
0000
0000
0000
,
1003
0010
1000
0010
1000
0100
0010
0001
1000
0010
0100
0001
1000
0100
1000
0100
,
0001
0100
0010
0001
1000
0010
0100
0001
2000
0000
3001
0100
0010
1000
0010
0100
,
0002
0000
1003
0100
2000
0000
0000
0000
3001
0000
0000
0000
2000
0000
3200
0000
,
0320
0000
0000
0031
0000
0000
2000
0000
0000
3001
0100
0010
,
1000
0000
0000
1001
0000
0000
0001
0000
0010
0001
0100
0010
,
2000
0000
0000
0000
0000
0000
3100
0000
0000
0000
0000
0000
0020
0000
0000
0000
0000
0000
0031
0000
0000
0000
1000
0100
,
1000
0000
0000
0000
1000
0000
0010
0000
0000
0000
0000
0000
1000
0000
0000
0000
0001
0000
2000
0000
0000
0100
0000
0000
,
3200
0000
0000
0310
0000
0000
0001
0000
0000
1000
0100
0010
,
0001
0000
0000
0000
1000
0100
1000
0000
0000
0000
0000
0000
0001
0000
0000
0000
0010
0000
0100
0000
0000
1000
0000
0000
,
0002
0000
0000
0000
0000
0000
1003
0000
0010
0000
0100
0000
0001
0000
1000
0000
0100
0000
1000
0010
0100
0001
1000
0100
,
0010
0001
0010
0100
1000
0001
1000
0000
0000
0000
0000
0000
1001
0000
0000
0000
0001
0000
0010
0000
1000
0000
0010
0000
,
0001
0000
0000
0000
0100
0000
0001
0000
0000
0000
0000
0000
0011
0000
0000
0000
0001
0000
1000
0000
0010
0000
0100
0001
,
0100
0001
1000
2100
0000
0000
3100
0000
0010
0001
0000
0000
,
0101
0000
0000
0000
0001
0000
0010
0000
0000
0100
1000
0001
1000
0000
0100
0000
0001
0000
0100
0000
0010
0000
0001
0000
,
1000
0100
0010
0012
0000
0000
1003
0000
0001
0100
0000
0000
,
1010
0000
1000
0001
0000
0000
0011
0000
0010
0100
1000
0010
,
0100
0000
0001
1000
0100
0000
0210
0000
0000
0000
0000
0000
0310
0000
0000
0000
0100
0000
1000
0000
0000
0000
0000
0000
,
1010
0000
0000
0000
0010
0000
0100
0000
0000
0001
1000
0001
1000
0000
0010
0000
0100
0000
0001
0000
0010
0M00
0010
0000
,
1000
0000
0100
00M0
0100
0000
0102
0000
0000
0000
0000
0000
2003
0000
0000
0000
0000
0000
3001
0000
0000
0000
0000
0000
,
0001
0000
0010
0000
1000
0000
0010
0000
0001
0000
1000
0010
0100
0000
0001
0000
,
1000
0000
0000
0000
2010
0000
0000
0000
3020
0000
1000
0000
1030
0100
1000
0000
,
0001
0000
1000
0100
0020
0000
0000
0000
0031
0000
1000
0001
0100
0100
1000
0010
,
0100
0001
0010
0100
2000
0000
0000
0000
3002
0000
0000
0000
2003
0000
0000
0000
,
3010
0000
0000
0000
0000
0000
0010
0000
0000
1000
0000
0000
0001
0000
0000
0000
0000
0000
0100
0000
0000
0000
0000
0000
0001
0000
0000
0000
0000
0000
1000
0000
0000
0000
0000
0000
1010
0000
0000
0000
0010
0000
0000
0000
1000
0000
0000
0000
,
0010
0100
0001
0000
0011
0000
0010
0001
2000
0000
0001
0000
3001
0000
0010
0000
,
1000
0000
0010
0000
0001
0000
0100
0000
0001
0000
1000
0000
0001
0100
0010
1000
,
0001
0000
0000
0010
0000
0000
0100
0000
0000
1000
0000
0000
0001
0000
0000
0100
0000
0000
0001
0000
0000
0100
0000
0000
0010
0000
0000
0000
1000
0000
0000
0000
0010
0000
0000
0000
1000
0000
0000
0100
0000
0000
0010
0000
0000
0001
0000
0000
,
1000
0000
0000
0000
0010
0000
0000
0000
1000
0000
0000
0000
0001
0000
0000
0010
0000
0000
0010
0000
0000
1000
0000
0000
0001
0000
0000
0100
0000
0000
0100
0000
0000
1000
0000
0000
0001
0000
0000
0100
0000
0000
0100
0000
0000
0010
0000
0000
,
0001
0100
0010
0000
1000
0100
0010
0001
0010
1000
0010
0001
1000
0100
0010
0001
,
0010
0100
0001
0100
1000
0001
1000
0100
0010
0001
0010
1000
0010
0001
1000
0100
,
1000
0100
0010
0001
2000
0000
3010
0000
0100
0001
0100
0010
1000
0100
1000
0000
,
0002
0000
0000
0000
0000
0000
0013
0000
0000
0000
0000
0000
0100
0000
0000
1000
0000
0000
0100
0000
0000
1000
0000
0000
0100
0000
0000
0100
0000
0000
0001
0000
0000
1000
0000
0000
0001
0000
0000
0000
0010
0000
0000
0000
0100
0000
0000
0000
,
1000
0100
1000
0100
1000
0010
0100
1000
0100
0010
1000
0001
0100
0010
0001
0010
,
1000
0000
0000
0010
0000
0000
0100
0000
0000
0001
0000
0000
1000
0000
0000
0000
0100
0000
0000
0000
1000
0000
0000
0000
0001
0000
0000
0000
0100
0000
0000
0000
0010
0000
0000
0000
1000
0000
0000
0000
0100
0000
0000
0000
0010
0000
0000
0000
,
0001
0100
0001
0011
0000
0010
0100
1000
0010
0002
0000
0000
,
0013
0000
0000
0000
0000
0000
1000
0000
0100
0000
0010
0000
0001
0000
0000
0000
1000
0000
0100
0000
0000
0100
0010
0001
,
0010
0100
1000
1001
0000
0001
1000
0010
0001
0020
0000
0000
,
0130
0000
0000
0000
0001
0000
0010
0000
0000
0100
1000
0001
0200
0000
0000
0000
0301
0000
0011
0000
0000
0000
0100
0000
,
1000
0010
0100
0101
0000
0001
0010
1000
0010
0001
0000
0000
,
0101
0000
0000
0000
0001
0000
0100
0000
0010
0000
1000
0000
0001
0000
0000
0000
1000
0000
0001
0000
0000
1000
0100
0010
,
0001
0010
0100
1100
0000
1000
0010
0001
0010
0100
0000
0000
,
0101
0000
0000
0000
0001
0000
0020
0000
0000
0130
1000
0001
1000
0000
0010
0000
0100
0000
0001
0000
0010
0000
0100
0000
,
1000
0010
0100
0101
0000
0000
0000
0000
0000
0000
0000
0000
;

//--------------- dance-single - XO+ FS+ BU+ BR RH ----------------
#NOTES:
     dance-single:
     XO+ FS+ BU+ BR RH:
     Edit:
     18:
     0,0,0,0,0:
0000
0000
0000
0000
,
0000
0000
0000
1001
0000
1000
0100
0001
0100
2000
0000
0000
,
3011
0000
0000
0000
1000
0000
0001
0000
0010
0000
0100
0000
1000
0000
0000
0000
0010
0000
2000
0000
0000
3001
0010
0100
,
1000
0010
1000
1001
0000
0001
0100
1000
0100
0001
0000
0000
,
1100
0000
0000
0000
0001
0000
1000
0000
0000
0001
0010
0100
1000
0000
0000
0000
0010
0000
2000
0000
0001
0000
3001
0000
,
0020
0100
0130
1010
0000
1000
0010
0001
0010
2000
0000
0000
,
3011
0000
0000
0000
1000
0000
0100
0000
0001
0000
0100
0000
0010
0000
0000
0000
0001
0000
1000
0000
0000
0100
0010
0001
,
1000
0100
1000
0011
0000
1000
0100
0001
0100
2000
0000
0000
,
3101
0000
0000
0000
1000
0000
0001
0000
0000
1000
0100
1000
0001
0000
0100
00M0
0100
0000
1000
0000
0010
0M00
0010
0000
,
0001
1000
0010
1100
0000
0000
0001
0000
0001
0100
0010
1000
,
0011
0000
0000
0000
1000
0000
0001
0000
0000
0000
0000
0000
1100
0000
0000
0000
0001
0000
1000
0000
0001
0100
0010
1000
,
0001
0000
0100
00M0
0100
0000
1010
0000
0000
0000
0000
0000
0101
0000
0000
0000
0001
0000
1000
0000
0000
0000
0000
0000
,
1100
0000
0000
0000
0001
0000
1000
0000
0000
0001
0010
0100
1000
0000
0100
00M0
0100
0000
0001
0000
0010
0M00
0010
0000
,
1000
0001
1000
0011
0000
0000
1100
0000
0001
1100
0000
0000
,
1010
0000
0001
1000
0000
0000
1010
0000
1000
0100
0001
0100
,
1000
0100
0010
0001
0100
0010
1100
0000
0000
0000
0000
0000
0011
0000
0000
0000
0001
0000
0100
0000
0000
0000
0000
0000
,
1010
0000
0000
0000
0010
0000
1000
0000
0000
0001
0010
0100
1000
0000
0010
0000
1000
0000
0100
00M0
0100
0000
0001
0000
,
0010
0M00
0010
0000
1000
0000
2010
0000
0000
0000
0000
0000
3002
0000
0000
0000
0000
0000
0013
0000
0000
0000
0000
0000
,
0001
0000
0100
0000
1000
0000
0100
0000
0001
0000
1000
0100
0010
0000
0001
0000
,
1000
0010
0100
0001
2010
0000
0000
0000
3200
0000
0010
0000
1300
0000
0010
0000
,
0100
0000
0001
0010
0100
0000
1000
0000
0001
0000
1000
0001
0010
0010
1000
0100
,
0010
0001
0100
0010
2100
0000
0000
0000
3002
0000
0000
0000
2103
0000
0000
0000
,
3100
0000
0000
0000
0000
0000
0010
0000
0000
1000
0000
0000
0100
0000
0000
0000
0000
0000
0010
0000
0000
0000
0000
0000
0001
0000
0000
0000
0000
0000
0100
0000
0000
0000
0000
0000
0011
0000
0000
0000
1000
0000
0000
0000
0001
0000
0000
0000
,
0100
00M0
0100
0000
1000
0000
0000
0000
0011
0000
0000
0000
0100
00M0
0100
0000
2000
0000
0000
0000
0001
0000
0000
0000
3001
0000
0000
0000
0100
0000
0000
0000
,
0100
0000
0000
0000
1000
0000
0000
0000
0001
0000
0000
0000
0010
0000
0000
0000
1000
0000
0000
0000
0001
0000
0000
0000
1000
0000
0010
0000
0100
0001
0100
0000
,
0001
0000
0010
0000
0100
1000
0001
0000
2100
0000
0000
0000
0000
0000
0000
0000
0001
0000
0000
0000
0000
0000
0000
0000
3010
0000
0000
0000
0000
0000
0000
0000
,
0002
0000
0000
0000
0000
0000
1003
0000
0000
0100
0000
0000
0020
0000
0000
0000
0000
0000
0001
0000
0000
0000
0000
0000
0032
0000
0000
0000
0000
0000
1000
0000
0000
0000
0000
0000
0103
0000
0000
0000
0010
0000
0000
0000
1000
0000
0000
0000
,
0001
0000
0010
0M00
0010
0000
0000
0000
1010
0000
0001
0000
0100
0000
0001
0000
0010
0000
0100
0000
0001
0000
0100
0000
0010
0000
0001
0000
1000
0000
0001
0000
,
0010
0000
0100
0000
0001
0000
0100
0000
2000
0000
0000
0000
0001
0000
0000
0000
3001
0000
0000
0000
0000
0000
0000
0000
0100
00M0
0100
0000
1000
0000
0001
0000
,
0010
0000
0000
0010
0000
0000
1000
0000
0000
0001
0000
0000
2200
0000
0000
0000
0000
0000
0000
0000
0000
0000
0000
0000
3301
0000
0000
0000
0000
0000
0000
0000
0000
0000
0000
0000
0001
0000
0000
0000
0010
0000
0000
0000
0100
0000
0000
0000
,
1000
0000
0000
0000
1000
0000
0100
0000
0000
0000
0010
0000
0002
0000
0000
0000
0000
0000
1000
0000
0000
0000
0000
0000
1003
0000
0000
0000
0000
0000
0001
0000
0000
1000
0000
0000
0012
0000
0000
0000
0000
0000
0000
0000
0000
0000
0000
0000
,
1003
0010
1000
0010
1100
0010
0100
0100
1000
0001
0100
0100
1000
0100
1000
0100
,
0001
0100
0010
0001
1000
0010
0100
0100
2000
0000
3001
0100
0010
0010
0001
1000
,
0001
0010
0100
1000
0002
0000
0000
0000
1103
0000
0000
0000
2000
0000
3200
0000
,
0320
0000
0000
0031
0000
0000
2000
0000
0000
3001
0100
0010
,
1000
0000
0000
1001
0000
0000
0001
0000
0010
0001
0100
0010
,
2000
0000
0000
0000
0000
0000
3100
0000
0000
0000
0000
0000
0020
0000
0000
0000
0000
0000
0031
0000
0000
0000
1000
0100
,
1000
0000
0000
0000
1000
0000
0010
0000
0000
0000
0000
0000
1000
0000
0000
0000
0001
0000
2000
0000
0000
0100
0000
0000
,
3200
0000
0000
0310
0000
0000
0001
0000
0000
1000
0100
0010
,
0001
0000
0000
0000
1000
0100
1000
0000
0000
0000
0000
0000
0001
0000
0000
0000
0010
0000
0100
0000
0000
1000
0000
0000
,
0002
0000
0000
0000
0000
0000
1003
0000
0010
0000
0100
0000
0001
0000
1000
0000
0100
0000
1000
0010
0100
0001
1000
0100
,
0010
0001
0010
0100
1000
0001
1100
0000
0000
0000
0000
0000
0011
0000
0000
0000
0001
0000
0010
0000
1000
0000
0010
0000
,
0001
0000
0000
0000
0100
0000
0001
0000
0000
0000
0000
0000
0011
0000
0000
0000
0001
0000
1000
0000
0010
0000
1000
0001
,
1000
0000
0100
00M0
0100
0000
0012
0000
0000
0000
0000
0000
0103
0000
0000
0000
0001
0000
1010
0000
0000
0000
0000
0000
,
0101
0000
0000
0000
1000
0000
0010
0000
0000
0100
0001
1000
0001
0000
0100
0000
1000
0000
0100
0000
0010
0000
1000
0000
,
0100
0010
0001
1010
0000
0000
0M11
0000
1000
0010
0000
0000
,
0101
0000
0001
1000
0000
0000
1010
0000
0010
0100
0001
0010
,
0100
0000
1000
0001
0100
0000
0011
0000
0000
0000
0000
0000
1100
0000
0000
0000
1000
0000
0001
0000
0000
0000
0000
0000
,
0011
0000
0000
0000
0010
0000
0100
0000
0000
1000
0001
1000
0001
0000
0010
0000
0100
0000
1000
0000
0010
0M00
0010
0000
,
0001
0000
0100
00M0
0100
0000
2100
0000
0000
0000
0000
0000
3002
0000
0000
0000
0000
0000
1003
0000
0000
0000
0000
0000
,
1000
0000
0010
0000
0001
0000
0010
0000
1000
0000
0001
0010
0100
0000
1000
0000
,
0001
0000
0000
0000
0012
0000
0000
0000
0023
0000
0001
0000
0031
0100
0100
0000
,
1000
0100
0001
0100
0020
0000
0000
0000
0031
0000
1000
0001
0100
0100
1000
0010
,
0100
0001
0010
0001
2100
0000
0000
0000
3012
0000
0000
0000
2003
0000
0000
0000
,
3010
0000
0000
0000
0000
0000
0010
0000
0000
1000
0000
0000
0001
0000
0000
0000
0000
0000
0100
0000
0000
0000
0000
0000
0001
0000
0000
0000
0000
0000
1000
0000
0000
0000
0000
0000
1010
0000
0000
0000
0100
0000
0000
0000
M100
0000
0000
0000
,
0001
1000
0001
0000
0011
0000
0010
0001
2000
0000
0001
0000
3001
0000
0010
0000
,
1000
0000
0010
0000
0001
0000
0100
0000
0001
0000
1000
0000
0001
0100
0010
1000
,
0001
0000
0000
0000
0000
0000
0000
0000
0000
0000
0000
0000
0010
0000
0000
0000
0000
0000
0000
0000
0000
0000
0000
0000
0100
0000
0000
0000
0000
0000
0000
0000
0000
0000
0000
0000
1000
0000
0000
0000
0000
0000
0000
0000
0000
0000
0000
0000
0001
0000
0000
0000
0000
0000
0000
0000
0000
0000
0000
0000
0100
0000
0000
0000
0000
0000
0000
0000
0000
0000
0000
0000
0001
0000
0000
0000
0000
0000
0000
0000
0000
0000
0000
0000
1000
0000
0000
0000
0000
0000
0000
0000
0000
0000
0000
0000
0100
0000
0000
0000
0000
0000
0000
0000
0000
0000
0000
0000
0000
0000
0000
0010
0000
0000
0000
0000
0000
0000
0000
0000
0000
0000
0000
0000
0000
0000
0001
0000
0000
0000
0000
0000
0000
0000
0000
0000
1000
0000
0000
0000
0000
0000
0000
0000
0010
0000
0000
0000
0000
0000
0000
0000
0000
0000
0000
0000
0100
0000
0000
0000
0000
0000
0000
0000
0000
0000
0000
0000
0001
0000
0000
0000
0000
0000
0000
0000
0000
0000
0000
0000
1000
0000
0000
0000
0000
0000
0000
0000
0000
0000
0000
0000
,
0010
0000
0000
0000
0000
0000
0000
0000
0000
0000
0000
0000
0000
0000
0000
0100
0000
0000
0000
0000
0000
0000
0000
0000
0000
0000
0000
0000
0000
0000
0010
0000
0000
0000
0000
0000
0000
0000
0000
0000
0001
0000
0000
0000
0000
0000
0000
0000
1000
0000
0000
0000
0000
0000
0100
0000
0000
0000
0000
0000
0000
0000
0000
0000
0000
0000
1000
0000
0000
0000
0000
0000
0100
0000
0000
0000
0000
0000
0000
0000
0000
0000
0000
0000
0010
0000
0000
0000
0000
0000
0000
0000
0000
0000
0000
0000
0001
0000
0000
0000
0000
0000
1000
0000
0000
0000
0000
0000
0000
0000
0000
0000
0000
0000
0010
0000
0000
0000
0000
0000
0100
0000
0000
0000
0000
0000
0000
0000
0000
0000
0000
0000
0001
0000
0000
0000
0000
0000
0000
0000
0000
0000
0000
0000
0010
0000
0000
0000
0000
0000
0100
0000
0000
0000
0000
0000
0000
0000
0000
0000
0000
0000
1000
0000
0000
0000
0000
0000
0010
0000
0000
0000
0000
0000
0000
0000
0000
0000
0000
0000
0100
0000
0000
0000
0000
0000
0000
0000
0000
0000
0000
0000
,
0001
0100
0010
0000
1000
0100
0010
0001
0010
1000
0010
0001
1100
0001
0010
0001
,
0010
0000
0100
0000
0001
0000
0100
0000
1000
0010
0000
0000
1000
0000
0100
0000
0010
0000
0001
0000
1000
0000
0001
0000
0100
0000
0100
0000
0010
0000
0001
0000
,
0100
0000
0000
0000
0000
0000
0000
0000
0000
0000
0000
0000
0100
0000
0000
0000
0000
0000
0000
0000
0000
0000
0000
0000
1000
0000
0000
0000
0000
0000
0000
0000
0000
0000
0000
0000
0001
0000
0000
0000
0000
0000
0000
0000
0000
0000
0000
0000
2010
0000
0000
0000
0000
0000
0000
0000
0000
0000
0000
0000
0000
0000
0000
0000
0001
0000
0000
0000
0000
0000
0000
0000
3000
0000
0000
0000
0000
0000
0000
0000
0100
0000
0000
0000
0000
0000
0000
0000
0000
0000
0000
0000
0000
0000
0000
0000
0001
0000
0000
0000
0000
0000
0000
0000
0000
0000
0000
0000
1000
0000
0000
0000
0000
0000
0000
0000
0000
0000
0000
0000
0100
0000
0000
0000
0000
0000
0000
0000
0000
0000
0000
0000
0000
0000
0000
0000
0000
1000
0000
0000
0000
0000
0000
0000
0001
0000
0000
0000
0000
0000
0000
0000
0000
0000
0000
0000
0100
0000
0000
0000
0000
0000
0000
0000
0000
0000
0000
0000
0001
0000
0000
0000
0000
0000
0000
0000
0000
0000
0000
0000
0000
0000
0000
0000
0000
0000
0000
0000
0000
0000
0000
0000
,
2100
0000
0000
0000
0000
0000
3010
0000
0000
0000
0000
0000
0100
0000
0000
0001
0000
0000
0100
0000
0000
0001
0000
0000
0100
0000
0010
0000
0000
0000
1000
0000
0000
0001
0000
0000
1000
0000
0000
0000
0010
0000
0000
0000
0100
0000
0000
0000
,
0001
0000
0000
0100
0000
0000
0001
0000
0000
0100
0000
0000
0011
0000
1000
0000
0000
0000
0010
0000
0000
1000
0000
0000
0001
0000
0000
0010
0000
0000
0100
0000
0000
0010
0000
0000
1000
0000
0000
0010
0000
0000
0001
0000
0000
0100
0000
0000
,
0010
0000
0000
1000
0000
0000
0001
0000
0000
1000
0000
0000
0001
0000
0000
0000
0100
0000
00M0
0000
0100
0000
0000
0000
1000
0000
0000
0000
0010
0000
0M00
0000
0010
0000
0000
0000
0001
0000
0000
0000
0100
0000
0000
0000
0100
0000
0000
0000
,
0011
1100
0011
1100
0000
0010
0100
0001
0010
2000
0000
0000
,
3010
0000
0000
0000
0000
0000
0001
0000
0100
0000
0010
0000
1000
0000
0000
0000
0001
0000
0100
0000
0000
0100
0010
1000
,
0010
0100
0001
1100
0000
1000
0001
0010
1000
0020
0000
0000
,
0130
0000
0000
0000
1000
0000
0010
0000
0000
0100
0001
1000
0200
0000
0000
0000
1300
0000
0010
0000
0000
0000
0100
0000
,
0001
1000
0001
1100
0000
1000
0010
0001
0010
1000
0000
0000
,
1100
0000
0000
0000
1000
0000
0100
0000
0010
0000
0001
0000
1000
0000
0000
0000
0001
0000
1000
0000
0000
0001
0100
0010
,
1000
0010
0100
0011
0000
0001
0010
1000
0010
0100
0000
0000
,
1100
0000
0000
0000
0000
0000
0000
0000
1000
0000
0000
0000
0020
0000
0000
0000
0000
0000
0130
0000
0001
0000
1000
0000
0001
0000
0000
0000
0100
0000
00M0
0000
0100
0000
0000
0000
1000
0000
0000
0000
0010
0000
0000
0M00
0010
0000
0000
0000
,
0001
0100
0100
0011
0000
0000
0000
0000
0000
0000
0000
0000
;
