#TITLE:永;
#SUBTITLE:;
#ARTIST:BEMANI Sound Team "あさき";
#TITLETRANSLIT:Tokoshie;
#SUBTITLETRANSLIT:;
#ARTISTTRANSLIT:BEMANI Sound Team "Asaki";
#GENRE:;
#CREDIT:;
#MUSIC:Tokoshie.ogg;
#BANNER:Tokoshie.png;
#BACKGROUND:;
#CDTITLE:;
#SAMPLESTART:44.000;
#SAMPLELENGTH:15.000;
#SELECTABLE:YES;
#OFFSET:0.000;
#BPMS:0.000=240.000;
#STOPS:;
#BGCHANGES:;
#FGCHANGES:;

//--------------- dance-single - ----------------
#NOTES:
     dance-single:
     :
     Beginner:
     6:
     0,0,0,0,0:
0000
0000
0000
0000
,
0000
0000
0000
0000
,
0000
0000
0000
0000
,
0000
0000
0000
0000
,
0001
0000
0001
0000
,
0010
0000
0010
0000
,
0001
0000
0001
0000
,
0001
0000
0000
0000
,
1000
0000
1000
0000
,
0010
0000
0010
0000
,
1000
0000
1000
0000
,
1000
0000
0000
0000
,
1000
0000
1000
0000
,
0100
0000
0010
0000
,
0001
0000
0001
0000
,
0100
0000
0010
0000
,
1000
0000
0000
0000
,
0010
0000
0000
0000
,
0100
0000
0100
0000
,
0110
0000
0000
0000
,
0001
0000
0001
0000
,
0100
0000
0010
0000
,
1000
0000
1000
0000
,
0100
0000
0010
0000
,
0001
0000
0001
0000
,
0010
0000
0010
0000
,
0100
0000
0100
0000
,
0100
0000
0000
0000
,
1001
0000
0000
0000
,
1001
0000
0000
0000
,
0001
0000
0100
0000
,
0001
0000
0001
0000
,
1001
0000
0000
0000
,
1001
0000
0000
0000
,
1000
0000
0100
0000
,
1000
0000
0000
0000
,
0100
0000
0100
0000
,
0010
0000
0010
0000
,
0010
0000
0010
0000
,
0100
0000
0100
0000
,
1000
0000
0010
0000
,
0001
0000
0010
0000
,
1000
0000
1000
0000
,
1001
0000
0000
0000
,
0001
0000
0100
0000
,
0001
0000
0100
0000
,
0001
0000
0010
0000
,
0001
0000
0001
0000
,
1000
0000
0100
0000
,
0010
0000
0001
0000
,
0010
0000
0100
0000
,
1000
0000
0000
0000
,
0010
0000
0010
0000
,
0100
0000
0100
0000
,
0010
0000
0100
0000
,
0010
0000
0010
0000
,
2000
0000
3000
0000
,
0200
0000
0300
0000
,
0002
0000
0003
0000
,
0200
0000
0300
0000
,
1000
0000
0010
0000
,
1000
0000
0010
0000
,
1000
0000
0100
0000
,
1000
0000
1000
0000
,
0001
0000
0100
0000
,
0010
0000
1000
0000
,
0010
0000
0100
0000
,
0001
0000
0000
0000
,
0010
0000
0010
0000
,
0100
0000
0100
0000
,
0010
0000
0100
0000
,
0010
0000
0010
0000
,
2002
0000
0000
0000
,
3003
0000
0000
0000
,
2002
0000
0000
0000
,
3003
0000
0000
0000
,
0001
0000
0001
0000
,
0100
0000
0100
0000
,
1000
0000
1000
0000
,
1000
0000
0000
0000
,
0001
0000
0001
0000
,
0010
0000
0010
0000
,
1000
0000
1000
0000
,
1000
0000
0000
0000
,
0001
0000
0010
0000
,
0001
0000
0001
0000
,
1000
0000
0010
0000
,
1000
0000
1000
0000
,
0100
0000
0100
0000
,
0100
0000
0100
0000
,
0010
0000
0010
0000
,
0010
0000
0010
0000
,
0002
0000
0000
0000
,
0003
0000
0000
0000
,
0200
0000
0000
0000
,
0300
0000
0000
0000
,
0020
0000
0000
0000
,
0030
0000
0000
0000
,
2000
0000
0000
0000
,
3000
0000
0000
0000
,
0001
0000
0001
0000
,
0010
0000
0010
0000
,
0100
0000
0100
0000
,
0100
0000
0000
0000
,
1000
0000
0010
0000
,
1000
0000
0010
0000
,
0100
0000
0001
0000
,
0100
0000
0100
0000
,
0001
0000
0010
0000
,
0001
0000
0010
0000
,
0100
0000
1000
0000
,
0100
0000
0100
0000
,
1000
0000
1000
0000
,
0010
0000
0010
0000
,
0100
0000
0100
0000
,
0001
0000
0001
0000
,
2000
0000
0000
0000
,
0000
0000
3000
0000
,
0002
0000
0000
0000
,
0000
0000
0003
0000
,
0100
0000
0100
0000
,
0100
0000
0100
0000
,
0010
0000
0010
0000
,
0010
0000
0010
0000
,
1000
0000
1000
0000
,
1000
0000
1000
0000
,
0001
0000
0001
0000
,
0001
0000
0001
0000
,
0010
0000
0010
0000
,
0100
0000
0100
0000
,
0010
0000
0010
0000
,
0100
0000
0010
0000
,
2002
0000
0000
0000
,
0000
0000
0000
0000
,
0000
0000
0000
0000
,
3003
0000
0000
0000
,
1000
0000
1000
0000
,
0010
0000
0010
0000
,
1000
0000
1000
0000
,
1000
0000
0000
0000
,
0001
0000
0001
0000
,
0010
0000
0010
0000
,
0001
0000
0001
0000
,
0001
0000
1000
0000
,
2002
0000
0000
0000
,
0000
0000
0000
0000
,
0000
0000
0000
0000
,
0000
0000
0000
0000
,
0000
0000
0000
0000
,
3003
0000
0000
0000
;

//--------------- dance-single - ----------------
#NOTES:
     dance-single:
     :
     Easy:
     11:
     0,0,0,0,0:
0000
0000
0000
0000
,
0000
0000
0000
0000
,
0000
0000
0000
0000
,
0000
0000
0000
0000
,
0001
0010
0001
0010
,
0100
1000
0100
1000
,
0001
0100
0010
0000
,
1000
0100
0010
0000
,
0001
1000
0001
1000
,
0010
0000
0100
0000
0010
0000
0010
0200
,
0000
0010
0010
0010
,
0010
0000
0310
0000
1000
0000
1000
0001
,
0000
1000
1000
0100
,
0001
0000
0100
0000
1000
0000
0000
1001
,
0000
0001
0001
0100
,
1000
0100
0001
0000
,
1000
0100
1000
1000
,
0001
0010
0001
0001
,
0100
0100
0010
0010
,
1000
0000
0001
0000
1000
0001
0000
1001
,
0000
0001
0001
0010
,
1000
0000
0010
0000
0001
0000
0000
1001
,
0000
1000
1000
0010
,
0001
0000
0010
0000
1000
0000
0000
1100
,
0000
0000
0100
0000
0010
0000
0000
0011
,
0000
0000
0001
0000
0100
0000
0000
0110
,
0000
1000
1000
0001
,
0001
0000
0010
0000
0100
0000
0000
1100
,
0000
0000
0110
0000
0110
0000
0000
0011
,
0000
0000
0110
0000
0110
0000
0000
1100
,
0000
1000
0010
0001
,
1000
0000
0100
0000
0001
0000
0000
0101
,
0000
0000
0110
0000
0110
0000
0000
1010
,
0000
0000
0110
0000
0110
0000
0000
0101
,
0000
0001
0010
1000
,
0001
0000
0100
0000
1000
0001
0000
0001
,
0000
0100
0100
0010
,
1000
0001
0001
0010
,
0100
1000
0001
1000
,
0001
0100
0010
1000
,
0002
0000
0000
0000
,
0000
0103
0100
0010
,
0110
0000
0000
1001
0000
0000
0110
0000
,
0000
0000
0000
0000
,
1000
0100
1000
0100
,
0010
0001
0010
0010
,
0001
0100
0001
0100
,
0010
1000
0010
0000
,
1000
0100
0001
0000
,
1000
0010
0001
0000
,
0001
0100
1000
0000
,
0001
0010
1000
0000
,
0001
0100
0010
0100
,
0010
1000
0001
0001
,
1000
0100
0010
0100
,
0010
0001
1000
0000
,
0001
0100
0001
0100
,
1000
0100
1000
0100
,
0001
0010
0001
0010
,
1000
0010
0001
0000
,
0001
0100
0001
0100
,
0010
1000
0010
0010
,
1000
0100
1000
0100
,
0010
0001
0010
0000
,
0001
0100
1000
0000
,
0001
0010
1000
0000
,
1000
0100
0001
0000
,
1000
0000
0010
0000
0001
1000
0000
1001
,
0000
0001
0100
0100
,
0010
0000
1000
0000
0001
1000
0000
1001
,
0000
1000
0100
0100
,
0010
0001
1000
1000
,
0002
0000
0203
0000
,
2300
0000
3200
0000
,
0302
0000
0023
0000
,
0130
0000
0100
0000
0100
0010
0000
0220
,
0000
0330
2002
3003
,
0001
0100
1000
0100
,
0001
0001
0001
0000
,
1000
1000
1000
0000
,
0100
0010
0001
0010
,
0100
0010
0001
1000
,
0010
0100
0010
0100
,
0001
0000
1000
0000
0010
0100
0000
0220
,
0000
0330
2000
0000
,
0000
0000
3001
0010
,
0200
0000
0000
1300
,
0020
0000
0100
0130
,
0100
0001
1000
0000
,
0010
1000
0001
0000
,
0010
0001
1000
0010
,
1000
0001
0020
0000
,
0230
0000
0320
0000
,
0032
0000
2003
0000
,
3020
0000
0000
0100
,
0230
0000
0320
0000
,
2030
0000
3002
0000
,
0023
0000
0230
0000
,
2300
0000
0000
0010
,
3020
0000
0230
0000
,
0301
0010
0001
0010
,
1000
0010
1000
0010
,
0001
0000
0000
0101
0000
0000
1100
0000
,
0000
0000
0000
0000
,
1000
0100
1000
0100
,
0010
0001
0010
0001
,
0100
1000
0100
0001
,
0010
0100
0010
0010
,
0001
0100
0001
0100
,
0010
1000
0010
1000
,
0100
0001
0100
1000
,
0010
0100
0010
0000
,
1000
0100
1000
1000
,
0001
0010
0001
0001
,
0100
0010
0100
0100
,
0010
0000
1000
0000
0001
1000
0000
2002
,
0000
0000
0000
0000
,
0000
0000
3003
0000
,
0220
0000
0000
0000
,
0330
0000
1001
0000
,
0001
0010
1000
0010
,
0001
0010
0001
0001
,
1000
0010
0001
0010
,
1000
0010
1000
0000
,
0001
0100
1000
0100
,
0001
0100
0001
0001
,
1000
0100
0001
0100
,
1000
0100
1000
0000
,
0001
0010
0100
0100
,
1000
0100
0010
0010
,
0001
0100
0010
0010
,
1000
0000
0001
0000
0001
1000
0000
2002
,
0000
0000
0000
0000
,
0000
0000
0000
0000
,
0000
0000
0000
0000
,
0000
0000
3003
0000
,
1000
0010
1000
0010
,
0100
0001
0100
0001
,
1000
0100
0010
0010
,
0001
0100
0010
0000
,
1000
0001
1000
0001
,
0010
0000
0100
0000
0010
0000
0010
0200
,
0000
0010
0010
0010
,
0010
0000
0310
0000
0001
0000
0001
2000
,
0000
0000
3010
0000
0010
0000
0010
0200
,
0000
0000
0301
0000
0001
0000
0001
2000
,
0000
0000
0000
0000
,
0000
0000
0000
0000
,
0000
0000
0000
0000
,
3000
0000
0000
0000
;

//--------------- dance-single - ----------------
#NOTES:
     dance-single:
     :
     Medium:
     15:
     0,0,0,0,0:
0000
0000
0000
0000
,
0000
0000
0000
0000
,
0000
0000
0000
0000
,
0000
0000
0000
0000
,
0001
0000
0100
0000
0001
0000
1000
0010
,
0000
1000
0010
0000
1000
0000
0100
0010
,
0000
0100
0010
0000
0001
0000
0100
0000
,
0001
0010
0001
0010
0001
0000
0100
0000
,
0010
0000
1000
0000
0001
0000
0010
0001
,
0000
0010
0001
0000
0100
0000
0010
2000
,
0000
0001
0001
3001
,
0001
0100
0010
1000
0001
1000
0000
1001
,
0000
0000
1000
0000
0100
1000
0100
0000
,
0010
0000
0001
0000
0010
0001
0010
0000
,
0001
0000
0100
0000
0010
1000
0010
0000
,
0100
0000
0001
0000
0100
0001
0100
0000
,
0010
1000
0100
1000
,
0010
1000
0100
1000
,
0010
0010
0100
0100
,
0001
0100
0001
1000
0100
0010
0000
0110
,
0000
0000
0001
0000
0100
0001
0100
0000
,
0010
0000
1000
0000
0010
1000
0010
0000
,
1000
0000
0100
0000
0010
0001
0010
0000
,
0100
0000
1000
0000
0100
1000
0100
0010
,
0000
0000
0011
0000
0001
0100
0010
0100
,
0000
0000
1010
0000
1000
0100
0010
0001
,
0000
0010
0100
0100
,
1000
0001
1000
0001
1000
0010
0100
0001
,
0000
0000
0011
0000
0001
0100
0001
0100
,
0000
0000
1010
0000
1000
0100
1000
0100
,
0000
0000
0010
0000
0010
0001
1000
0100
,
0000
1000
0010
1000
0010
0100
0001
1000
,
0000
0000
1100
0000
1000
0010
1000
0010
,
0000
0000
0101
0000
0001
0010
0001
0010
,
0000
0000
0100
0000
1000
0001
0000
1001
,
0000
1000
0100
0000
0010
0001
0000
0012
,
0000
0000
1003
0000
0100
1000
0001
2000
,
0000
0000
3010
0000
0100
0001
1000
0002
,
0000
0000
0103
0000
0010
1000
0001
1000
,
0010
0100
0100
0010
,
1000
0000
1000
0100
0000
0100
0000
0010
,
0001
0010
0001
0010
0001
0000
0110
0000
,
1000
1000
0000
0001
0001
0000
1000
1000
,
0000
0000
0000
0000
,
0001
0000
0010
0000
0100
0010
0001
0000
,
0100
0000
0010
0000
1000
0010
0100
0000
,
0001
0000
1000
0000
0100
1000
0001
0000
,
0010
0000
0001
0000
1000
0001
0100
0000
,
0010
0000
1000
0000
0100
0010
0100
0010
,
0001
0100
0001
0100
0001
0010
0001
0010
,
0000
0100
0010
0000
0010
0000
0001
0100
,
0010
1000
0001
0100
0010
0100
0000
0100
,
0001
0000
0010
0000
0001
0100
0001
0000
,
0100
1000
0100
0010
,
1000
0000
0100
0000
1000
0010
1000
0000
,
0100
0001
0100
0010
,
0001
0100
0001
0000
1000
0100
1000
0000
,
0001
0100
0001
0000
1000
0100
1000
0000
,
0010
0000
0010
0000
0010
0100
0000
0100
,
0010
1000
0001
0000
0001
0010
0100
0000
,
1000
0000
0010
0000
0100
0010
1000
0000
,
0100
0000
0010
0000
0001
0010
0100
0000
,
1000
0000
0001
0000
0100
0001
1000
0000
,
0010
0000
1000
0000
0001
1000
0100
0000
,
0010
0001
0100
0100
,
0010
0000
0010
0000
1000
0100
0010
0001
,
0000
0010
0001
0000
0001
0000
0100
0010
,
1000
0010
1000
0010
1000
0100
0000
0100
,
0010
0000
0001
0000
1000
0010
1000
0000
,
0010
0001
0010
1000
,
0100
0000
1000
0000
0001
0100
0001
0000
,
0100
1000
0100
0001
,
1000
0000
1000
0100
0010
0000
0001
0100
,
0010
0000
1000
0001
1000
0001
0000
0100
,
0000
0100
0010
0000
1000
0100
1000
0100
,
0010
0000
0010
0000
0010
0002
0000
2003
,
0000
0000
3002
0000
,
0013
0100
0010
0000
0001
0000
0100
0000
,
0010
1000
0001
0000
0010
0001
1000
0000
,
0010
0100
0010
0100
0010
0000
0100
0001
,
0000
1000
0100
1000
0100
0010
0001
0010
,
0001
0000
1000
0000
0001
0000
0001
0100
,
0000
0100
0010
0000
0010
1000
0000
1001
,
0000
0001
0010
0100
1000
0100
0000
0010
,
0002
0100
0100
0100
,
2003
0100
0100
0100
,
3002
0203
0320
2030
,
3200
0320
0100
0130
,
1000
0000
0100
0000
0010
0001
0010
0001
,
0010
0000
0001
0000
0100
0001
0100
0001
,
0100
0000
0010
0000
1000
0010
1000
0010
,
1000
0000
0100
0000
0010
0100
0010
0000
,
0002
0000
0203
0000
,
2300
0000
3200
0000
,
0302
0000
0000
0000
0000
0000
0013
0100
,
0000
0000
0000
0000
1000
0000
0100
0020
,
0000
0000
0032
0000
,
0203
0000
0302
0000
,
2003
0000
0000
0000
0000
0000
3100
0010
,
0000
0010
0001
1000
,
1000
0010
0000
1000
0010
0000
0100
0001
,
0000
0100
0001
0000
1000
0000
0100
0000
,
1000
1000
0000
0001
0001
0000
1000
1000
,
0000
0000
0000
0000
,
0001
0100
0001
0000
0100
0000
0010
0000
,
1000
0010
1000
0000
0100
0000
0010
0000
,
0001
0010
0001
0010
0100
1000
0100
1000
,
0001
1000
0001
1000
0001
0000
0000
0000
,
1000
0010
1000
0000
0010
0000
0100
0000
,
0001
0100
0001
0000
0010
0000
0100
0000
,
1000
0100
1000
0100
0010
0001
0010
0001
,
1000
0001
1000
0001
0100
0010
0000
0110
,
0000
0000
1001
0000
1000
0100
0010
0100
,
0000
0000
1001
0000
0001
0100
0010
0100
,
0000
0000
1001
0000
1000
0010
0100
0010
,
0000
0000
1001
0000
0001
0010
0100
0020
,
0000
0032
0203
0302
,
0203
0320
2030
3020
,
2030
3002
0023
0230
,
1300
0001
1000
0001
0100
0010
0100
0010
,
1000
0000
1000
0000
1000
0100
0010
0000
,
0001
0000
0001
0000
0001
0100
0010
0000
,
1000
0000
1000
0000
1000
0001
0100
0000
,
0001
0000
0001
0000
0001
1000
0100
0000
,
0010
0000
0010
0000
0001
0100
0010
0000
,
0100
0000
0100
0000
0001
0010
0100
0000
,
0010
0000
0010
0000
0100
1000
0010
0000
,
0100
0000
0100
0000
0010
1000
0000
1000
,
0100
0000
0010
0000
0001
0010
0001
0000
,
0100
1000
0100
0001
,
0010
0000
0100
0000
1000
0010
1000
0000
,
0100
0001
0100
1000
,
0010
0000
0010
0000
0100
0010
0000
0100
,
0010
0000
0100
0000
0001
0000
1000
0100
,
0000
1000
0100
0000
0010
0000
0001
0100
,
0000
0001
0100
0001
0100
0010
0000
0010
,
1000
0000
0100
0000
1000
0000
0001
0010
,
0000
0001
0010
0000
0001
0000
0100
0010
,
0000
0100
0010
0000
1000
0000
0100
0000
,
1000
0010
1000
0010
1000
0000
0100
0000
,
0010
0000
0001
0000
1000
0000
0010
1000
,
0000
0010
1000
0000
0100
0000
0010
0002
,
0000
1000
1000
1003
,
1000
0100
0010
0001
1000
0001
0000
2001
,
0000
0000
3010
0000
0010
0000
0100
0002
,
0000
0000
0013
0000
0010
0000
0100
2000
,
0000
0000
0000
0000
,
0000
0000
0000
0000
,
3000
0000
0000
0000
;

//--------------- dance-single - ----------------
#NOTES:
     dance-single:
     :
     Hard:
     18:
     0,0,0,0,0:
0000
0000
0000
0000
,
0000
0000
0000
0000
,
0000
0000
0000
0000
,
0000
0000
0000
0000
0000
0000
0000
1001
,
0000
1000
0010
0000
0100
0010
0100
0001
,
0000
0001
0010
0000
0100
0010
0100
1000
,
0000
1000
0010
0000
0010
0000
0100
0000
,
0001
0010
0001
0010
0100
1000
0100
1000
,
0000
0001
0100
0000
0010
1000
0010
0100
,
0000
0001
0010
0000
0100
1000
0100
0020
,
0000
0100
0100
0130
,
1000
0000
0001
0000
1000
0000
0001
0000
0000
0100
0000
0000
0010
0000
0000
1000
0000
0000
0001
0000
0000
0100
0000
0000
,
0000
0100
0010
1000
0001
1000
0001
1000
,
0100
1000
0100
0010
0001
0010
0001
2000
,
0000
3001
0100
0010
1000
0001
1000
0001
,
0100
0001
0100
0010
1000
0010
1000
0100
,
0010
0001
0020
0000
0130
0001
0200
0000
,
0310
0001
0020
0000
0230
0000
0320
0000
,
0032
0100
2003
0100
,
3010
0100
0010
0100
0001
1000
0000
1000
,
0001
0010
0001
0010
0001
0100
0001
0100
,
0010
1000
0010
1000
0001
0100
0010
1000
,
0000
1000
0100
1000
0100
1000
0010
1000
,
0010
0100
0001
0100
0001
1000
0100
0020
,
0000
0130
1000
0000
1000
0001
0100
0020
,
0000
0130
0001
0000
0010
0001
0010
0200
,
0000
1300
0001
1000
0100
1000
0001
1000
,
0010
0100
0001
0100
0010
0100
0001
1000
,
0000
0000
1100
0000
1000
0100
0100
0001
,
0000
0000
0101
0000
0001
0100
0100
2000
,
0000
0000
3001
0100
0001
0010
0100
0010
,
0001
0100
0001
0100
0010
1000
0000
1001
,
0000
0000
1010
0000
1000
0010
0010
0001
,
0000
0000
0011
0000
0001
0010
0010
2000
,
0000
0000
3001
0100
0001
1000
0001
0100
,
0000
0100
0010
1000
0001
1000
0000
0100
,
0010
0000
0010
0000
0001
0100
0001
0100
,
1000
0000
0100
0000
1000
0100
1000
0100
,
0001
0000
0001
0000
0010
0100
0010
0100
,
0010
0000
0100
0000
1000
0001
1000
0001
,
0100
0010
1000
0001
1000
0100
0010
0100
,
0010
0000
0001
0000
0010
0000
0001
0000
0000
0100
0000
0000
0010
0000
1000
0000
0010
0000
1000
0000
0000
0100
0000
0000
,
0010
0010
0000
0001
0001
0000
1000
1000
,
0000
0000
0000
0000
,
0001
0010
0001
0010
0100
1000
0100
1000
,
0001
0010
0100
0010
0001
0100
0000
0010
,
1000
0100
1000
0100
0010
0001
0010
0001
,
1000
0100
0010
0100
1000
0010
0000
0100
,
0001
0000
0010
0000
0100
1000
0100
1000
,
0100
0001
0100
0001
0100
1000
0100
1000
,
0010
0100
0002
0000
1003
0100
0010
0100
,
0010
0001
1000
0100
0010
0010
0000
0001
,
0100
1000
0200
0000
0310
1000
0020
0000
,
0130
0001
0200
0000
0301
0010
0100
1000
,
0010
0001
0020
0000
0130
0001
0200
0000
,
0310
1000
0020
0000
0130
0001
1000
0100
,
0010
0001
0010
0001
0100
0001
0100
0001
,
1000
0100
1000
0100
1000
0010
1000
0010
,
0100
0000
0100
0000
0001
1000
0000
0001
,
1000
0000
1001
0000
1000
0100
0010
0001
,
1000
0010
1000
0010
0100
0001
0100
0001
,
1000
0010
0100
0010
1000
0100
0000
0010
,
0001
0100
0001
0100
0010
1000
0010
1000
,
0001
0100
0010
0100
0001
0010
0000
0100
,
1000
0010
0100
0100
,
0010
0000
0010
0000
0100
0001
0010
0100
,
0000
0100
0010
0000
0001
0010
0100
0020
,
0000
0130
1000
0100
0010
0001
0000
0001
,
1000
0010
0200
0000
1300
0100
0020
0000
,
1030
0001
0200
0000
0301
1000
0001
1000
,
0001
0010
0200
0000
0301
0100
0020
0000
,
0031
1000
0200
0000
1300
0001
1000
0001
,
0010
0000
0001
0100
0001
1000
0001
0100
,
0001
1000
0010
0100
0010
1000
0100
0010
,
0000
0000
0000
0010
0000
0000
0001
0000
0000
1000
0000
0000
0010
0000
0100
0000
0010
0000
0100
0000
0000
0001
0000
0000
,
1000
0010
1000
0001
0010
0001
0000
2001
,
0000
0000
3200
0320
,
0031
0100
0010
1000
0001
1000
0001
1000
,
0100
0010
0100
0010
0001
0100
0010
1000
,
0100
0001
0100
1000
0001
0100
0010
0200
,
0000
0310
1000
0010
1000
0001
0100
0001
,
0100
1000
0100
0001
0010
0100
1000
0002
,
0000
0003
0110
0000
0010
0100
0000
2002
,
0000
3003
1000
0010
0100
0001
0000
0001
,
0010
0100
0020
0000
0031
1000
0200
0000
,
1300
0010
2000
0000
3010
0100
0020
0000
,
0130
0001
2000
0000
3001
0010
0002
0000
,
0103
0000
0000
0010
0000
0000
0200
0000
0000
0000
0000
0000
0301
0000
1000
0000
0001
0000
1000
0000
0000
0000
0000
0000
,
0001
0100
0001
0100
0010
1000
0001
1000
,
0001
0000
0000
0010
0000
0000
0100
0000
0000
1000
0000
0000
0010
0000
0100
0000
0001
0000
0100
0000
0000
0010
0000
0000
,
1000
0000
0000
0100
0000
0000
0010
0000
0000
0001
0000
0000
1000
0000
0010
0000
1000
0000
0010
0000
0000
0100
0000
0000
,
0001
0010
0100
1000
0002
0000
0000
0000
,
2003
0000
0000
0000
,
0000
0000
0000
0000
0000
0000
0000
0000
0000
3010
0100
0010
,
0200
0000
0000
0000
,
0301
0000
1000
0000
0001
0000
1000
0000
0100
0000
0010
0000
,
0002
0000
0000
0000
,
0203
0000
0000
0300
,
2002
0000
0003
0000
,
3200
0000
0320
0000
,
0031
0100
0000
0100
0010
0000
1000
0100
,
0000
0000
0000
0100
0000
0000
0010
0000
0000
0000
0000
0000
0001
0000
1000
0000
0001
0000
1000
0000
0000
0000
0000
0000
,
0010
0010
0000
1000
1000
0000
0001
0001
,
0000
0000
0000
0000
,
1000
0100
1000
0010
1000
0001
0100
0001
,
0010
0001
1000
0100
1000
0010
1000
0001
,
0100
1000
0100
1000
0100
0001
0100
0001
,
0010
0100
1000
0100
0010
0001
1000
0000
,
0001
0100
0001
0010
0001
1000
0100
1000
,
0010
1000
0001
0100
0001
0010
0001
1000
,
0100
0001
0100
0001
0100
1000
0100
1000
,
0010
0100
0001
0100
0010
1000
0000
1000
,
0001
0100
0010
0100
0001
0010
0100
0010
,
0001
0100
0010
0100
0001
0010
0100
0010
,
0001
1000
0010
1000
0100
0010
0100
1000
,
0010
0100
0010
1000
0100
0010
0001
1000
,
0002
0100
2003
0100
,
3002
0100
2003
0100
,
3020
0230
0320
0230
,
0301
1000
0001
1000
0001
0010
0100
2000
,
0000
3010
0100
0010
1000
0100
0010
0200
,
0000
0310
0001
0100
0010
0100
0001
0020
,
0000
0130
1000
0001
1000
0001
0100
0010
,
0000
0010
0100
0000
0010
1000
0001
0020
,
0000
0031
0100
0001
1000
0100
1000
0020
,
0000
1030
0100
1000
0001
0100
0001
0020
,
0000
0130
1000
0100
1000
0001
0100
0020
,
0000
0130
0001
1000
0001
1000
0000
1000
,
0100
0010
0200
0000
1300
0010
2000
0000
,
3001
0100
0002
0000
0013
0100
0020
0000
,
0031
1000
0200
0000
1300
0001
0200
0000
,
0301
0000
0000
1000
0000
0000
0001
0000
1000
0000
0001
0000
1000
0000
0000
0100
0000
0000
0000
0000
0000
0110
0000
0000
,
0000
0001
1000
0000
1000
0001
0000
0001
,
1000
0000
0000
0000
0000
0000
1001
0000
0000
0000
0000
0000
0001
0000
0010
0000
0001
0000
0010
0000
0000
0100
0000
0000
,
0000
0000
0000
0100
0000
0000
0010
0000
0000
0001
0000
0000
1000
0000
0100
0000
1000
0000
0100
0000
0000
0010
0000
0000
,
0001
0100
0010
0100
0010
1000
0000
1001
,
0000
0001
0010
0000
0100
0010
0100
1000
,
0000
1000
0010
0000
0100
0010
0100
0001
,
0000
0001
0010
0000
0010
0000
0100
0000
,
1000
0010
1000
0010
0100
0001
0100
0001
,
0000
1000
0100
0000
0010
0001
0010
0100
,
0000
1000
0010
0000
0100
0001
0100
0020
,
0000
0100
0100
0130
,
0001
0000
1000
0000
0001
0000
1000
0000
0000
0100
0000
0000
0010
0000
0000
0001
0000
0000
1000
0000
0000
0200
0000
0000
,
0000
0000
0310
0000
0010
0000
0001
0200
,
0000
0000
0310
0000
0010
0000
1000
0200
,
0000
0000
0000
0000
,
0000
0000
0000
0000
,
0300
0000
0000
0000
;
