#TITLE:Together forever, my lovely lovely video game cartridges;
#SUBTITLE:;
#ARTIST:かめりあ(Camellia);
#TITLETRANSLIT:;
#SUBTITLETRANSLIT:;
#ARTISTTRANSLIT:;
#GENRE:;
#CREDIT:;
#BANNER:banner.png;
#BACKGROUND:bg.png;
#LYRICSPATH:;
#CDTITLE:;
#MUSIC:Together forever, my lovely lovely video game cartridges.ogg;
#OFFSET:0.000000;
#SAMPLESTART:112.275543;
#SAMPLELENGTH:18.750000;
#SELECTABLE:YES;
#BPMS:0.000000=128.000000
;
#STOPS:
;
#BGCHANGES:;
#KEYSOUNDS:;
#ATTACKS:;

//---------------dance-single - BU FS XO SS-----------------
#NOTES:
     dance-single:
     :
     Challenge:
     16:
     0.696190,0.880000,0.200000,0.346667,1.166667,731.000000,701.000000,30.000000,52.000000,30.000000,0.000000,0.696190,0.880000,0.200000,0.346667,1.166667,731.000000,701.000000,30.000000,52.000000,30.000000,0.000000:
0000
0000
0000
0000
,
0000
0000
0000
0000
,
0000
0000
0000
0000
,
0000
0000
0000
0000
0000
0000
0000
0000
0000
0000
1000
0000
0001
0100
0000
0020
,
0000
0000
0000
0000
0130
0001
0010
0200
0000
0000
0000
0000
1300
0001
0000
0200
,
0000
0000
0000
0000
0302
0000
0000
0023
0000
0000
0130
0000
1000
0001
0000
0200
,
0000
0000
0000
0000
0000
0000
0000
0000
0000
0000
0000
0000
0310
0000
0000
1000
0000
0000
0000
0000
0000
0200
0000
0000
0000
0000
0000
0000
0000
0000
0000
0000
0000
0000
0000
0000
0310
0000
0001
0000
1000
0000
0010
0000
0100
0000
0001
0000
,
1000
0002
0000
0000
0000
0000
0000
0000
0000
0000
0000
0000
0103
0000
0001
1000
,
0000
0100
00M0
0100
0000
0010
0001
0000
0010
0000
0000
0100
0001
0000
1000
0001
,
0000
0100
00M0
0100
0000
0010
1000
0000
0010
0000
0000
0100
1000
0100
0001
0100
,
0000
0000
0010
0001
1000
0000
0000
0000
0001
0000
0100
0000
1000
0000
0100
0000
0000
0000
0010
1000
0001
0000
0000
0000
0010
0000
0100
0000
1000
0000
0000
0000
,
1001
0000
0000
1000
0100
0000
0110
0000
0100
0001
0000
0000
0100
1000
0000
0001
,
0000
0100
00M0
0100
0000
0010
1000
0000
0010
0000
0000
0100
1000
0000
0100
0001
,
00M0
0001
0000
0010
0000
0100
0001
0000
0100
0000
0000
0000
1000
0001
0010
0000
,
0100
0000
0000
0000
1000
0001
0100
0000
0000
0000
0000
0000
0010
0000
0000
0000
0100
0001
1000
0000
0000
0000
0000
0000
0100
0000
0010
0000
0001
0000
0000
0000
,
2M00
0000
0000
0000
0010
0000
0000
0000
3001
0010
0001
0010
0100
0000
1000
0001
,
0000
0100
00M0
0100
0000
0010
1000
0000
0010
0000
0000
0100
1000
0000
0001
1000
,
0000
0100
00M0
0100
0000
0010
0001
0000
0010
0000
0000
0100
0001
0100
1000
0100
,
0000
0000
0010
1000
0001
0000
0000
0000
1000
0000
0100
0000
0001
0000
0100
0000
0000
0000
0010
0001
1000
0000
0000
0000
0010
0000
0100
0000
0001
0000
0000
0000
,
1001
0000
0000
1100
0000
0000
0101
0000
0000
1001
0000
0001
1000
0100
0000
0001
,
0000
0100
00M0
0100
0000
0010
0001
0000
0010
0000
0000
0100
0001
0000
0100
1000
,
00M0
1000
0000
0010
0000
0100
1000
0000
0100
0000
0000
0000
0001
1000
0010
0000
,
0100
0000
0000
0000
0001
1000
0100
0000
0000
0000
0000
0000
0010
0000
0000
0000
0100
1000
0001
0000
0000
0000
0000
0000
0100
0000
0010
0000
1000
0000
0000
0000
,
010M
0000
0000
0000
0010
0001
1000
0000
0000
0000
0000
0000
0010
0000
0000
0000
1000
0001
0010
0000
0000
0000
0000
0000
0100
0000
1000
0000
0010
0000
0000
0000
,
011M
0000
0000
0000
0001
1000
0100
0000
0000
0000
0000
0000
0010
0000
0000
0000
0100
1000
0001
0000
0000
0000
0000
0000
1000
0000
0100
0000
1000
0000
0020
0000
,
0000
0000
0000
0030
,
0110
0000
0000
0000
0000
0000
0101
0000
0000
0000
0000
0000
1100
0000
0000
0000
1001
0000
0000
0000
1000
0000
0000
0000
0010
0000
0000
0000
0100
0001
1000
0000
,
0100
0000
0010
0001
0100
0001
1000
0010
0000
0100
0000
0001
0000
0010
0000
0100
,
0000
0000
0000
0000
1000
0100
1000
0000
0001
0000
0000
0000
0100
00M0
0100
0000
1000
0000
0100
0000
0010
0000
0000
0000
0002
0000
0000
0000
1003
0000
0010
0000
,
0100
0000
1000
0100
0010
0100
0001
0010
0000
0100
0000
1000
0000
0010
0000
0100
,
0000
0000
0000
0000
0002
0000
0000
0000
1003
0000
0001
0100
0001
0000
1000
0000
0100
00M0
0100
0000
0001
0000
0000
0000
0020
0000
0000
0000
0130
0000
1000
0000
,
0001
0000
0100
0001
1000
0100
1000
0010
0000
0100
0000
0001
0000
0010
0000
0100
,
1000
0000
0000
0000
0001
0100
0001
0000
1000
0000
0000
0000
0100
00M0
0100
0000
0001
0000
0100
0000
0010
0000
0000
0000
2000
0000
0000
0000
3001
0000
0010
0000
,
0100
0000
0001
0100
0010
0100
1000
0010
0000
0100
0000
0001
0000
0010
0000
0200
,
0000
0000
0000
0000
2300
0000
0000
0000
3002
0000
0000
0000
0103
0000
0010
1000
,
0001
0100
00M0
0100
0000
0010
1000
0000
0010
0000
0100
1000
0001
0000
0010
0001
,
1000
0100
00M0
0100
0000
0010
0001
0000
0010
0000
0100
0001
1000
0100
0001
0100
,
0000
0000
0010
0001
1000
0000
0000
0000
0001
0000
0100
0000
1000
0000
0100
0000
0000
0000
0010
1000
0001
0000
0000
0000
0100
0000
0010
0000
1000
0000
0000
0000
,
1001
0000
0000
0011
0000
0000
0110
0000
0000
1100
0000
0000
0100
1000
0000
0010
,
0100
0001
0100
0001
1000
0100
1000
0100
0010
0001
0010
0001
1000
0010
1000
0010
,
0100
0001
1000
0100
1000
0001
0010
0100
1000
0001
0100
0010
1000
0100
0010
0004
,
4000
0000
0000
0000
0000
0000
0000
0000
3003
0000
0000
0000
10M0
0100
0010
0001
,
0000
0000
1000
0100
1000
0000
0000
0000
0001
0000
0100
0000
0010
0000
1000
0000
0000
0000
0001
0100
0001
0000
0000
0000
0010
0000
0000
0000
0001
0000
1000
0000
,
0000
0100
00M0
0100
0000
0001
0010
0000
0100
0000
1000
0000
0010
0000
1000
0001
,
0000
0100
00M0
0100
0000
1000
0010
0000
0100
0000
0001
0000
1000
0010
0001
0010
,
0000
0000
0100
0001
1000
0000
0000
0000
0001
0000
0010
0000
1000
0000
0010
0000
0000
0000
0100
1000
0001
0000
0000
0000
0010
0000
0100
0000
1000
0000
0000
0000
,
1001
0000
0000
0101
0000
0000
0110
0000
0000
1010
0000
0000
0010
0100
0001
1000
,
0000
0100
00M0
0100
0000
0010
0001
0000
0010
0000
1000
0001
0100
0010
0100
1000
,
00M0
1000
0000
0010
0000
0100
1000
0000
0100
0000
0001
0000
1000
0100
0010
0000
,
0001
0000
0000
0000
1000
0010
0100
0000
0000
0000
0000
0000
0001
0000
0000
0000
0100
0010
1000
0000
0000
0000
0000
0000
0001
0000
1000
0000
0100
0000
0000
0000
,
M010
0000
0000
0000
0001
0010
0100
0000
0000
0000
0000
0000
1000
0000
0000
0000
0100
0010
0001
0000
0000
0000
0000
0000
1000
0000
0001
0000
0100
0000
0000
0000
,
101M
0000
0000
0000
0010
1000
0001
0000
0000
0000
0000
0000
0011
0000
0000
0000
0010
0001
1000
0000
0000
0000
0000
0000
0010
0000
0000
0000
2000
0000
0000
0000
,
0000
0000
0000
0000
0000
0000
0000
0000
0000
3001
0010
0100
2000
0000
0000
0000
0000
0000
0000
0000
0000
0000
0000
0000
,
3020
0000
0000
0000
0000
0000
0000
0000
0000
0000
0000
0000
0000
0000
0130
0001
2000
0000
0000
0000
0000
0000
0000
0000
0000
0000
0000
0000
0000
0000
0000
0000
,
3200
0000
0320
0230
,
0302
2003
3020
0032
,
1003
0010
1000
0010
0100
0001
0100
0001
1000
0100
0010
0001
0100
0010
1000
0100
,
1000
0001
0100
0010
0100
0001
1000
0100
1000
0010
0100
0001
1000
0100
0010
0004
,
4000
0000
0000
0000
0000
0000
0000
0000
0000
0000
0000
0000
3003
0000
0000
0000
0000
0000
1000
0000
0010
0000
0100
0000
0001
0000
0000
1000
0000
0000
0100
0000
0000
1000
0000
0000
0010
0000
0000
0100
0000
0000
0001
0000
0000
1000
0000
0000
,
040M
0300
0000
0040
0030
0000
0004
0003
4000
0000
3000
0001
0100
00M0
0100
1000
,
0010
0000
0100
0000
0101
0000
0001
1000
0001
0010
0M00
0010
1000
0000
0001
0010
,
0001
1000
0100
0000
0001
0000
0100
0010
0000
0001
1000
0000
0001
0010
0M00
0010
,
1000
0000
0000
0000
0001
0000
0010
0000
0100
0000
0000
0000
1000
0000
0001
0000
1000
0000
0010
0000
0M00
0000
0010
0000
0001
0000
0000
0000
1000
0000
0001
1000
,
0010
0000
0000
1001
0000
0000
1100
0000
0011
0000
0000
1001
0000
0000
0101
0000
,
20M0
0000
0000
3000
0000
0000
0001
0000
0010
0000
0100
0000
1000
0000
0000
0000
0000
0000
0001
0000
0000
0000
0000
0000
1000
0000
0000
0100
0000
0000
0010
0000
0000
0100
0000
0000
0001
0000
0000
0100
0000
0000
0000
0000
0000
0010
0000
0000
,
0000
0000
0001
0100
1000
0100
0000
0010
0100
0001
1000
0100
0010
0000
0001
0100
,
00M0
0100
2000
0000
0000
0000
0000
0000
0000
0000
3001
0000
0100
0010
0000
2000
,
0000
0000
0000
0000
3200
0000
0000
0320
0000
0000
0000
0000
0031
0000
0000
1000
,
0001
0100
0001
0100
0010
1000
0010
1000
0001
0010
0100
1000
0010
1000
0001
0010
,
0100
0000
0000
0000
0000
0000
0000
0000
0000
1100
0000
0000
0000
0000
0000
0000
0000
0000
0101
0000
0000
0000
0000
0000
1001
0000
0000
0000
0000
0000
0000
0000
0000
0000
0000
0000
1000
0000
0010
0000
0100
0000
0001
0000
1000
0000
0100
0000
,
0020
0000
0000
0000
0031
1000
0010
0200
0000
0000
0000
0000
0301
1000
0000
0200
,
0000
0000
0000
0000
0320
0000
0000
0032
0000
0000
0103
0000
0001
1000
0000
0200
,
0000
0000
0000
0000
1300
0001
0010
0200
0000
0000
0000
0000
1300
0001
0000
0200
,
0000
0000
0000
0000
0320
0000
0000
2030
0000
0000
3100
0000
0010
0001
0000
2000
,
0000
0000
0000
0000
3010
0100
1000
0200
0000
0000
0000
0000
0301
1000
0000
0200
,
0000
0000
0000
0000
0302
0000
0000
0203
0000
0000
0310
0000
0001
1000
0000
0020
,
0000
0000
0000
0000
0000
0000
0000
0000
0000
0000
0000
0000
0130
0000
0000
0001
0000
0000
0000
0000
0000
2000
0000
0000
0000
0000
0000
0000
0000
0000
0000
0000
0000
0000
0000
0000
3100
0000
0010
0000
0001
0000
1000
0000
0010
0000
0100
0000
,
0001
2000
0000
0000
0000
0000
0000
0000
0000
0000
0000
0000
0000
0000
0000
0000
,
3200
0000
0000
0000
,
0000
0000
0000
0000
,
0300
0000
0000
0000
;

//---------------dance-single - ----------------
#NOTES:
     dance-single:
     :
     Hard:
     14:
     0.546667,0.640000,0.193333,0.466667,0.746667,574.000000,545.000000,29.000000,70.000000,23.000000,0.000000,0.546667,0.640000,0.193333,0.466667,0.746667,574.000000,545.000000,29.000000,70.000000,23.000000,0.000000:
// measure 0
0000
0000
0000
0000
,  // measure 1
0000
0000
0000
0000
,  // measure 2
0000
0000
0000
0000
,  // measure 3
0000
0000
0000
0000
0000
0000
0000
0000
0000
0000
1000
0000
0001
0100
0000
0020
,  // measure 4
0000
0000
0000
0000
1030
0000
0100
0020
0000
0000
0000
0000
0031
1000
0000
0020
,  // measure 5
0000
0000
0000
0000
0032
0000
0000
0023
0000
0000
0230
0000
0301
1000
0000
0200
,  // measure 6
0000
0000
0000
0000
0310
0001
0000
0200
0000
0000
0000
0000
0340
0000
0000
0030
,  // measure 7
1000
0002
0000
0000
0000
0000
0000
0000
0000
0000
0000
0000
0013
0000
0001
0100
,  // measure 8
00M0
0100
00M0
0100
0000
0010
1000
0000
0001
0000
0000
0000
0010
0000
0001
0100
,  // measure 9
00M0
0100
00M0
0100
0000
0010
1000
0000
0001
0000
0000
0000
1000
0100
0010
0001
,  // measure 10
0000
0100
0001
0000
1000
0100
0010
0001
0000
0100
0001
0000
1000
0100
0010
0000
,  // measure 11
0011
0000
0000
1001
0000
0000
1010
0000
0000
1001
0000
0000
0001
1000
0000
0100
,  // measure 12
00M0
0100
00M0
0100
0000
0010
0001
0000
1000
0000
0000
0000
0010
0000
1000
0100
,  // measure 13
0000
0001
0000
0100
0000
0010
0001
0000
0100
0000
0000
0000
0010
1000
0001
0000
,  // measure 14
2000
0000
0000
0100
0000
0000
3002
0000
0000
0100
0000
0000
1003
0000
0100
0000
,  // measure 15
0020
0000
0000
0000
0032
0000
0000
0000
1003
0000
1000
0000
0010
0000
1000
0100
,  // measure 16
00M0
0100
00M0
0100
0000
0010
0001
0000
1000
0000
0000
0000
0010
0000
1000
0100
,  // measure 17
00M0
0100
00M0
0100
0000
0010
0001
0000
1000
0000
0000
0000
0001
0100
0010
1000
,  // measure 18
0000
0100
1000
0000
0001
0100
0010
1000
0000
0100
1000
0000
0001
0100
0010
0000
,  // measure 19
1010
0000
0000
1001
0000
0000
0011
0000
0000
1001
0000
0000
1000
0100
0000
0001
,  // measure 20
0000
0100
0000
0010
0000
0001
1000
0000
0001
0000
0000
0000
0010
0000
0001
0100
,  // measure 21
0000
1000
0000
0100
0000
0010
1000
0000
0001
0000
0000
0000
0010
0000
0100
0000
,  // measure 22
2000
0000
0000
0100
0000
0000
3002
0000
0000
0100
0000
0000
1003
0000
0100
0000
,  // measure 23
0020
0000
0000
0001
0000
0000
0230
0000
0000
1000
0000
0000
0310
0000
0001
0000
,  // measure 24
2000
0000
0000
0010
0000
0000
3002
0000
0000
0010
0000
0000
1003
0010
0100
0002
,  // measure 25
0000
0000
0000
0003
,  // measure 26
1001
0000
0000
0110
0000
0000
1000
0000
0001
0000
0100
0000
1000
0000
0100
0000
,  // measure 27
0001
0000
1000
0000
0100
0000
0010
0001
0000
0100
0000
0001
0000
1000
0000
0010
,  // measure 28
0000
0000
0100
0001
0100
00M0
0100
1000
0100
0000
0010
0000
0001
0000
0000
0000
,  // measure 29
1000
0000
0010
0000
0100
0000
0001
0010
0000
0001
0000
1000
0000
0010
0000
0100
,  // measure 30
0000
0000
0010
0000
1000
0001
1000
0001
0100
00M0
0100
0000
1000
0000
0100
0000
,  // measure 31
0010
0000
0001
0000
0100
0000
0010
1000
0000
0100
0000
1000
0000
0001
0000
0010
,  // measure 32
0000
0000
0100
1000
0100
00M0
0100
0001
0100
0000
0010
0000
1000
0000
0000
0000
,  // measure 33
0001
0000
0010
0000
0100
0000
1000
0010
0000
1000
0000
0001
0000
0010
0000
0200
,  // measure 34
0000
0000
0000
0000
0000
0000
0000
0000
0000
0000
0000
0000
1300
0000
0001
0100
,  // measure 35
0001
0000
0000
0110
0000
0000
0010
0000
1000
0000
0000
0000
0001
0000
1000
0100
,  // measure 36
1000
0000
0000
0110
0000
0000
0010
0000
0001
0000
0000
0000
1000
0000
0010
0100
,  // measure 37
0000
0010
1000
0000
0001
0000
0010
0100
0000
0010
0001
0000
1000
0010
1000
0000
,  // measure 38
0002
0000
0000
0010
0000
0000
2003
0000
0000
0010
0000
0000
3001
0010
0000
0100
,  // measure 39
1000
0000
0010
0000
1000
0000
0010
0000
0100
0000
0001
0000
0100
0001
1000
0000
,  // measure 40
0001
0000
0010
0000
0001
0000
0010
0000
0100
0000
1000
0000
0100
1000
0001
0000
,  // measure 41
1000
0010
1000
0000
0001
0010
0001
0000
1000
0100
1000
0000
0001
0100
0010
2000
,  // measure 42
0000
0000
0000
0000
0000
0000
0000
0000
0000
0000
0000
0000
3001
0000
1000
0100
,  // measure 43
000M
0100
000M
0100
0000
0010
0001
0000
0100
0000
0010
0000
1000
0000
0001
0100
,  // measure 44
M000
0100
M000
0100
0000
0010
1000
0000
0100
0000
0010
0000
0001
1000
0100
0010
,  // measure 45
0000
0001
0100
0000
0001
1000
0100
0010
0000
0001
0100
0000
0010
1000
0001
0000
,  // measure 46
0011
0000
0000
1001
0000
0000
1010
0000
0000
1001
0000
0000
0001
0010
0000
0100
,  // measure 47
M000
0100
M000
0100
0000
1000
0010
0000
0100
0001
0000
0100
0001
0000
1000
0100
,  // measure 48
0000
0001
0000
0100
0000
0010
0001
0000
1000
0010
0000
1000
0010
0100
0001
0000
,  // measure 49
1000
0000
2000
0100
0000
0000
3001
0000
0002
0100
0000
0000
1003
0100
0010
0000
,  // measure 50
0100
0000
0200
1000
0000
0000
0310
0000
0020
0001
0000
0000
0130
1000
0001
0000
,  // measure 51
0101
0000
0000
1100
0000
0000
0110
0000
0000
0011
0000
0000
1001
0000
2000
0000
,  // measure 52
0000
0000
0000
3004
0203
0000
0000
0000
,  // measure 53
0320
0000
2030
0000
,  // measure 54
3200
0000
0320
0032
,  // measure 55
2003
3020
0230
0302
,  // measure 56
1003
0000
0100
0000
1000
0000
0100
0000
0010
0000
0001
0000
0010
0001
1000
0000
,  // measure 57
0001
0000
0100
0000
0001
0000
0100
0000
0010
0000
1000
0000
0010
1000
0001
0000
,  // measure 58
1000
0100
1000
0000
0001
0100
0001
0000
1000
0010
1000
0000
0001
0010
0100
1000
,  // measure 59
0004
0003
0000
0400
0300
0000
0040
0030
4000
0000
3000
0000
0001
0000
1000
0001
,  // measure 60
0100
0000
00M0
0000
1100
0000
0000
1000
0001
0100
00M0
0100
1000
0000
0001
0010
,  // measure 61
0000
0000
0200
0000
1000
0000
0000
0310
0000
0000
0001
0000
1000
0100
00M0
0100
,  // measure 62
0001
0000
1000
0010
0100
0000
0000
0001
1000
0100
00M0
0100
0001
0000
1000
0100
,  // measure 63
0010
0000
0000
0011
0000
0000
0001
0000
1000
0000
0000
1010
0000
0000
1000
0000
,  // measure 64
0001
0000
0000
0000
1001
0000
0000
0000
1000
0000
0100
0000
0002
0000
0000
0203
,  // measure 65
0000
0000
0310
0000
2000
0000
0000
3010
0100
1000
0100
1000
0002
0000
0000
2003
,  // measure 66
0000
3010
0200
0000
0000
0000
0000
0000
0000
0000
0301
0000
1000
0010
0000
0200
,  // measure 67
0000
0000
0000
0000
0302
0000
0000
0023
0000
0000
0000
0000
0230
0000
0000
1300
,  // measure 68
0001
0100
0001
0000
1000
0100
1000
0000
0001
0010
0001
0000
1000
0010
0100
0001
,  // measure 69
1000
0000
0000
1100
0000
0000
0101
0000
0110
0000
0000
0000
0000
0000
0000
0000
,  // measure 70
1001
0000
0000
0000
1000
0000
0010
0200
0000
0000
0000
0000
0301
2000
0000
0100
,  // measure 71
0000
0000
0000
0000
3002
0000
0000
0023
0000
0000
0130
0000
1000
0001
0000
0200
,  // measure 72
0000
0000
0000
0000
0301
0000
0010
0200
0000
0000
0000
0000
1300
0002
0000
0100
,  // measure 73
0000
0000
0000
0000
2003
0000
0000
3020
0000
0000
0230
0000
0301
1000
0000
0200
,  // measure 74
0000
0000
0000
0000
0310
0001
1000
0020
0000
0000
0000
0000
0130
0002
0000
1000
,  // measure 75
0000
0000
0000
0000
0023
0000
0000
0230
0000
0000
2300
0000
3001
0100
0000
0020
,  // measure 76
0000
0000
0000
0000
1030
0001
0000
0020
0000
0000
0000
0000
0430
0000
0000
0300
,  // measure 77
1000
0002
0000
0000
0000
0000
0000
0000
0000
0000
0000
0000
0000
0000
0000
0000
,  // measure 78
0203
0000
0000
0000
,  // measure 79
0000
0000
0000
0000
,  // measure 80
0300
0000
0000
0000
;
