#VERSION:0.83;
#TITLE:Tight Pants Body Rolls;
#SUBTITLE:;
#ARTIST:Leslie Hall;
#TITLETRANSLIT:;
#SUBTITLETRANSLIT:;
#ARTISTTRANSLIT:;
#GENRE:;
#ORIGIN:;
#CREDIT:;
#BANNER:banner.png;
#BACKGROUND:Tight Pants Body Rolls-bg.png;
#PREVIEWVID:;
#JACKET:jacket.png;
#CDIMAGE:;
#DISCIMAGE:;
#LYRICSPATH:;
#CDTITLE:;
#MUSIC:Tight Pants Body Rolls.ogg;
#OFFSET:-0.233000;
#SAMPLESTART:47.543125;
#SAMPLELENGTH:13.280005;
#SELECTABLE:YES;
#BPMS:0.000=142.000;
#STOPS:;
#DELAYS:;
#WARPS:;
#TIMESIGNATURES:0.000=4=4;
#TICKCOUNTS:0.000=4;
#COMBOS:0.000=1;
#SPEEDS:0.000=1.000=0.000=0;
#SCROLLS:188.000=0.940,
189.000=0.880,
190.000=0.810,
191.000=0.750,
192.000=0.690,
193.000=0.620,
194.000=0.560,
195.000=0.500,
228.000=1.000;
#FAKES:;
#LABELS:0.000=Song Start;
#BGCHANGES:-0.233=Tight Pants Body Rolls.avi=1.000=0=0=0=StretchNoLoop====,
99999=-nosongbg-=1.000=0=0=0 // don't automatically add -songbackground-
;
#KEYSOUNDS:;
#ATTACKS:
;

//---------------dance-single - ----------------
#NOTEDATA:;
#CHARTNAME:;
#STEPSTYPE:dance-single;
#DESCRIPTION:;
#CHARTSTYLE:;
#DIFFICULTY:Beginner;
#METER:2;
#RADARVALUES:0.114768,0.144607,0.000000,0.000000,0.000000,100.000000,100.000000,0.000000,0.000000,0.000000,0.000000,0.000000,0.000000,0.000000,0.114768,0.144607,0.000000,0.000000,0.000000,100.000000,100.000000,0.000000,0.000000,0.000000,0.000000,0.000000,0.000000,0.000000;
#CREDIT:;
#NOTES:
0000
0000
0000
0000
,
0000
0000
0000
0000
,
0000
0000
0000
0000
,
0000
0000
0000
0000
,
1000
0000
1000
0000
,
1000
0000
0000
0000
,
0001
0000
0001
0000
,
0001
0000
0000
0000
,
0100
0000
0100
0000
,
0100
0000
0000
0000
,
0010
0000
0010
0000
,
0010
0000
0000
0000
,
1000
0000
0000
0000
,
1000
0000
0000
0000
,
0100
0000
0000
0000
,
0100
0000
0000
0000
,
0010
0000
0000
0000
,
0010
0000
0000
0000
,
0001
0000
0000
0000
,
0001
0000
0000
0000
,
1000
0000
1000
0000
,
0010
0000
0000
0000
,
0100
0000
0100
0000
,
0001
0000
0000
0000
,
0010
0000
0010
0000
,
0100
0000
0000
0000
,
1000
0000
1000
0000
,
0001
0000
0001
0000
,
1000
0000
1000
0000
,
0010
0000
0010
0000
,
0100
0000
0100
0000
,
0001
0000
0000
0000
,
0001
0000
0001
0000
,
0010
0000
0010
0000
,
0100
0000
0100
0000
,
1000
0000
0000
0000
,
0001
0000
0000
0000
,
0100
0000
0000
0000
,
0010
0000
0000
0000
,
1000
0000
1000
0000
,
0100
0000
0000
0000
,
0010
0000
0000
0000
,
0001
0000
0000
0000
,
1000
0000
0000
0000
,
0010
0000
0010
0000
,
0100
0000
0100
0000
,
0001
0000
0001
0000
,
1000
0000
0000
0000
,
0000
0000
0000
0000
,
1000
0000
1000
0000
,
0100
0000
0100
0000
,
0010
0000
0010
0000
,
0001
0000
0000
0000
,
0001
0000
0001
0000
,
0100
0000
0100
0000
,
0010
0000
0010
0000
,
1000
0000
0000
0000
,
0100
0000
0000
0000
,
0100
0000
0000
0000
,
1000
0000
0000
0000
,
1000
0000
0000
0000
,
0010
0000
0000
0000
,
0010
0000
0000
0000
,
0100
0000
0000
0000
,
0100
0000
0100
0000
,
0001
0000
0001
0000
,
0010
0000
0010
0000
,
0100
0000
0100
0000
,
1000
0000
0000
0000
,
1000
0000
1000
0000
,
0010
0000
0010
0000
,
0100
0000
0100
0000
,
0001
0000
0000
0000
;

//---------------dance-single - ----------------
#NOTEDATA:;
#CHARTNAME:;
#STEPSTYPE:dance-single;
#DESCRIPTION:;
#CHARTSTYLE:;
#DIFFICULTY:Easy;
#METER:5;
#RADARVALUES:0.216911,0.292227,0.112472,0.032135,0.000000,189.000000,175.000000,14.000000,4.000000,0.000000,0.000000,0.000000,0.000000,0.000000,0.216911,0.292227,0.112472,0.032135,0.000000,189.000000,175.000000,14.000000,4.000000,0.000000,0.000000,0.000000,0.000000,0.000000;
#CREDIT:;
#NOTES:
0000
0000
0000
0000
,
0000
0000
0000
0000
,
0000
0000
0000
0000
,
0000
0000
0000
0000
,
1000
0000
1000
0000
,
0001
0000
0001
0000
,
0100
0000
0100
0000
,
0010
0000
0000
0000
,
1000
0000
1000
0000
,
0100
0000
0100
0000
,
0010
0010
0010
0000
,
0001
0000
1001
0000
,
0001
0000
0001
0000
,
0100
0000
0000
0000
,
0010
0000
0010
0000
,
1000
0000
0000
0000
,
0100
0100
1000
0000
,
0010
0010
0100
0000
,
0001
0000
0001
0000
,
2002
0000
0000
3003
,
1000
1000
0100
0000
,
0010
0010
0001
0000
,
0001
0001
0100
0000
,
0010
0010
1000
0000
,
1000
0100
0010
0001
,
0100
0010
1000
0000
,
0001
0000
0101
0000
,
1000
0000
1100
0000
,
0001
0001
0001
0000
,
1000
1000
1000
0000
,
0010
1001
0100
1001
,
0001
0000
1000
0000
,
1000
1000
1000
0000
,
0001
0001
0001
0000
,
0100
1001
0010
1001
,
1000
0000
0001
0000
,
1000
0100
1000
0000
,
0001
0100
0001
0000
,
1000
0010
1000
1000
,
0001
0010
0001
0100
,
0001
0000
1000
0000
,
0100
0000
1000
0000
,
0010
0010
1000
0000
,
0001
0001
0100
0000
,
0001
0000
0010
0000
,
0100
0000
1000
0000
,
0010
0010
0100
0100
,
2002
0000
0000
0000
,
0000
0000
0000
3003
,
1000
0000
1000
0000
,
0001
0000
0001
0000
,
0100
0100
0100
0000
,
0010
0010
0010
0000
,
1000
0000
1000
0000
,
0001
0000
0001
0000
,
0010
0010
0010
0000
,
0100
0100
0100
0000
,
1000
0000
1000
0000
,
0100
0000
0100
0000
,
0010
0000
0010
0000
,
0001
0000
0001
0000
,
1000
1000
1000
0000
,
0001
0001
0001
0000
,
0100
0100
0100
0000
,
0010
0000
1001
0000
,
1000
1000
1000
0000
,
0001
0001
0001
0000
,
0100
1001
0010
1001
,
1000
0000
0001
0000
,
0001
0001
0001
0000
,
1000
1000
1000
0000
,
0010
1001
0100
1001
,
1000
0000
1000
0001
;

//---------------dance-single - ----------------
#NOTEDATA:;
#CHARTNAME:;
#STEPSTYPE:dance-single;
#DESCRIPTION:;
#CHARTSTYLE:;
#DIFFICULTY:Medium;
#METER:8;
#RADARVALUES:0.329383,0.350673,0.112472,0.048202,0.000000,287.000000,273.000000,14.000000,6.000000,0.000000,0.000000,0.000000,0.000000,0.000000,0.329383,0.350673,0.112472,0.048202,0.000000,287.000000,273.000000,14.000000,6.000000,0.000000,0.000000,0.000000,0.000000,0.000000;
#CREDIT:;
#NOTES:
0000
0000
0000
0000
,
0000
0000
0000
0000
,
0000
0000
0000
0000
,
0000
0000
0000
0000
,
1000
0100
0010
0001
,
0100
0000
0000
0100
0000
0000
0001
0000
,
0010
0100
1000
0010
,
0100
0000
1001
0000
,
0001
0000
1000
1000
,
0100
0000
1000
0000
,
0001
0100
0010
1000
,
0200
0000
0000
0300
,
1000
0000
0001
0100
0010
0000
0100
0000
,
0001
0001
1000
0000
,
0001
0000
1000
0100
0010
0000
0100
0000
,
1000
1000
0001
0000
,
1000
0100
1000
0000
0001
0000
0000
0000
,
0001
0100
0001
0000
1000
0000
0000
0000
,
0010
1000
0100
0010
,
1002
1000
1000
1003
,
0001
0000
1000
0000
0100
1000
0001
0000
,
1000
0000
0001
0000
0010
0001
1000
0000
,
0001
0100
0010
0000
1000
0000
0001
0000
,
1000
0100
0010
0000
0001
0000
1000
0000
,
0010
0010
0100
0100
,
0001
0001
1000
0000
,
0001
0010
0100
1100
,
1000
0010
0100
0101
,
1000
0000
1000
0000
1000
1000
1000
0000
,
0001
0000
0001
0000
0001
0001
0001
0000
,
0100
1001
0010
1001
,
1000
0001
0100
0100
,
0001
0000
0001
0000
0001
0001
0001
0000
,
1000
0000
1000
0000
1000
1000
1000
0000
,
0010
1001
0100
1001
,
0001
1000
0100
0100
,
0002
0010
0100
1003
,
2000
0010
0100
3001
,
1000
0001
0100
0010
,
1000
0000
0100
0000
0010
0100
0010
0000
,
0001
1000
0010
0100
,
0010
0010
1000
0001
,
1000
0000
0100
0000
0010
0100
1000
0000
,
0001
0100
0010
0000
,
0100
0100
0001
0001
,
0010
0100
0010
0000
0100
0000
0000
0000
,
1000
0000
0010
0000
0100
0000
0001
1000
,
2002
0000
0000
0000
,
0000
0000
0000
3003
,
1000
0100
1000
0100
,
0010
0010
0010
0000
,
0001
0100
0001
0100
,
0010
0010
0010
0000
,
1000
0001
1000
0001
,
0010
0010
0010
0000
,
0001
0001
0001
0000
,
1000
1000
1000
0000
,
0001
0100
0010
1000
,
0100
1000
0100
0000
0010
0000
0001
0000
,
0100
0010
0100
0000
0001
0000
1000
0000
,
0001
0010
0001
0000
1000
0000
0010
0000
,
0100
0010
1000
0001
,
0010
0100
0010
0000
0001
0000
1000
0000
,
0010
0100
0001
0000
0010
0000
0100
0000
,
1000
1000
0001
1001
,
1000
0000
1000
0000
1000
1000
1000
0000
,
0001
0000
0001
0000
0001
0001
0001
0000
,
0010
1001
0100
1001
,
1000
0001
0010
0010
,
0001
0000
0001
0000
0001
0001
0001
0000
,
1000
0000
1000
0000
1000
1000
1000
0000
,
0010
1001
0100
1001
,
0001
1000
0010
0010
;

//---------------dance-single - ----------------
#NOTEDATA:;
#CHARTNAME:;
#STEPSTYPE:dance-single;
#DESCRIPTION:;
#CHARTSTYLE:;
#DIFFICULTY:Hard;
#METER:10;
#RADARVALUES:0.381029,0.496787,0.144607,0.120506,0.000000,332.000000,314.000000,18.000000,15.000000,12.000000,0.000000,12.000000,0.000000,0.000000,0.381029,0.496787,0.144607,0.120506,0.000000,332.000000,314.000000,18.000000,15.000000,12.000000,0.000000,12.000000,0.000000,0.000000;
#CREDIT:;
#NOTES:
// measure 0
0000
0000
0000
0000
,  // measure 1
0000
0000
0000
0000
,  // measure 2
0000
0000
0000
0000
,  // measure 3
0000
0000
0000
0000
,  // measure 4
1000
0100
0000
0000
0100
0010
0000
0000
,  // measure 5
0010
0001
0000
0000
0001
1000
0000
0000
,  // measure 6
1000
0010
0000
0000
0010
0100
0000
0000
,  // measure 7
0200
0000
0302
0000
,  // measure 8
1003
0000
0100
0100
,  // measure 9
2000
0000
3002
0000
,  // measure 10
1003
0000
0010
0100
0001
0000
0010
0000
,  // measure 11
0200
0000
0000
0300
,  // measure 12
0010
0001
0100
0010
0100
0000
0001
1000
,  // measure 13
0100
0100
1000
1000
0001
0001
0001
0200
,  // measure 14
0000
0000
0310
1000
0100
1000
0010
0100
,  // measure 15
0001
1000
0100
1000
0010
0000
1001
0000
,  // measure 16
1000
0100
1100
0000
0001
0000
0000
0000
,  // measure 17
0001
0100
0101
0000
1000
0000
0000
0000
,  // measure 18
0002
0000
0013
0100
2000
0000
3010
0100
,  // measure 19
1002
1000
1000
1003
,  // measure 20
1001
0000
0001
0010
0100
1000
0010
0100
,  // measure 21
1010
0000
0001
0100
0010
0100
0001
0000
,  // measure 22
0011
0010
0100
1000
0010
0100
0001
0000
,  // measure 23
1000
0100
0010
0001
0100
0010
1000
0000
,  // measure 24
0001
1000
0100
1000
0001
0010
0001
0100
,  // measure 25
0010
1000
0100
0010
0001
0000
1001
0000
,  // measure 26
0001
0100
1000
0000
1000
0100
0001
0000
,  // measure 27
1000
0100
0001
0000
0001
0100
1000
0000
,  // measure 28
0004
0000
0000
0003
,  // measure 29
4000
0000
0000
3000
,  // measure 30
0001
001M
1000
M010
,  // measure 31
0001
0100
1000
0100
0010
0000
1001
0000
,  // measure 32
4000
0000
0000
3000
,  // measure 33
0004
0000
0000
0003
,  // measure 34
1000
M010
0001
001M
,  // measure 35
1000
0100
0001
0100
0010
0000
1001
0000
,  // measure 36
1000
0100
0000
0100
0010
0000
0001
0000
,  // measure 37
0001
0100
0000
0100
0010
0010
1000
0000
,  // measure 38
0001
0010
0100
0010
0001
0000
1000
0000
,  // measure 39
0010
0100
0110
1001
,  // measure 40
1000
0100
0010
0001
0100
0010
1000
0000
,  // measure 41
0002
0010
0100
1003
,  // measure 42
0001
0000
0010
0000
1000
0010
0001
0000
,  // measure 43
2000
0010
0100
3100
,  // measure 44
1000
0000
0001
0000
,  // measure 45
0100
0010
0100
0000
1001
0000
0000
0000
,  // measure 46
0001
0010
0100
1000
,  // measure 47
0002
1000
1000
2000
,  // measure 48
0000
0000
0000
3003
,  // measure 49
4000
3000
0004
0003
,  // measure 50
1000
M010
0001
001M
,  // measure 51
1000
0100
0010
0001
1000
0000
1000
0000
,  // measure 52
0001
0100
0010
1000
0001
0000
0001
0000
,  // measure 53
4000
3000
0004
0003
,  // measure 54
1000
M010
0001
001M
,  // measure 55
1000
0100
0001
0000
0001
0100
1000
0000
,  // measure 56
0001
0100
1000
0000
1000
0100
0001
1000
,  // measure 57
0001
0000
0101
0000
1000
0100
0010
0001
,  // measure 58
0100
0010
0100
0001
0010
0100
1000
0000
,  // measure 59
0001
0010
0100
1000
0010
0100
0001
0000
,  // measure 60
1000
0100
0010
0001
0100
0010
1000
0000
,  // measure 61
0001
0101
1000
1100
,  // measure 62
0001
0010
1000
0010
0001
0100
1000
0000
,  // measure 63
1000
0100
0001
0010
1000
0010
0001
0000
,  // measure 64
0002
0000
0203
0000
0310
0010
1000
1000
,  // measure 65
0004
0000
0000
0003
,  // measure 66
4000
0000
0000
3000
,  // measure 67
0001
001M
1000
M010
,  // measure 68
0001
0100
1000
0100
0010
0000
1001
0000
,  // measure 69
4000
0000
0000
3000
,  // measure 70
0004
0000
0000
0003
,  // measure 71
1000
M010
0001
001M
,  // measure 72
1000
0100
0001
0100
0010
0000
1001
0000
;
