#TITLE:This Was My House;
#SUBTITLE:(feat. Niki Haris, Donna De Lory & Initial Talk);
#ARTIST:Bright Light Bright Light;
#TITLETRANSLIT:;
#SUBTITLETRANSLIT:;
#ARTISTTRANSLIT:;
#GENRE:;
#CREDIT:;
#BANNER:This Was My House.png;
#BACKGROUND:This Was My House-bg.png;
#LYRICSPATH:;
#CDTITLE:;
#MUSIC:This Was My House.ogg;
#OFFSET:0.000000;
#SAMPLESTART:43.452908;
#SAMPLELENGTH:15.000000;
#LASTBEATHINT:283.386658;
#SELECTABLE:YES;
#BPMS:0.000000=116.000000
;
#STOPS:
;
#BGCHANGES:0.000=This Was My House.avi=1.000=1=0=0=StretchNoLoop==CrossFade==,
99999=-nosongbg-=1.000=0=0=0 // don't automatically add -songbackground-
;
#KEYSOUNDS:;
#ATTACKS:TIME=5.130000:LEN=0.650000:MODS=FailOff, Overhead, Fourv2;

//---------------dance-single - ----------------
#NOTES:
     dance-single:
     :
     Beginner:
     2:
     0.116030,0.164456,0.100687,0.073837,0.000000,121.000000,106.000000,15.000000,11.000000,0.000000,0.000000,0.116030,0.164456,0.100687,0.073837,0.000000,121.000000,106.000000,15.000000,11.000000,0.000000,0.000000:
0000
0000
0000
0000
,
0000
0000
0000
0000
,
0000
0000
0000
0000
,
1000
0000
0000
0000
,
0001
0000
0000
0000
,
0020
0000
0030
0000
,
0100
0000
0100
0000
,
2000
0000
3000
0000
,
0001
0000
0001
0000
,
0200
0000
0300
0000
,
0010
0000
0010
0000
,
1000
0000
0001
0000
,
1000
0000
0001
0000
,
1001
0000
0000
0000
,
0110
0000
0000
0000
,
0001
0000
0010
0000
,
0110
0000
0000
0000
,
1001
0000
0000
0000
,
0110
0000
0000
0000
,
1000
0000
1000
0000
,
0001
0000
1001
0000
,
1001
0000
0010
0000
,
0010
0000
0010
0000
,
0100
0000
0010
0000
,
1000
0000
0001
0000
,
1001
0000
0010
0000
,
0100
0000
0100
0000
,
0010
0000
0001
0000
,
1000
0000
1000
0000
,
2002
0000
0000
0000
,
3003
0000
0000
0000
,
0001
0000
0001
0000
,
1000
0000
1000
0000
,
0010
0010
0000
0000
,
0100
0100
0000
0000
,
0001
0001
0000
0000
,
1000
1000
0000
0000
,
1001
0000
0001
0000
,
0010
0000
0100
0000
,
1000
0000
0010
0000
,
0100
0000
0010
0000
,
1000
1000
0000
0000
,
0001
0001
0000
0000
,
0100
0100
0000
0000
,
0010
0010
0020
0000
,
0030
0000
0000
2000
,
3000
0000
0000
0000
,
0000
0000
0000
0000
,
0000
0000
0000
0000
,
0000
0000
0000
0000
,
0001
0000
0010
0000
,
0001
0000
0100
0000
,
0010
0000
1000
0000
,
0100
0000
0010
0000
,
0110
0000
0000
0000
,
1001
0000
0000
0000
,
0110
0000
0000
0000
,
1001
0000
0000
0000
,
0001
0000
0001
0000
,
0100
0000
0010
0000
,
1000
0000
1000
0000
,
0100
0000
0010
0000
,
0002
0000
0003
0000
,
2000
0000
3000
0000
,
0020
0000
0030
0000
,
0200
0000
0300
0000
,
0001
0000
0001
0000
,
1000
0000
1000
0000
,
0010
0000
1000
0000
,
0100
0000
0010
0000
,
0110
0000
0000
0000
;

//---------------dance-single - ----------------
#NOTES:
     dance-single:
     :
     Easy:
     5:
     0.227266,0.281925,0.147675,0.073837,0.000000,237.000000,215.000000,22.000000,11.000000,0.000000,0.000000,0.227266,0.281925,0.147675,0.073837,0.000000,237.000000,215.000000,22.000000,11.000000,0.000000,0.000000:
0000
0000
0000
0000
,
0000
0000
0000
0000
,
0000
0000
0000
0000
,
0001
0100
0001
0000
,
0010
0100
0010
0000
,
0002
0000
1003
1000
,
0010
0100
0010
0000
,
2000
0000
3100
0010
,
0100
1000
0001
0000
,
0200
0000
0310
0000
,
1000
0001
1001
0000
,
1000
0100
0010
0001
,
2000
0000
3001
0010
,
0110
0100
0010
0001
,
2000
0000
3001
0000
,
0001
0100
0001
0100
,
0110
0000
1001
0000
,
1000
0100
0010
0000
,
0001
0100
0010
0000
,
1000
1000
0001
0001
,
1000
0001
0110
1000
,
0001
0100
0010
0100
,
0001
1000
0100
0010
,
0001
0010
0001
1000
,
0010
0010
1010
0000
,
0101
0100
0010
1000
,
0100
1000
0010
0100
,
0001
0001
1000
1000
,
0100
0010
0002
1003
,
2002
0000
0000
0000
,
3003
0000
0000
0000
0000
0001
0001
0000
,
1000
0010
1000
0000
,
0001
0010
0001
0000
,
2000
3001
0000
0010
,
0000
0001
0100
0010
,
0200
0301
1001
1001
,
1000
0100
1100
0000
,
0001
0100
0010
0010
,
1000
0100
0010
0000
,
0100
1000
0001
0001
,
0100
0010
1000
0000
,
0001
0010
0001
0100
,
0001
0010
0001
0000
,
1000
0010
0100
0000
,
0010
1000
0001
1000
,
0110
0000
0000
0001
,
1001
0000
1000
0000
,
0010
0000
0100
0000
,
0010
0000
1000
0000
,
0100
0000
0020
0030
,
0001
0001
1000
0000
,
0010
0010
1000
0000
,
1000
1000
0100
0000
,
0010
0010
0001
1000
,
0000
1001
0001
0100
,
0010
1000
0100
1000
,
0000
0001
0100
0010
,
0100
0100
1001
0000
,
0001
0010
0100
1000
,
0010
0100
0010
1000
,
0100
0010
0001
0100
,
0010
1000
1001
0001
,
0100
0010
0110
0000
,
1000
0001
1001
0000
,
0001
0010
0011
0000
,
0100
1000
1001
0110
,
0000
0001
1000
0001
,
0000
0010
0100
1000
,
0000
0010
0100
0010
,
1000
0000
0001
1000
,
1001
0000
0000
0000
;

//---------------dance-single - ----------------
#NOTES:
     dance-single:
     :
     Medium:
     9:
     0.383571,0.376571,0.087262,0.194662,0.396037,400.000000,387.000000,13.000000,29.000000,0.000000,0.000000,0.383571,0.376571,0.087262,0.194662,0.396037,400.000000,387.000000,13.000000,29.000000,0.000000,0.000000:
0000
0000
0000
0000
,
0000
0000
0000
0000
,
0000
0000
0000
0000
,
1000
0010
1000
0000
0001
0010
0001
0000
,
1000
0100
1000
0010
1000
0002
0000
0003
,
1000
0002
0010
0000
0013
0100
1000
0000
,
0100
0010
0001
1000
0001
0000
0100
0000
,
0010
2000
0001
0000
3001
0010
0001
0000
,
0100
0010
0100
0001
0020
0000
0130
0000
,
1000
0002
1000
0000
0103
0000
0010
0000
,
0100
0010
1000
0001
1000
0001
0010
0000
,
0100
1000
0001
0000
0100
0001
1000
0000
,
0100
0010
0001
1000
0010
0000
0110
0000
,
1002
0000
0013
0100
1000
0000
1000
0001
,
1000
0010
1000
0000
0010
0100
0001
0000
,
0010
0100
0010
0001
0100
0010
0100
0001
,
1000
0000
0001
0000
0010
0100
1000
0000
,
0001
0000
0000
0000
0101
0000
0000
0100
0000
0000
0010
0000
0000
1000
0000
0000
,
0001
1000
0001
0100
0010
1000
0001
0000
,
0010
0100
0010
0000
0100
1000
0100
0000
,
0010
0001
0010
0100
2000
0010
3010
0000
,
1000
0001
0000
1000
0000
0000
0000
0001
0000
1000
0000
0001
0000
0000
0000
1000
,
0000
0001
0000
1000
0000
0000
0000
0001
0000
0010
0000
0100
0000
1000
0000
0000
,
0001
0100
0000
0001
0000
0000
0000
0010
0000
0001
0000
0010
0000
0000
0000
0100
,
0000
1000
0000
0001
0000
1000
0000
0000
2001
0000
0000
0000
3001
0000
0000
0000
,
1000
0010
0000
0100
0000
0000
0000
0001
0000
0010
0000
0100
0000
0000
0000
1000
,
0000
0010
0000
0100
0000
0000
0000
0001
0000
0100
0000
0010
0000
2000
0000
0000
,
3001
0010
0000
0001
0000
0000
0000
1000
0000
0010
0000
1000
0000
0100
0000
1000
,
0000
0010
0000
0100
0000
0010
0000
0000
0120
0000
0000
0000
0130
0000
0000
0000
,
2000
0001
0001
0001
,
3100
0000
0010
0000
0001
1000
1001
0000
,
0001
0100
0001
0010
0001
0100
0001
0000
,
1000
0100
1000
0010
0100
0001
1000
0000
,
0001
0001
0010
0000
0100
0000
1000
0000
,
0010
0000
0100
0001
2000
0000
3100
0000
,
1000
1000
0010
0000
0210
0000
0310
0000
,
1000
0001
1000
0001
0020
0000
0030
0000
,
0001
0001
0001
0000
1000
0010
0100
0001
,
0100
0010
1000
0000
0001
0010
0100
0000
,
1000
1000
1000
0000
0001
0100
0010
0100
,
0001
0010
0100
0010
0002
0000
1003
0000
,
0100
0100
0100
0000
1000
0001
1000
0001
,
0010
0010
0010
0000
0001
0100
0010
0000
,
0100
0010
1000
0100
0010
0100
1000
0000
,
0001
0000
1000
0000
1001
0000
0000
0000
0001
0000
0000
0010
0000
0100
0000
0000
,
1000
0000
0000
0002
,
2003
0000
0000
0100
,
3200
0000
0000
0320
,
0032
0000
0000
0100
,
0203
0000
0000
0320
,
1030
0001
0001
0010
,
0010
0100
0100
0010
,
0001
0100
0010
1000
,
0001
0000
0010
0000
0100
0000
0000
0000
1000
0000
0010
0000
0100
0000
0001
0100
,
0000
0010
0000
1000
0000
0000
0000
0001
0000
0010
0000
0100
0000
0000
0000
0010
,
0000
0001
0000
0100
0000
0000
0000
0010
0000
1000
0000
0100
0000
1000
0000
0000
,
0001
1000
0000
0010
0000
0000
0000
0100
0000
0010
0000
0100
0000
0000
0000
0010
,
0000
1000
0000
0100
0000
0010
0000
0000
0002
0000
1000
0000
1003
0000
0000
0000
,
0001
0100
0000
0010
0000
0000
0000
0100
0000
0001
0000
0010
0000
0000
0000
0100
,
0000
1000
0000
0010
0000
1000
0000
0100
0000
0010
0000
0001
0000
1000
0000
0000
,
0001
1000
0000
0010
0000
0000
0000
0100
0000
0010
0000
1000
0000
0100
0000
0010
,
0000
0010
0000
0001
0000
0001
0000
0000
2000
0000
0000
0000
3010
0000
0000
0100
,
0000
0100
0000
0001
0000
0001
0000
0000
0020
0000
0000
0000
0130
0000
0000
0010
,
0000
0010
0000
0001
0000
0001
0000
0000
2000
0000
0000
0000
3010
0000
0000
0100
,
0000
0100
0000
0010
0000
0010
0000
0000
2000
0000
0000
0000
3001
0000
0000
1000
,
0000
0100
0000
0010
0000
0001
0000
0000
1000
0000
0010
0000
0100
0000
0001
1000
,
0000
0000
0000
0000
1001
0000
0000
0000
0001
0000
0000
0000
0101
0000
0000
0100
,
0000
0010
0000
1000
0000
0001
0000
0000
0010
0000
0000
0000
1100
0000
0000
0000
,
1001
0000
0001
0000
1000
0001
1000
0001
,
0100
0000
0000
0000
0010
0000
0000
1000
0000
0100
0000
0010
0000
0001
0000
2002
,
0000
3003
0000
0000
0000
0000
0000
0000
;

//---------------dance-single - ----------------
#NOTES:
     dance-single:
     :
     Hard:
     12:
     0.568644,0.635463,0.355762,0.355762,0.852486,593.000000,540.000000,53.000000,53.000000,0.000000,0.000000,0.568644,0.635463,0.355762,0.355762,0.852486,593.000000,540.000000,53.000000,53.000000,0.000000,0.000000:
// measure 0
0000
0000
0000
0000
,  // measure 1
0000
0000
0000
0000
,  // measure 2
0000
0000
0000
0000
,  // measure 3
0001
0000
0000
0000
0000
0000
0000
0000
0000
0000
0000
0000
0000
0000
0000
0000
0000
0000
0000
0000
0000
0000
0000
0000
0010
0000
0000
0000
0000
0000
0000
0000
0000
0000
0000
0000
0000
0000
0000
0000
0000
0000
0000
0000
0000
0000
0000
0000
0001
0000
0000
0000
0000
0000
0000
0000
0000
0000
0000
0000
0000
0000
0000
0000
0000
0000
0000
0000
0000
0000
0000
0000
1000
0000
0000
0000
0000
0000
0000
0000
0000
0000
0000
0000
0000
0000
1000
0000
0000
0000
0000
0000
0000
0000
0000
0000
0001
0000
0000
0000
0000
0000
0000
0000
0000
0000
0000
0000
0000
0000
0000
0000
0000
0000
0000
0000
0000
0000
0000
0000
0010
0000
0000
0000
0000
0000
0000
0000
0000
0000
0000
0000
0000
0000
0000
0000
0000
0000
0000
0000
0000
0000
0000
0000
0001
0000
0000
0000
0000
0000
0000
0000
0000
0000
0000
0000
0000
0000
0000
0000
0000
0000
0000
0000
0000
0000
0000
0000
0000
0000
0000
0000
0000
0000
0000
0000
0000
0000
0000
0000
0000
0000
0000
0000
0000
0000
0000
0000
0000
0000
0000
0000
,  // measure 4
0100
0000
0000
0000
0000
0000
0000
0000
0000
0000
0000
0000
0000
0000
0000
0000
0000
0000
0000
0000
0000
0000
0000
0000
0010
0000
0000
0000
0000
0000
0000
0000
0000
0000
0000
0000
0000
0000
0000
0000
0000
0000
0000
0000
0000
0000
0000
0000
0100
0000
0000
0000
0000
0000
0000
0000
0000
0000
0000
0000
0000
0000
0000
0000
0000
0000
0000
0000
0000
0000
0000
0000
0001
0000
0000
0000
0000
0000
0000
0000
0000
0000
0000
0000
0000
0000
0001
0000
0000
0000
0000
0000
0000
0000
0000
0000
0100
0000
0000
0000
0000
0000
0000
0000
0000
0000
0000
0000
0000
0000
0000
0000
0000
0000
0000
0000
0000
0000
0000
0000
0010
0000
0000
0000
0000
0000
0000
0000
0000
0000
0000
0000
0000
0000
0000
0000
0000
0000
0000
0000
0000
0000
0000
0000
1000
0000
0000
0000
0000
0000
0000
0000
0000
0000
0000
0000
0000
0000
0000
0000
0000
0000
0000
0000
0000
0000
0000
0000
0001
0000
0000
0000
0000
0000
0000
0000
0000
0000
0000
0000
0000
0000
0000
0000
0000
0000
0000
0000
0000
0000
0000
0000
,  // measure 5
1001
0000
2000
0000
0000
3100
0000
0010
0100
0000
1000
0000
0001
0000
0000
0000
,  // measure 6
0100
0000
0010
0000
0100
0000
0001
0020
0000
0000
0130
0000
0010
0000
0001
0000
,  // measure 7
1000
0000
0002
0000
0000
0013
0000
0100
1000
0000
0001
0000
0100
0000
0000
0000
,  // measure 8
0001
1000
0100
1000
0020
0000
0100
0130
,  // measure 9
0001
0000
0020
0000
0000
0031
0000
1000
0010
0000
0100
0000
0010
0000
1000
0000
,  // measure 10
0100
0000
0010
0000
0001
0000
1000
0020
0000
0000
0130
0000
0001
0000
0001
0000
,  // measure 11
1000
0100
0010
0100
1000
0010
0001
0000
,  // measure 12
0010
0000
0000
0000
0000
0000
0000
0000
0000
0000
0000
0000
0000
0000
0000
0000
0000
0000
0000
0000
0000
0000
0000
0000
0100
0000
0000
0000
0000
0000
0000
0000
0000
0000
0000
0000
0000
0000
0000
0000
0000
0000
0000
0000
0000
0000
0000
0000
0001
0000
0000
0000
0000
0000
0000
0000
0000
0000
0000
0000
0000
0000
0000
0000
0000
0000
0000
0000
0000
0000
0000
0000
1000
0000
0000
0000
0000
0000
0000
0000
0000
0000
0000
0000
0000
0000
0000
0000
0000
0000
0000
0000
0000
0000
0000
0000
0001
0000
0000
0000
0000
0000
0000
0000
0000
0000
0000
0000
0000
0000
0000
0000
0000
0000
0000
0000
0000
0000
0000
0000
0000
0000
0000
0000
0000
0000
0000
0000
0000
0000
0000
0000
0000
0000
0000
0000
0000
0000
0000
0000
0000
0000
0000
0000
1001
0000
0000
0000
0000
0000
0000
0000
0000
0000
0000
0000
0000
0000
0000
0000
0000
0000
0000
0000
0000
0000
0000
0000
0001
0000
0000
0000
0000
0000
0000
0000
0000
0000
0000
0000
0000
0000
1000
0000
0000
0000
0000
0000
0000
0000
0000
0000
,  // measure 13
0200
0000
0010
0000
0310
0000
0000
0000
0001
0000
0100
0000
0010
0000
1000
0002
,  // measure 14
0000
0203
0000
0320
0000
0230
0000
0301
1000
0000
0100
0000
0110
0000
0000
0000
,  // measure 15
0010
0002
0000
2003
0000
3002
0000
0103
0001
0000
1000
0000
1001
0000
0000
0000
,  // measure 16
0001
0000
1000
0000
0011
0000
0000
0000
0100
0000
1000
0000
0010
0000
1000
0001
,  // measure 17
2000
0100
0000
0000
3100
0000
0000
0100
0010
0000
0001
0000
0001
0000
0100
0002
,  // measure 18
0000
2003
0000
3001
0010
0000
0100
0000
0010
0000
1000
0000
0010
0000
0001
0000
,  // measure 19
0100
0010
0000
1000
0000
1000
0000
0001
0000
0001
0000
0010
0000
0001
0000
1000
,  // measure 20
0001
0100
0001
0100
0001
0000
1000
0010
0000
1000
0100
1000
0100
1000
0100
0000
,  // measure 21
1000
0010
0000
1000
0000
0001
0000
0010
0000
0100
0000
1000
0000
0001
0000
0010
,  // measure 22
0000
0100
0000
1000
0000
0001
0000
0100
0000
0010
0000
1000
0001
0000
1000
0001
,  // measure 23
0010
0001
0000
0100
0000
0001
0000
1000
0000
0010
0000
0100
0000
0001
0000
0010
,  // measure 24
0000
1000
0000
0010
0000
0002
0000
0000
1003
0000
1010
0000
0000
0101
0000
0000
,  // measure 25
1000
0100
0000
1000
0000
0010
0000
0100
0000
0001
0000
1000
0000
0100
0000
1000
,  // measure 26
0000
0010
0000
0100
0000
0001
0000
1000
0000
0100
0000
0010
0100
0000
1000
0001
,  // measure 27
1000
0010
0000
0010
0000
1000
0000
1000
0000
0001
0000
0001
0000
1000
0000
0100
,  // measure 28
0000
0001
0000
0100
0000
1000
0000
0000
0001
0000
0100
0010
0000
0100
0000
0001
,  // measure 29
0020
0000
0000
0000
0000
0000
0000
0000
0000
0000
0000
0000
0000
0000
0000
0000
0000
0000
0000
0000
0000
0000
0000
0000
0000
0000
0000
0000
0000
0000
0000
0000
0000
0000
0000
0000
0000
0000
0000
0000
0000
0000
0000
0000
0000
0000
0000
0000
0130
0000
0000
0000
0000
0000
0000
0000
0000
0000
0000
0000
0000
0000
0000
0000
0000
0000
0000
0000
0000
0000
0000
0000
1000
0000
0000
0000
0000
0000
0000
0000
0000
0000
0000
0000
0000
0000
0001
0000
0000
0000
0000
0000
0000
0000
0000
0000
1000
0000
0000
0000
0000
0000
0000
0000
0000
0000
0000
0000
0000
0000
0000
0000
0000
0000
0000
0000
0000
0000
0000
0000
0001
0000
0000
0000
0000
0000
0000
0000
0000
0000
0000
0000
0000
0000
0000
0000
0000
0000
0000
0000
0000
0000
0000
0000
0100
0000
0000
0000
0000
0000
0000
0000
0000
0000
0000
0000
0000
0000
0000
0000
0000
0000
0000
0000
0000
0000
0000
0000
0010
0000
0000
0000
0000
0000
0000
0000
0000
0000
0000
0000
0000
0000
0100
0000
0000
0000
0000
0000
0000
0000
0000
0000
,  // measure 30
0000
0000
0000
0000
0000
0000
0000
0000
0000
0000
0000
0000
0000
0000
0000
0000
0000
0000
0000
0000
0000
0000
0000
0000
0001
0000
0000
0000
0000
0000
0000
0000
0000
0000
0000
0000
0000
0000
0000
0000
0000
0000
0000
0000
0000
0000
0000
0000
1000
0000
0000
0000
0000
0000
0000
0000
0000
0000
0000
0000
0000
0000
0000
0000
0000
0000
0000
0000
0000
0000
0000
0000
0100
0000
0000
0000
0000
0000
0000
0000
0000
0000
0000
0000
0000
0000
0010
0000
0000
0000
0000
0000
0000
0000
0000
0000
0100
0000
0000
0000
0000
0000
0000
0000
0000
0000
0000
0000
0000
0000
0000
0000
0000
0000
0000
0000
0000
0000
0000
0000
1000
0000
0000
0000
0000
0000
0000
0000
0000
0000
0000
0000
0000
0000
0000
0000
0000
0000
0000
0000
0000
0000
0000
0000
0101
0000
0000
0000
0000
0000
0000
0000
0000
0000
0000
0000
0000
0000
0000
0000
0000
0000
0000
0000
0000
0000
0000
0000
0000
0000
0000
0000
0000
0000
0000
0000
0000
0000
0000
0000
0000
0000
0000
0000
0000
0000
0000
0000
0000
0000
0000
0000
,  // measure 31
1010
0000
0001
0100
0000
0100
0010
0000
2000
0000
0100
0000
3100
0000
0000
0000
,  // measure 32
0011
0000
1000
0010
0000
0010
0100
0000
1000
0000
0100
0000
0001
0000
0000
0000
,  // measure 33
0002
0010
0013
0000
0100
0010
1001
0000
,  // measure 34
2000
0000
0010
0000
3010
0000
1000
0000
1200
0000
0000
0000
0310
0000
0100
2000
,  // measure 35
0001
0001
3001
0100
0110
0000
1001
0000
,  // measure 36
1000
0010
0001
0010
1020
0000
1030
0000
,  // measure 37
0011
0000
0010
0000
0110
0000
1000
0001
0000
0001
0000
0100
0000
0100
0000
0010
,  // measure 38
1000
0000
0100
0000
1100
0000
1000
0001
1000
0000
0010
0000
0100
0000
0000
0000
,  // measure 39
0001
0000
1000
0000
1010
0000
0100
0001
0000
0001
0000
1000
0000
1000
0000
0100
,  // measure 40
0010
0001
0101
0100
0020
0000
1030
0000
,  // measure 41
1010
0000
0001
0000
1001
0000
1000
0100
0000
0100
0000
0020
0000
0000
0031
0000
,  // measure 42
1000
0100
0000
0120
0000
0031
0000
0001
0100
0000
0010
0000
1001
0000
0000
0000
,  // measure 43
0011
0000
1000
0000
0001
0100
0000
0100
0001
0000
0100
0000
0010
0000
1000
0000
,  // measure 44
1010
0000
0001
0000
1100
0000
1000
0001
0010
0000
0100
1000
0000
1000
0001
0000
,  // measure 45
0200
0000
0300
0002
,  // measure 46
0000
0010
0000
0023
0000
1000
0000
1000
0000
1000
0000
1000
0000
2030
0000
0100
,  // measure 47
0000
0100
0000
3200
0000
0001
0000
0001
0000
0001
0000
0302
0000
2003
0000
3000
,  // measure 48
0000
0001
0000
1000
0000
2000
0000
3020
0000
0001
0000
0001
0000
0032
0000
0100
,  // measure 49
0000
0203
0000
1000
0000
2300
0000
0000
3002
0000
0000
0000
0003
0000
0000
0000
,  // measure 50
1001
0000
0000
0000
0000
0000
0000
0000
0000
0000
0000
0000
0000
0000
0000
0000
0000
0000
0000
0000
0000
0000
0000
0000
1000
0000
0000
0000
0000
0000
0000
0000
0000
0000
0000
0000
0000
0000
0000
0000
0000
0000
0000
0000
0000
0000
0000
0000
0001
0000
0000
0000
0000
0000
0000
0000
0000
0000
0000
0000
0000
0000
0000
0000
0000
0000
0000
0000
0000
0000
0000
0000
0100
0000
0000
0000
0000
0000
0000
0000
0000
0000
0000
0000
0000
0000
0100
0000
0000
0000
0000
0000
0000
0000
0000
0000
0001
0000
0000
0000
0000
0000
0000
0000
0000
0000
0000
0000
0000
0000
0000
0000
0000
0000
0000
0000
0000
0000
0000
0000
1000
0000
0000
0000
0000
0000
0000
0000
0000
0000
0000
0000
0000
0000
0000
0000
0000
0000
0000
0000
0000
0000
0000
0000
0100
0000
0000
0000
0000
0000
0000
0000
0000
0000
0000
0000
0000
0000
0000
0000
0000
0000
0000
0000
0000
0000
0000
0000
1000
0000
0000
0000
0000
0000
0000
0000
0000
0000
0000
0000
0000
0000
1000
0000
0000
0000
0000
0000
0000
0000
0000
0000
,  // measure 51
0001
0000
0000
0000
0000
0000
0000
0000
0000
0000
0000
0000
0000
0000
0000
0000
0000
0000
0000
0000
0000
0000
0000
0000
0010
0000
0000
0000
0000
0000
0000
0000
0000
0000
0000
0000
0000
0000
0000
0000
0000
0000
0000
0000
0000
0000
0000
0000
0001
0000
0000
0000
0000
0000
0000
0000
0000
0000
0000
0000
0000
0000
0000
0000
0000
0000
0000
0000
0000
0000
0000
0000
1000
0000
0000
0000
0000
0000
0000
0000
0000
0000
0000
0000
0000
0000
1000
0000
0000
0000
0000
0000
0000
0000
0000
0000
0010
0000
0000
0000
0000
0000
0000
0000
0000
0000
0000
0000
0000
0000
0000
0000
0000
0000
0000
0000
0000
0000
0000
0000
0100
0000
0000
0000
0000
0000
0000
0000
0000
0000
0000
0000
0000
0000
0000
0000
0000
0000
0000
0000
0000
0000
0000
0000
0001
0000
0000
0000
0000
0000
0000
0000
0000
0000
0000
0000
0000
0000
0000
0000
0000
0000
0000
0000
0000
0000
0000
0000
0000
0000
0000
0000
0000
0000
0000
0000
0000
0000
0000
0000
0000
0000
0000
0000
0000
0000
0000
0000
0000
0000
0000
0000
,  // measure 52
0010
0000
0000
0000
0000
0000
0000
0000
0000
0000
0000
0000
0000
0000
0000
0000
0000
0000
0000
0000
0000
0000
0000
0000
0001
0000
0000
0000
0000
0000
0000
0000
0000
0000
0000
0000
0000
0000
0000
0000
0000
0000
0000
0000
0000
0000
0000
0000
0100
0000
0000
0000
0000
0000
0000
0000
0000
0000
0000
0000
0000
0000
0000
0000
0000
0000
0000
0000
0000
0000
0000
0000
0001
0000
0000
0000
0000
0000
0000
0000
0000
0000
0000
0000
0000
0000
0001
0000
0000
0000
0000
0000
0000
0000
0000
0000
0010
0000
0000
0000
0000
0000
0000
0000
0000
0000
0000
0000
0000
0000
0000
0000
0000
0000
0000
0000
0000
0000
0000
0000
0100
0000
0000
0000
0000
0000
0000
0000
0000
0000
0000
0000
0000
0000
0000
0000
0000
0000
0000
0000
0000
0000
0000
0000
1000
0000
0000
0000
0000
0000
0000
0000
0000
0000
0000
0000
0000
0000
0000
0000
0000
0000
0000
0000
0000
0000
0000
0000
0010
0000
0000
0000
0000
0000
0000
0000
0000
0000
0000
0000
0000
0000
0010
0000
0000
0000
0000
0000
0000
0000
0000
0000
,  // measure 53
1000
0000
0000
0000
0000
0000
0000
0000
0000
0000
0000
0000
0000
0000
0000
0000
0000
0000
0000
0000
0000
0000
0000
0000
0100
0000
0000
0000
0000
0000
0000
0000
0000
0000
0000
0000
0000
0000
0000
0000
0000
0000
0000
0000
0000
0000
0000
0000
0001
0000
0000
0000
0000
0000
0000
0000
0000
0000
0000
0000
0000
0000
0000
0000
0000
0000
0000
0000
0000
0000
0000
0000
0100
0000
0000
0000
0000
0000
0000
0000
0000
0000
0000
0000
0000
0000
0010
0000
0000
0000
0000
0000
0000
0000
0000
0000
0100
0000
0000
0000
0000
0000
0000
0000
0000
0000
0000
0000
0000
0000
1000
0000
0000
0000
0000
0000
0000
0000
0000
0000
0100
0000
0000
0000
0000
0000
0000
0000
0000
0000
0000
0000
0000
0000
0000
0000
0000
0000
0000
0000
0000
0000
0000
0000
0010
0000
0000
0000
0000
0000
0000
0000
0000
0000
0000
0000
0000
0000
0001
0000
0000
0000
0000
0000
0000
0000
0000
0000
0000
0000
0000
0000
0000
0000
0000
0000
0000
0000
0000
0000
0000
0000
1001
0000
0000
0000
0000
0000
0000
0000
0000
0000
,  // measure 54
0000
1000
0000
0001
0000
0100
0000
0010
1000
0100
0000
0010
0000
0001
0000
0100
,  // measure 55
0001
0010
0000
0100
0000
1000
0000
0001
0100
0000
0001
0010
0000
0100
0010
0001
,  // measure 56
0100
0010
0000
1000
0000
0100
0000
0001
0000
0100
0000
1000
0000
0010
0000
2010
,  // measure 57
0000
3001
0000
0021
0000
0130
0000
0100
1000
0000
0001
1000
0000
1000
0000
1000
,  // measure 58
0010
0100
0000
0110
0000
0010
0000
1010
0000
0010
0000
0110
0000
0100
0000
0101
,  // measure 59
0000
1100
0000
0101
0000
1000
0000
1010
0000
0011
0000
1010
0000
0001
0000
0000
,  // measure 60
1000
0100
0000
0110
0000
0010
0000
0001
0000
0100
0000
0110
0000
0010
0000
1001
,  // measure 61
0000
0100
0000
1001
0000
0010
0000
0000
1001
0000
1000
0100
0000
0010
0000
0002
,  // measure 62
0000
0010
0000
0010
0000
1000
0000
0000
0103
0000
0000
0000
1100
0000
0100
2000
,  // measure 63
0000
0100
0000
0100
0000
0001
0000
0000
3010
0000
0000
0000
1002
0000
0013
0200
,  // measure 64
0000
1000
0000
0010
0000
0010
0000
0000
1300
0000
0000
0000
0101
0000
1000
0010
,  // measure 65
0000
0000
0000
0000
0000
0000
0000
0000
0000
0000
0000
0000
0001
0000
0000
0000
0000
0000
0000
0000
0000
0000
0000
0000
0000
0000
0000
0000
0000
0000
0000
0000
0000
0000
0000
0000
0010
0000
0000
0000
0000
0000
0000
0000
0000
0000
0000
0000
0000
0000
0000
0000
0000
0000
0000
0000
0000
0000
0000
0000
2000
0000
0000
0000
0000
0000
0000
0000
0000
0000
0000
0000
0000
0000
0000
0000
0000
0000
0000
0000
0000
0000
0000
0000
0000
0000
0000
0000
0000
0000
0000
0000
0000
0000
0000
0000
3001
0000
0000
0000
0000
0000
0000
0000
0000
0000
0000
0000
0000
0000
0010
0000
0000
0000
0000
0000
0000
0000
0000
0000
0001
0000
0000
0000
0000
0000
0000
0000
0000
0000
0000
0000
0000
0000
0000
0000
0000
0000
0000
0000
0000
0000
0000
0000
1000
0000
0000
0000
0000
0000
0000
0000
0000
0000
0000
0000
0000
0000
0100
0000
0000
0000
0000
0000
0000
0000
0000
0000
1000
0000
0000
0000
0000
0000
0000
0000
0000
0000
0000
0000
0000
0000
0100
0000
0000
0000
0000
0000
0000
0000
0000
0000
,  // measure 66
0000
0000
0000
0000
1002
0000
1003
0010
0100
0000
0010
0000
2000
0000
0001
3001
,  // measure 67
0000
0000
0000
0000
0011
0000
0001
0100
0010
0000
1000
0000
0100
0010
0100
0010
,  // measure 68
0000
0000
0000
0000
0000
0000
0000
0000
0000
0000
0000
0000
0000
0000
0000
0000
0000
0000
0000
0000
0000
0000
0000
0000
0000
0000
0000
0000
0000
0000
0000
0000
0000
0000
0000
0000
0000
0000
0000
0000
0000
0000
0000
0000
0000
0000
0000
0000
2001
0000
0000
0000
0000
0000
0000
0000
0000
0000
0000
0000
0000
0000
0000
0000
0000
0000
0000
0000
0000
0000
0000
0000
0000
0000
0000
0000
0000
0000
0000
0000
0000
0000
0000
0000
3010
0000
0000
0000
0000
0000
0000
0000
0000
0000
0000
0000
0000
0000
0000
0000
0000
0000
0000
0000
0000
0000
0000
0000
0000
0000
0000
0000
0000
0000
0000
0000
0000
0000
0000
0000
0100
0000
0000
0000
0000
0000
0000
0000
0000
0000
0000
0000
0000
0000
0010
0000
0000
0000
0000
0000
0000
0000
0000
0000
0000
0000
0000
0000
0000
0000
0000
0000
0000
0000
0000
0000
0000
0000
0010
0000
0000
0000
0000
0000
0000
0000
0000
0000
0000
0000
0000
0000
0000
0000
0000
0000
0000
0000
0000
0000
0000
0000
0010
0000
0000
0000
0000
0000
0000
0000
0000
0000
,  // measure 69
0100
0000
0000
0000
0101
0000
0000
0001
0000
0010
0000
0100
0000
1000
0000
2002
,  // measure 70
0000
3003
0000
0000
0000
0000
0000
0000
;
