#VERSION:0.83;
#TITLE:Them Changes;
#SUBTITLE:;
#ARTIST:Thundercat;
#TITLETRANSLIT:;
#SUBTITLETRANSLIT:;
#ARTISTTRANSLIT:;
#GENRE:;
#CREDIT:NOWHERE Dance Club;
#MUSIC:Them Changes.ogg;
#BANNER:Them Changes-banner.png;
#BACKGROUND:Them Changes-bg.png;
#CDTITLE:;
#SAMPLESTART:8.535;
#SAMPLELENGTH:28.659;
#SELECTABLE:YES;
#OFFSET:-0.084;
#BPMS:0.000=163.302;
#STOPS:;
#BGCHANGES:2.300=Them Changes.mp4=1.000=1=0=0=StretchNoLoop==CrossFade==,
99999.000=-nosongbg-=1.000=0=0=0=StretchNoLoop====
;
#FGCHANGES:;

//--------------- dance-single - NOWHERE Dance Club ----------------
#NOTEDATA:;
#STEPSTYPE:dance-single;
#DESCRIPTION:NOWHERE Dance Club;
#DIFFICULTY:Easy;
#METER:4;
#RADARVALUES:0,0,0,0,0;
#NOTES:
0000
0000
0000
0000
,
0000
0000
0000
0000
,
0000
0000
0000
0000
,
0000
0000
0000
0000
,
0000
0000
0000
0000
,
0000
0000
0000
1000
,
0000
0000
0000
0100
,
0000
0000
0000
1000
,
0000
0000
0000
0001
,
0000
0010
0010
0001
,
0000
0000
0000
0100
,
0000
0000
0000
0001
,
0000
0000
0000
1000
,
0000
0010
0010
0100
,
0000
0000
0000
0010
,
0000
0000
0000
1000
,
0000
0000
0000
0001
,
0000
0010
0010
0100
,
0000
0000
0000
1000
,
0000
0000
0000
0001
,
0000
0000
0000
0100
,
0000
0010
1000
0020
,
0000
0000
0000
0000
,
0000
1030
0000
0001
,
0000
0100
0000
0001
,
0000
0100
0000
1010
,
0000
0000
0000
1001
,
0000
0000
0000
0011
,
0000
0000
0000
0101
,
0000
0000
0000
0010
,
0000
1000
0000
0100
,
0000
1000
0000
0002
,
0000
0103
0000
0002
,
0000
1003
0000
0100
,
0000
0010
0000
0010
,
0000
0001
0000
0100
,
0000
0010
0000
1000
,
0000
1000
0000
0200
,
0000
0000
0000
0310
,
0000
0001
0000
1000
,
0001
1000
0001
1000
,
0001
1000
0000
0001
,
0000
0100
0000
0010
,
0000
1000
0000
0100
,
1000
0000
0100
0000
1000
0000
0100
1000
,
0100
1000
0000
0001
,
0000
0100
0000
0001
,
0000
0010
0000
0001
,
0000
1000
0000
0100
,
0000
1000
0000
0010
,
0000
0100
0000
0001
,
0000
1000
0000
0002
,
0000
0000
0000
0000
,
0000
0000
0000
1000
,
0000
0000
0000
1000
,
0000
0000
0000
0100
,
0000
0000
0000
0103
,
0000
0000
0000
2000
,
0000
0000
0000
0001
,
0000
0000
0000
0001
,
0000
0000
0000
3100
,
0000
0000
0000
0220
,
0000
0000
0000
0000
,
0000
0330
0000
2002
,
0000
0000
0000
0000
,
3003
0000
0000
0001
,
0000
0100
0000
0010
,
0000
1000
0000
2020
,
0000
0000
3030
2200
,
0000
0000
3300
1000
,
0000
0100
0000
0010
,
0000
0001
0000
1000
,
0000
0100
0000
1000
,
0000
0100
0010
0001
,
0000
0100
0000
0010
,
0000
1000
0000
0001
,
0000
0100
0000
0001
,
0000
0100
0010
1000
,
0000
0100
0000
0010
,
0000
0001
0000
0100
,
0000
0001
0000
1000
,
0000
0100
0000
2000
,
0000
0000
0000
0000
,
0000
3000
0000
0000
;

//--------------- dance-single - NOWHERE Dance Club ----------------
#NOTEDATA:;
#STEPSTYPE:dance-single;
#DESCRIPTION:NOWHERE Dance Club;
#DIFFICULTY:Medium;
#METER:6;
#RADARVALUES:0,0,0,0,0;
#NOTES:
0000
0000
0000
0000
,
0000
0000
0000
0000
,
0000
0000
0000
0000
,
0000
0000
0000
0000
,
0000
0000
0000
0000
,
0000
0000
0000
1000
,
0000
0100
0000
0100
,
0000
0010
0000
0001
,
1000
0001
0100
0001
,
0000
0020
0031
1000
,
0000
0010
0000
0010
,
0000
0100
0000
0001
,
1000
0001
0010
0001
,
0000
0200
0301
0001
,
0000
0010
0000
0010
,
0000
0100
0000
1000
,
0001
1000
0010
1000
,
0000
0200
1300
1000
,
0000
0010
0000
0010
,
0000
0100
0000
0001
,
1000
0001
0010
0001
,
0200
0301
0010
0002
,
0000
0000
0000
0103
,
0000
0010
0000
1000
,
0001
0010
0001
1000
,
0001
0200
0010
0320
,
0000
2030
0000
3200
,
0000
0320
0000
0032
,
0000
0023
0000
2030
,
0000
0000
3010
0001
0000
0000
0100
0000
,
0000
0010
0000
1000
,
0000
0100
0000
0010
,
0001
1000
0001
0100
,
0001
1000
0010
1000
,
0000
0100
0000
0010
,
0000
0001
0000
0200
,
0000
2300
0000
3200
,
0000
0302
0000
0013
,
0000
0001
0001
0100
,
0000
0001
0000
1000
,
0100
0100
0010
0001
,
0001
0100
0000
0001
,
0000
0100
0000
0010
,
0000
1000
0000
0100
,
1000
0000
0010
0000
1000
0000
0100
1000
,
0100
1000
0001
0010
,
0000
0001
0000
0101
,
0000
0010
0000
1000
,
0001
1000
0100
0100
,
1000
0000
0001
0000
1000
0010
0000
0000
,
0100
0010
0000
1000
0000
0001
0000
0000
,
0000
1000
0000
0002
,
0000
0000
0000
0000
,
0000
0000
0000
1000
,
0000
0000
0000
0100
,
0000
0000
0000
0010
,
0000
0000
0000
1003
,
0000
0000
0000
2000
,
0000
0000
0000
0100
,
0000
0000
0000
0010
,
0000
0000
0000
3001
,
0000
0000
0000
0220
,
0000
0000
0000
0000
,
0330
0002
0000
2000
,
0000
0000
0000
0000
,
3003
0000
0000
1000
,
0100
0010
0001
0100
,
0010
1000
0001
0020
,
0000
0032
0000
2003
,
0000
3010
0000
1000
,
0100
0100
1000
0010
,
0100
0001
1000
0100
,
1000
0010
0001
0010
,
1000
0100
0010
0001
,
0010
0010
0001
0100
,
0010
1000
0001
0010
,
0001
0100
1000
0100
,
0001
0000
0010
0000
0001
0200
0000
0000
,
0300
0020
0000
0000
0000
2030
0000
0000
,
0000
3001
0000
0100
,
0000
0001
0000
1000
,
0000
0100
0000
0020
,
0000
0000
0000
0000
,
0000
0030
0000
0000
;

//--------------- dance-single - NOWHERE Dance Club ----------------
#NOTEDATA:;
#STEPSTYPE:dance-single;
#DESCRIPTION:NOWHERE Dance Club;
#DIFFICULTY:Hard;
#METER:9;
#RADARVALUES:0,0,0,0,0;
#NOTES:
0000
0000
0000
0000
,
0000
0000
0000
0000
,
0000
0000
0000
0000
,
0000
0000
0000
1000
,
0000
0001
0000
0100
,
0000
0001
0000
1000
,
0001
0000
0010
0000
0001
1000
0000
1000
,
0010
0000
1000
0000
0001
1000
0200
0000
,
1300
0002
1003
0200
,
1300
0000
0000
0000
0000
0000
0000
0000
0000
0000
0000
0000
0000
0000
0000
0000
0000
0000
0000
0000
0000
0000
0000
0000
0000
0000
0000
0000
0000
0000
0000
0000
0000
0000
0000
0000
0000
0000
0000
0000
0000
0000
0000
0000
0000
0000
0000
0000
0002
0000
0000
0000
0000
0000
0000
0000
0000
0000
0000
0000
0000
0000
0000
0000
0000
0000
0000
0000
0000
0000
0000
0000
0000
0000
0000
0000
0000
0000
0000
0000
0000
0000
0000
0000
0000
0000
0000
0000
0000
0000
0000
0000
0000
0000
0000
0000
0023
0000
0000
0000
0000
0000
0000
0000
0000
0000
0000
0000
0000
0000
0000
0000
0000
0000
0000
0000
0000
0000
0000
0000
0000
0000
0000
0000
0000
0000
0000
0000
0000
0000
0000
0000
0000
0000
0000
0000
0000
0000
0000
0000
0000
0000
0000
0030
0001
0000
0000
0000
0000
0000
0000
0000
0000
0000
0000
0000
0000
0000
0000
0000
0000
0000
0000
0000
0000
0000
0000
0000
0000
0000
0000
0000
0000
0000
0000
0000
0000
0000
0000
0000
0000
0000
0000
0000
0000
0000
0000
0000
0000
0000
0000
0000
,
1000
0000
0010
0000
1000
0001
0000
0001
,
0010
0000
0001
0000
1000
0001
0200
0000
,
0301
2000
3001
0200
,
0301
0000
0000
0000
0000
0000
0000
0000
0000
0000
0000
0000
0000
0000
0000
0000
0000
0000
0000
0000
0000
0000
0000
0000
0000
0000
0000
0000
0000
0000
0000
0000
0000
0000
0000
0000
0000
0000
0000
0000
0000
0000
0000
0000
0000
0000
0000
0000
2000
0000
0000
0000
0000
0000
0000
0000
0000
0000
0000
0000
0000
0000
0000
0000
0000
0000
0000
0000
0000
0000
0000
0000
0000
0000
0000
0000
0000
0000
0000
0000
0000
0000
0000
0000
0000
0000
0000
0000
0000
0000
0000
0000
0000
0000
0000
0000
3020
0000
0000
0000
0000
0000
0000
0000
0000
0000
0000
0000
0000
0000
0000
0000
0000
0000
0000
0000
0000
0000
0000
0000
0000
0000
0000
0000
0000
0000
0000
0000
0000
0000
0000
0000
0000
0000
0000
0000
0000
0000
0000
0000
0000
0000
0000
0030
1000
0000
0000
0000
0000
0000
0000
0000
0000
0000
0000
0000
0000
0000
0000
0000
0000
0000
0000
0000
0000
0000
0000
0000
0000
0000
0000
0000
0000
0000
0000
0000
0000
0000
0000
0000
0000
0000
0000
0000
0000
0000
0000
0000
0000
0000
0000
0000
,
0001
0000
0100
0000
0001
1000
0000
1000
,
0100
0000
1000
0000
0001
1000
0020
0000
,
1030
0002
1003
0020
,
1030
0000
0000
0000
0000
0000
0000
0000
0000
0000
0000
0000
0000
0000
0000
0000
0000
0000
0000
0000
0000
0000
0000
0000
0000
0000
0000
0000
0000
0000
0000
0000
0000
0000
0000
0000
0000
0000
0000
0000
0000
0000
0000
0000
0000
0000
0000
0000
0002
0000
0000
0000
0000
0000
0000
0000
0000
0000
0000
0000
0000
0000
0000
0000
0000
0000
0000
0000
0000
0000
0000
0000
0000
0000
0000
0000
0000
0000
0000
0000
0000
0000
0000
0000
0000
0000
0000
0000
0000
0000
0000
0000
0000
0000
0000
0000
0203
0000
0000
0000
0000
0000
0000
0000
0000
0000
0000
0000
0000
0000
0000
0000
0000
0000
0000
0000
0000
0000
0000
0000
0000
0000
0000
0000
0000
0000
0000
0000
0000
0000
0000
0000
0000
0000
0000
0000
0000
0000
0000
0000
0000
0000
0000
0300
0001
0000
0000
0000
0000
0000
0000
0000
0000
0000
0000
0000
0000
0000
0000
0000
0000
0000
0000
0000
0000
0000
0000
0000
0000
0000
0000
0000
0000
0000
0000
0000
0000
0000
0000
0000
0000
0000
0000
0000
0000
0000
0000
0000
0000
0000
0000
0000
,
1000
0000
0100
0000
1000
0001
0000
0001
,
0100
0000
0001
0000
1000
0001
0020
0000
,
0031
2000
3001
0020
,
0031
0000
0000
0000
0000
0000
0000
0000
0000
0000
0000
0000
0000
0000
0000
0000
0000
0000
0000
0000
0000
0000
0000
0000
0000
0000
0000
0000
0000
0000
0000
0000
0000
0000
0000
0000
0000
0000
0000
0000
0000
0000
0000
0000
0000
0000
0000
0000
2000
0000
0000
0000
0000
0000
0000
0000
0000
0000
0000
0000
0000
0000
0000
0000
0000
0000
0000
0000
0000
0000
0000
0000
0000
0000
0000
0000
0000
0000
0000
0000
0000
0000
0000
0000
0000
0000
0000
0000
0000
0000
0000
0000
0000
0000
0000
0000
3200
0000
0000
0000
0000
0000
0000
0000
0000
0000
0000
0000
0000
0000
0000
0000
0000
0000
0000
0000
0000
0000
0000
0000
0000
0000
0000
0000
0000
0000
0000
0000
0000
0000
0000
0000
0000
0000
0000
0000
0000
0000
0000
0000
0000
0000
0000
0300
1000
0000
0000
0000
0000
0000
0000
0000
0000
0000
0000
0000
0000
0000
0000
0000
0000
0000
0000
0000
0000
0000
0000
0000
0001
0000
0000
0000
0000
0000
0000
0000
0000
0000
0000
0000
0000
0000
0000
0000
0000
0000
0000
0000
0000
0000
0000
0000
,
1000
0100
0000
0000
1000
0000
0010
0000
,
0000
0000
1000
0000
0001
0010
0000
0000
,
0001
0002
1003
2000
,
3100
0010
0001
0200
,
0001
0302
0100
0203
,
0010
0320
1000
2030
,
0000
3002
0000
0023
,
0000
0000
0031
1000
0000
0000
0001
0100
,
0010
1000
0000
0000
0001
1000
0001
0000
,
0010
0100
0010
0002
,
0103
1000
0100
0001
,
0100
0000
0010
0000
1000
0000
0100
0010
,
0001
0100
0000
0000
0010
1000
0010
0000
,
1000
0000
0001
0000
0100
0010
0000
0000
,
1000
0010
0001
0010
,
1000
0000
0100
0000
1000
0001
0000
0000
,
0001
0100
0000
0001
0000
0101
0000
0000
,
0000
0000
0002
0000
0000
0023
0000
0000
,
0031
0001
1000
1000
,
0010
0000
1000
0000
1000
0100
0000
0000
,
0100
0010
0000
0001
0000
0011
0000
0000
,
1000
0000
0010
2000
0000
3200
0000
0000
,
1300
0000
0100
0000
1000
0000
0100
1000
,
0100
0000
0010
0000
0001
0100
0000
0000
,
0010
1000
0000
1000
0000
1001
0000
0000
,
0000
0000
0010
0000
0001
0100
0000
0000
,
0010
0010
1000
0100
,
1000
0000
0100
0010
0001
0100
0000
0000
,
0010
1000
0000
0100
0000
0110
0000
0000
,
0000
2002
0000
0MM0
,
0000
0000
0000
0000
,
0000
0000
0000
3003
0000
0000
0021
0000
,
0000
0000
0000
0100
,
0000
0000
0000
0001
,
0000
0000
0000
0130
,
0000
0000
0000
0210
,
0000
0000
0000
1000
,
0000
0000
0000
0001
,
0000
0000
0000
1300
,
0000
0000
0000
1020
,
0000
0000
0000
0001
,
0000
0000
0000
0100
,
0000
0000
0000
1030
,
0000
0000
0000
2000
,
3200
0320
0031
0002
,
0203
0320
1030
0020
,
0000
2030
0000
3200
,
0000
0310
0001
1000
,
0001
0000
0100
0000
0001
0010
0000
0100
,
1000
0000
0010
0000
1000
0001
0010
0000
,
0001
0000
1000
0000
0001
0100
0000
0010
,
1000
0100
0020
0031
,
1000
0000
0100
0000
1000
0100
0000
0010
,
0001
0000
0100
0000
0001
0100
0010
0000
,
1000
0000
0100
0000
1000
0010
0000
0100
,
0001
0000
0010
0000
0002
2000
0003
0000
,
3010
0200
0000
0000
0000
0320
0000
0000
,
0030
2000
0000
0000
0000
0000
3001
0000
,
1000
0100
0010
0001
,
0010
0000
0001
0000
2000
0002
0000
0000
,
0000
0000
0000
0000
,
0000
3003
0000
0000
;

//--------------- dance-single - NOWHERE Dance Club ----------------
#NOTEDATA:;
#STEPSTYPE:dance-single;
#DESCRIPTION:NOWHERE Dance Club;
#DIFFICULTY:Challenge;
#METER:11;
#RADARVALUES:0,0,0,0,0;
#NOTES:
0000
0000
0000
0000
,
0000
0000
0000
0000
,
0000
0000
0000
0000
,
0000
0000
0000
0001
,
0100
0000
0010
0000
1000
0001
0000
0001
,
1000
0100
2000
3001
,
1000
0000
0010
0000
1000
0001
0000
0001
,
0010
0000
0001
0000
1000
0001
0200
0000
,
0301
0000
2000
0000
3001
0100
0000
0100
,
0001
0000
0000
0000
0000
0000
0000
0000
0000
0000
0000
0000
0000
0000
0000
0000
0000
0000
0000
0000
0000
0000
0000
0000
0000
0000
0000
0000
0000
0000
0000
0000
0000
0000
0000
0000
0000
0000
0000
0000
0000
0000
0000
0000
0000
0000
0000
0000
2000
0000
0000
0000
0000
0000
0000
0000
0000
0000
0000
0000
0000
0000
0000
0000
0000
0000
0000
0000
0000
0000
0000
0000
0000
0000
0000
0000
0000
0000
0000
0000
0000
0000
0000
0000
0000
0000
0000
0000
0000
0000
0000
0000
0000
0000
0000
0000
3020
0000
0000
0000
0000
0000
0000
0000
0000
0000
0000
0000
0000
0000
0000
0000
0000
0000
0000
0000
0000
0000
0000
0000
0000
0000
0000
0000
0000
0000
0000
0000
0000
0000
0000
0000
0000
0000
0000
0000
0000
0000
0000
0000
0000
0000
0000
0030
1000
0000
0000
0000
0000
0000
0000
0000
0000
0000
0000
0000
0000
0000
0000
0000
0000
0000
0000
0000
0000
0000
0000
0000
0000
0000
0000
0000
0000
0000
0000
0000
0000
0000
0000
0000
0000
0000
0000
0000
0000
0000
0000
0000
0000
0000
0000
0000
,
0001
0000
0010
0000
0001
1000
0000
1000
,
0010
0000
1000
0000
0001
1000
0200
0000
,
1300
0000
0002
0000
1003
0100
0000
0100
,
1000
0000
0000
0000
0000
0000
0000
0000
0000
0000
0000
0000
0000
0000
0000
0000
0000
0000
0000
0000
0000
0000
0000
0000
0000
0000
0000
0000
0000
0000
0000
0000
0000
0000
0000
0000
0000
0000
0000
0000
0000
0000
0000
0000
0000
0000
0000
0000
0002
0000
0000
0000
0000
0000
0000
0000
0000
0000
0000
0000
0000
0000
0000
0000
0000
0000
0000
0000
0000
0000
0000
0000
0000
0000
0000
0000
0000
0000
0000
0000
0000
0000
0000
0000
0000
0000
0000
0000
0000
0000
0000
0000
0000
0000
0000
0000
0023
0000
0000
0000
0000
0000
0000
0000
0000
0000
0000
0000
0000
0000
0000
0000
0000
0000
0000
0000
0000
0000
0000
0000
0000
0000
0000
0000
0000
0000
0000
0000
0000
0000
0000
0000
0000
0000
0000
0000
0000
0000
0000
0000
0000
0000
0000
0030
0001
0000
0000
0000
0000
0000
0000
0000
0000
0000
0000
0000
0000
0000
0000
0000
0000
0000
0000
0000
0000
0000
0000
0000
0000
0000
0000
0000
0000
0000
0000
0000
0000
0000
0000
0000
0000
0000
0000
0000
0000
0000
0000
0000
0000
0000
0000
0000
,
1000
0000
0100
0000
1000
0001
0000
0001
,
0100
0000
0001
0000
1000
0001
0020
0000
,
0031
0000
2000
0000
3001
0010
0000
0010
,
0001
0000
0000
0000
0000
0000
0000
0000
0000
0000
0000
0000
0000
0000
0000
0000
0000
0000
0000
0000
0000
0000
0000
0000
0000
0000
0000
0000
0000
0000
0000
0000
0000
0000
0000
0000
0000
0000
0000
0000
0000
0000
0000
0000
0000
0000
0000
0000
2000
0000
0000
0000
0000
0000
0000
0000
0000
0000
0000
0000
0000
0000
0000
0000
0000
0000
0000
0000
0000
0000
0000
0000
0000
0000
0000
0000
0000
0000
0000
0000
0000
0000
0000
0000
0000
0000
0000
0000
0000
0000
0000
0000
0000
0000
0000
0000
3200
0000
0000
0000
0000
0000
0000
0000
0000
0000
0000
0000
0000
0000
0000
0000
0000
0000
0000
0000
0000
0000
0000
0000
0000
0000
0000
0000
0000
0000
0000
0000
0000
0000
0000
0000
0000
0000
0000
0000
0000
0000
0000
0000
0000
0000
0000
0300
1000
0000
0000
0000
0000
0000
0000
0000
0000
0000
0000
0000
0000
0000
0000
0000
0000
0000
0000
0000
0000
0000
0000
0000
0000
0000
0000
0000
0000
0000
0000
0000
0000
0000
0000
0000
0000
0000
0000
0000
0000
0000
0000
0000
0000
0000
0000
0000
,
0001
0000
0100
0000
0001
1000
0000
1000
,
0100
0000
1000
0000
0001
1000
0020
0000
,
1030
0000
0002
0000
1003
0010
0000
0010
,
1000
0000
0000
0000
0000
0000
0000
0000
0000
0000
0000
0000
0000
0000
0000
0000
0000
0000
0000
0000
0000
0000
0000
0000
0000
0000
0000
0000
0000
0000
0000
0000
0000
0000
0000
0000
0000
0000
0000
0000
0000
0000
0000
0000
0000
0000
0000
0000
0002
0000
0000
0000
0000
0000
0000
0000
0000
0000
0000
0000
0000
0000
0000
0000
0000
0000
0000
0000
0000
0000
0000
0000
0000
0000
0000
0000
0000
0000
0000
0000
0000
0000
0000
0000
0000
0000
0000
0000
0000
0000
0000
0000
0000
0000
0000
0000
0203
0000
0000
0000
0000
0000
0000
0000
0000
0000
0000
0000
0000
0000
0000
0000
0000
0000
0000
0000
0000
0000
0000
0000
0000
0000
0000
0000
0000
0000
0000
0000
0000
0000
0000
0000
0000
0000
0000
0000
0000
0000
0000
0000
0000
0000
0000
0300
0001
0000
0000
0000
0000
0000
0000
0000
0000
0000
0000
0000
0000
0000
0000
0000
0000
0000
0000
0000
0000
0000
0000
0000
1000
0000
0000
0000
0000
0000
0000
0000
0000
0000
0000
0000
0000
0000
0000
0000
0000
0000
0000
0000
0000
0000
0000
0000
,
0100
1000
0000
0000
0001
0000
0010
0000
,
0000
0000
0002
0000
0000
0103
0000
0000
,
0020
1030
0002
0103
,
0010
0000
2000
0000
3100
0000
1000
0010
,
0100
0000
0001
0010
0100
0000
1000
0010
,
0100
0000
0010
1000
0100
0000
0020
0000
,
0030
0002
0003
2000
,
3000
0000
0100
0010
0000
0000
0001
0100
,
0010
1000
0000
0000
0001
0010
0001
0000
,
0010
0000
0100
0000
0010
0001
0000
0000
,
0100
1000
0100
0001
,
0100
0000
0010
0000
1000
0000
0100
0010
,
0001
0000
0100
0010
1000
0000
0100
0010
,
0001
0000
0010
0100
1000
0000
0002
0000
,
0103
0020
1030
0200
,
1300
0000
0010
0000
1000
0001
0000
0000
,
0001
0100
0000
0101
0000
1001
0000
0000
,
0000
1000
0002
0000
0000
0023
0000
0000
,
0031
0001
1000
1000
,
0010
0000
1000
0000
1000
0100
0000
0000
,
0100
0010
0000
0011
0000
1001
0000
0000
,
1000
0000
0010
2000
0000
3200
0000
0000
,
1300
0000
0001
0000
1000
0000
0100
1000
,
0010
0000
1000
0000
0001
0100
0000
0000
,
0010
1000
0000
1000
0000
1001
0000
0000
,
0000
0000
0010
0000
0001
0100
0000
0000
,
0020
1030
2000
3100
,
1000
0000
0100
0010
0001
0100
0000
0000
,
0010
1000
0000
0100
0000
0110
0000
0000
,
0000
1001
0000
2MM2
,
0000
0000
0000
0000
,
0000
3003
0000
0002
,
0000
0000
0000
0203
,
0000
0000
0000
0320
,
0000
0000
0000
2030
,
0000
0000
0000
3200
,
0000
0000
0000
0320
,
0000
0000
0000
0032
,
0000
0000
0000
2003
,
0000
0000
0000
3002
,
0000
0000
0000
2003
,
0000
3020
0000
0000
0032
0000
2003
0000
,
0000
3200
0000
0302
,
0000
2003
0000
3002
,
0023
0230
0302
0203
,
0320
0032
2003
3020
,
0000
2030
0000
3200
,
0000
0310
0001
0100
,
0001
0000
1000
0000
0001
0010
000M
0010
,
1000
0000
0100
0000
1000
0001
0010
0000
,
0001
0000
1000
0000
0001
0100
000M
0100
,
1000
0100
0020
0031
,
1000
0000
0100
0000
1000
0010
M000
0010
,
0001
0000
0100
0000
0001
0100
0010
0000
,
1000
0000
0001
0000
1000
0100
M000
0100
,
0001
0000
0010
0000
0002
2000
0003
0000
,
3010
0200
0000
0000
0000
0320
0000
0000
,
0030
2000
0000
0000
0000
0000
3100
0000
,
1000
0000
0010
0000
1000
0100
M000
0100
,
0001
0010
0002
0200
,
0000
0000
0000
0000
,
0000
0303
0000
0000
;
