#VERSION:0.83;
#TITLE:The Lady with a Monocle;
#SUBTITLE:;
#ARTIST:polysha;
#TITLETRANSLIT:;
#SUBTITLETRANSLIT:;
#ARTISTTRANSLIT:;
#GENRE:;
#CREDIT:;
#MUSIC:The Lady with a Monocle.ogg;
#BANNER:The Lady with a Monocle-bn.png;
#BACKGROUND:The Lady with a Monocle-bg.png;
#CDTITLE:;
#SAMPLESTART:84.067;
#SAMPLELENGTH:15.000;
#SELECTABLE:YES;
#OFFSET:1.093;
#BPMS:0.000=160.000
,51.000=180.000
,53.000=190.000
;
#STOPS:;
#SCROLLS:0.000=1.188,
51.000=1.055,
53.000=1.000
;
#TIMESIGNATURES:0.000=3=4,
51.000=2=4,
53.000=3=4
;
#BGCHANGES:;
#FGCHANGES:;

//--------------- dance-single - ----------------
#NOTEDATA:;
#STEPSTYPE:dance-single;
#DESCRIPTION:;
#DIFFICULTY:Hard;
#METER:14;
#RADARVALUES:0,0,0,0,0;
#CREDIT:Talkion;
#NOTES:
0000
0000
0000
0000
,
0000
0000
0000
0000
,
0000
0000
0000
0000
,
0000
0000
0000
0000
,
0000
0000
0000
0000
,
0000
0000
0000
0000
,
1000
0100
1000
0001
0100
0010
2000
0000
,
0001
0000
3200
0010
,
0000
1300
0002
0203
,
0320
0230
0302
0023
,
0000
0000
0000
0000
,
0130
1000
0002
0000
0000
0000
0000
0000
,
0000
0000
0000
0003
,
0000
1000
0100
0100
,
0010
0000
0001
1000
0100
1000
0001
0000
,
0100
0100
0010
1000
,
1000
0001
0010
0010
,
0100
0000
1000
0001
0010
0001
1000
0000
,
0010
0000
0010
0000
0100
0010
1000
0001
,
0010
0100
0001
1000
0010
0100
1000
0001
,
0100
0010
0001
0010
0100
0001
0010
0100
,
0001
0200
0000
0310
0001
0000
1002
0000
,
0103
1000
0100
0010
2000
0000
3100
0001
,
0100
0010
0002
0000
0103
1000
0002
0000
,
0013
2000
0000
3100
0010
0100
1000
0000
,
0002
0000
0103
0000
0100
0010
1000
0010
,
0100
0001
1000
0001
0010
0100
2000
0000
,
0010
3000
1000
0001
,
0010
0000
0100
0000
0100
1000
0001
1000
,
0100
0010
0001
1000
0001
0100
0020
0000
,
1000
0030
0001
0102
,
1003
0100
0020
0000
0001
0000
0130
0000
,
2000
0010
3001
0100
,
0000
0100
0010
1000
0002
0000
0000
0023
,
0000
0130
2000
0000
0001
0000
3000
0000
,
2000
3020
0032
2003
,
3002
0000
0023
0000
2030
0000
3001
0001
,
0020
0000
0230
0000
0000
0310
1000
0010
,
0100
0001
0100
0010
0001
2000
0100
0000
,
3002
0010
0000
1003
0010
0010
0100
0000
,
0002
0000
0023
0000
0000
0130
0001
0100
,
0010
1000
0010
0100
1000
0002
0010
0000
,
2003
0100
0000
3001
0100
0100
0010
1000
,
0001
0020
1000
0000
0230
0001
0000
0310
,
0001
1000
0001
0000
0201
0000
1000
0000
,
0000
0310
0001
0010
0100
0001
1000
0100
,
0010
0000
0021
0000
0230
0001
0000
1300
,
1020
0000
0230
1000
0000
0301
2001
0000
,
3100
1002
0000
0103
1001
0000
0001
1000
,
0100
1000
0020
0000
0000
0100
0000
0000
,
2030
0000
0000
0001
0000
0000
3100
0000
,
0010
0001
1000
0001
,
0100
0010
2000
0000
0000
0001
0000
0000
,
3200
0000
0000
0310
0000
0010
0002
0000
,
0000
1000
0000
0000
0203
0300
2000
3000
,
0200
0000
0310
0000
2010
0000
0000
0000
0000
0000
3001
0000
0010
0000
0100
0010
,
0002
0000
0000
0000
0000
0000
1003
0000
0010
0000
0100
0010
1000
0000
0000
0000
,
0001
0010
0100
0000
0000
0000
1000
0010
0100
0000
0000
0000
0001
0100
0010
0000
,
0000
0000
1000
0100
0020
0000
0000
0000
0130
0000
1000
0000
0001
0000
0100
0010
,
2000
0000
0000
0000
3001
0000
0010
0000
0001
0000
1000
0100
0020
0000
0000
0000
,
0130
1000
0001
1000
0010
0100
0001
0010
,
0100
0010
0001
0100
0010
1000
0100
0010
,
1000
0001
0100
0010
0001
0100
2000
0000
,
3100
0000
0010
0100
0001
0000
0010
0000
2000
0000
0000
0000
3010
0000
0100
0010
,
0001
0000
0100
0000
2000
0000
0000
0000
3100
0000
0010
0100
0001
0000
0000
0000
,
1001
1000
0100
0010
0001
0200
0010
0300
,
0200
0000
1000
0000
0300
0000
0100
0000
0001
1000
0002
0000
0010
0000
0000
0000
,
1003
0000
0100
0100
0020
1000
0030
0020
,
0100
0030
1000
1000
0001
0200
0010
0300
,
0200
1000
0300
0100
0010
0100
0001
0000
,
2000
0000
3200
0000
0320
0001
0030
0010
,
0100
1000
0001
0001
0100
0000
1010
0010
,
0100
1000
0100
0010
1000
0100
0010
0100
,
0001
0000
1100
0100
0010
1000
0010
0100
,
1000
0010
0100
0010
0001
0000
1020
0000
,
0230
0001
0300
0200
1000
0300
0100
0010
,
1000
0001
0021
0000
0230
1000
0300
0100
,
0001
0100
1000
0000
1001
0000
0101
0000
,
0001
0200
0010
0000
0000
0000
0301
0000
1000
0000
0010
0000
1000
0000
0001
0000
,
0100
0000
0001
1000
0001
0000
0010
0000
0200
0000
0001
0000
0300
0000
0200
0000
,
0010
0300
0100
0100
0002
0000
2003
0000
,
3010
0100
0010
0001
1000
1000
0010
0010
,
0200
0000
0301
0001
2000
0100
3000
1000
,
0001
0100
0010
0010
1000
0000
1100
0100
,
0010
0000
1000
0000
0010
0000
0100
0000
1000
0000
0001
1000
0001
0000
0100
0000
,
0010
0000
0101
0100
0010
0001
0010
0100
,
0001
0000
1000
0001
1000
0000
0100
0000
0010
0000
0000
0000
0011
0000
0000
0000
,
1002
0000
0000
0000
0103
0000
0001
0100
0010
0000
0000
0000
2001
0000
0000
0000
,
3100
0000
1000
0100
0010
0000
0000
0000
1002
0000
0000
0000
0103
0000
0001
0100
,
0010
0100
0001
1000
0100
0010
1000
0001
,
0100
0010
0001
1000
0010
0100
1000
0100
,
0010
1000
0100
0010
1000
0020
0000
0130
,
1000
0000
2001
0000
3010
0001
0010
0100
,
0002
0000
0013
1000
0010
0100
2000
0000
,
3010
0001
2000
0000
3100
0002
0000
0013
,
0100
0010
0001
0000
2000
0000
3002
0000
,
0000
0000
0103
0010
2000
0000
0000
0000
,
3100
0010
0002
0000
0000
0000
0013
0100
,
2000
0000
0000
0000
0000
0000
0000
0000
3010
0000
0100
0000
0001
1000
0001
0000
,
0020
0230
2300
3002
,
0203
0302
0000
0000
,
1003
0100
0010
0001
0100
0010
1020
0000
,
0000
0030
1000
0010
0002
0000
0013
0000
,
0001
0010
2000
0000
0000
3000
0001
0010
,
2000
0000
0000
0000
3010
0000
0000
0000
1000
0000
0010
0000
0001
1000
0001
0000
,
0100
0100
0010
0010
1000
0100
1000
0010
,
0100
0000
0001
0000
0010
0000
1000
0000
0001
0000
0100
0000
1000
0000
0001
1000
,
0002
0000
0000
0000
0000
0003
0210
0000
,
0000
0000
0000
0000
,
0000
0000
0000
0000
,
0000
0000
0000
0300
;

//--------------- dance-single - ----------------
#NOTEDATA:;
#STEPSTYPE:dance-single;
#DESCRIPTION:;
#DIFFICULTY:Challenge;
#METER:16;
#RADARVALUES:0,0,0,0,0;
#CREDIT:Talkion;
#NOTES:
0000
0000
0000
0000
,
0000
0000
0000
0000
,
0000
0000
0000
0000
,
0000
0000
0000
0000
,
0000
0000
0000
0000
,
0000
0000
0000
0000
,
1000
0100
1000
0001
0100
0010
2000
0000
,
0001
0000
3200
0010
,
0000
1300
0002
0203
,
0320
0230
0302
0023
,
0000
0000
0000
0000
,
0130
1000
0002
0000
0000
0000
0000
0000
,
0000
0000
0000
0003
,
0000
0000
1000
0000
0010
0100
0001
0100
,
0010
0000
1000
0001
1000
0100
1000
0001
,
0010
0000
0100
0010
0001
0000
1000
0000
,
1000
0000
0010
0000
0100
0010
1000
0010
,
0100
0000
0000
0000
0001
1000
0001
0000
0010
0000
0001
1000
0001
0000
0100
0000
,
0001
1000
0100
0010
0001
1000
0010
0100
,
0001
0010
1000
0001
0100
1000
0001
1000
,
0010
0100
1000
0100
0010
1000
0100
0010
,
1000
0000
0010
0100
0010
0000
0001
0000
1000
0000
0010
0000
0200
0000
0000
0000
,
0301
1000
0010
1000
0001
0000
0010
0000
0200
0000
0000
0000
1300
0001
0010
0001
,
1000
0010
0200
0000
0310
0001
0011
0010
,
1000
1100
0100
0001
1000
0010
0001
0000
,
0200
0000
0000
0000
0310
0000
0000
0000
0010
0000
1000
0001
1000
0000
0010
0000
,
0100
0001
1000
0001
0010
0100
2000
0000
,
0010
3000
0001
0010
,
0100
0000
0000
0000
1000
0000
0000
0000
1000
0000
0001
0010
0001
0000
1000
0000
,
0010
0100
0001
1000
0100
0010
0002
0000
,
0100
0003
1000
2100
,
3001
0100
0020
0000
1000
0000
0130
0000
,
0002
0010
1003
0100
,
0000
0100
0010
0001
2000
0000
3010
0200
,
0000
0310
2000
0000
0001
0000
3000
0000
,
1000
0100
0010
0001
1000
0100
1000
0001
0100
0010
0100
0001
,
1000
0000
0000
0000
0001
0000
0000
0000
0010
0000
0000
0000
0100
0000
0000
0000
0010
0000
0000
0000
0001
0000
0000
0000
1000
0000
0000
0000
0000
0000
0000
0000
0000
0000
0000
0000
0010
0000
0000
0100
0000
0000
0010
0000
0000
0000
0000
0000
,
2000
0000
3002
0000
0013
0100
0001
0100
,
0010
1000
0010
0100
1000
0001
0200
0000
,
1300
0000
0200
0000
0000
0000
0301
0000
0100
0010
0100
0000
0001
0000
1000
0000
,
0020
0000
2030
0000
3100
0010
1000
0010
,
0100
0001
0100
0010
0001
1000
0020
0000
,
0031
0000
0020
0000
0000
0000
1030
0000
0001
0010
0001
0000
1000
0000
0100
0000
,
0010
0100
0002
0000
0103
2000
0000
3100
,
0001
0100
0010
0001
1000
0010
0002
0000
,
0013
0100
0010
1000
0001
1000
0100
1000
,
0001
0000
0021
0000
1030
1020
0000
0031
,
1000
0100
1000
0002
0000
0103
0201
0000
,
1300
0000
1200
0000
0000
0000
0301
0000
1001
0000
0000
0000
1000
0001
1000
0000
,
0010
1000
0100
0000
0010
0100
1000
0100
,
0010
0000
0001
0000
0001
0000
1000
1000
,
0010
0000
0100
0010
1000
0000
0001
0000
,
0010
0100
1000
0000
0001
0100
0010
0100
,
0001
0000
1000
0100
0000
0010
0100
0100
,
1000
0000
0001
0100
2000
3000
0210
0300
,
0001
1000
0001
0010
0200
0000
0000
0000
1300
0000
0001
0000
0100
0001
1000
0001
,
0020
0000
0000
0000
0031
0000
1000
0000
0100
1000
0001
1000
0010
0000
0000
0000
,
1000
0010
0001
0000
0000
0000
0001
0010
1000
0000
0000
0000
1000
0100
0001
0000
,
0000
0000
0001
0100
2000
0000
0000
0000
3001
0000
1000
0010
1000
0001
0100
0010
,
2000
0000
0000
0000
3001
0000
1000
0100
1000
0001
0010
0100
1000
0000
0001
0000
,
1000
0000
0010
0000
1000
0000
0001
0000
0010
0100
0010
0000
0001
1000
0001
0000
,
0100
0010
1000
0010
0100
0000
0001
0100
0001
0000
1000
0100
0020
0000
0000
0000
,
0031
0000
1000
0100
1000
0000
0001
0100
0001
0000
1000
0100
0020
0000
0000
0000
,
0031
1000
0100
1000
0001
0000
0100
0000
2000
0000
0000
0000
3100
0010
0100
0001
,
1000
0000
0100
0000
0002
0000
0000
0000
0103
0010
0100
1000
0001
0000
1000
0000
,
0010
0100
0001
0010
0100
1000
2001
0000
,
3010
0000
2001
0000
0000
0000
3010
0000
1000
0001
1000
0000
0100
0000
1000
0000
,
0001
0000
0100
0100
0020
0001
0000
0230
,
1000
0000
0310
0010
1000
0000
1002
0000
,
0013
1002
0000
0013
0100
0010
0001
0000
,
2000
0000
3020
0000
0230
1000
0000
0320
,
0001
0000
0130
0100
0001
0000
0011
0010
,
0100
0000
0001
0000
0100
0000
0010
0000
0001
0000
1000
0000
0010
0100
0010
0000
,
0001
0000
1010
0010
0100
1000
0100
0010
,
1000
0000
0001
0000
0010
0100
0010
0000
1000
0000
0000
0000
0012
0000
0000
0000
,
1003
0012
0000
1003
0010
0010
0200
0000
,
0301
0000
1002
0000
0013
1002
0000
0013
,
1000
0010
0002
0000
0103
0000
2001
0000
,
3010
2000
0100
0000
0000
0000
3010
2000
0100
0000
0000
0000
3001
0100
0010
0000
,
1000
0001
0010
0001
1000
0000
0100
0000
0020
0000
1000
0000
0000
0000
0230
0000
,
0001
0000
0310
0010
0002
0000
0203
0000
,
0310
1000
0010
0100
1000
1000
0001
0001
,
0020
0000
1030
1000
0200
0001
0000
0320
,
1000
0000
0130
0100
1000
0000
1010
0010
,
0100
0000
1000
0000
0100
0010
0100
0000
0001
0000
1000
0001
1000
0100
0010
0000
,
1000
0000
0000
0000
0011
0000
0010
0000
0100
0000
0001
0000
0100
0010
0100
0000
,
1000
0000
0001
1000
0001
0100
0010
0000
0001
0000
0000
0000
1010
0000
0010
0000
,
0200
0000
0000
0000
0301
1000
0001
0010
0100
0000
0010
0000
2000
0000
0000
0000
,
3010
0100
0010
0001
1000
0000
0010
0000
0002
0000
0000
0000
0013
0100
0010
1000
,
0001
1000
0100
0010
0001
0100
1000
0001
,
0010
1000
0001
1000
0100
0010
1000
0010
,
0100
0000
1000
0000
0010
0000
0100
0000
1000
0000
0100
0010
0100
0000
0001
0000
,
1000
0000
0100
0000
0020
0000
0000
0000
0031
1000
0100
1000
0001
0000
0100
0000
,
0020
0000
0000
0000
1030
0001
0100
0001
1000
0000
0100
0000
0020
0000
0000
0000
,
0130
0001
0101
0100
1000
1010
0010
0001
,
1000
0100
0001
0000
2000
0000
3002
0000
,
0000
0000
0013
0100
2000
0000
0000
0000
,
3010
0100
0002
0000
0000
0000
0103
0010
,
2000
0000
0000
0000
0000
0000
0000
0000
3100
0000
0010
0000
0001
1000
0001
0000
,
0200
0320
2030
3002
,
0023
0032
0000
0000
,
1003
0010
0100
0001
0010
0100
1200
0000
,
0000
0300
1000
0100
0002
0000
0103
0000
,
0001
0100
2000
0000
0000
3000
0001
0100
,
2000
0000
0000
0000
3100
0000
0000
0000
1000
0000
0100
0000
0001
1000
0001
0000
,
0010
0000
0100
0000
1000
0001
0010
0001
0100
0000
0000
0000
0100
0000
0001
0000
,
0010
1000
1010
0010
0001
0101
0100
1000
,
0100
0010
0100
0001
1000
0001
0010
0001
1000
0100
0010
0001
2000
0000
0000
0000
,
0000
0000
0000
0000
,
0000
0000
0000
0000
,
0000
0000
0000
3000
;
