#TITLE:The Disaster of Passion;
#SUBTITLE:;
#ARTIST:Daisuke Ishiwatari, AISHA;
#TITLETRANSLIT:;
#SUBTITLETRANSLIT:;
#ARTISTTRANSLIT:;
#GENRE:;
#CREDIT:;
#BANNER:The Disaster of Passion.png;
#BACKGROUND:The Disaster of Passion-bg.png;
#LYRICSPATH:;
#CDTITLE:;
#MUSIC:The Disaster of Passion.ogg;
#OFFSET:1.107000;
#SAMPLESTART:68.559998;
#SAMPLELENGTH:22.319000;
#LASTBEATHINT:0.321000;
#SELECTABLE:YES;
#BPMS:0.000000=180.000000
;
#STOPS:
;
#BGCHANGES:;
#KEYSOUNDS:;
#ATTACKS:;

//---------------dance-single - ----------------
#NOTES:
     dance-single:
     :
     Beginner:
     3:
     0.139550,0.336494,0.095092,0.000000,0.000000,113.000000,102.000000,11.000000,0.000000,0.000000,0.000000,0.139550,0.336494,0.095092,0.000000,0.000000,113.000000,102.000000,11.000000,0.000000,0.000000,0.000000:
// measure 0
0000
0000
0000
0000
,  // measure 1
0000
0000
0000
0000
,  // measure 2
0000
0000
0000
0000
,  // measure 3
0001
0000
0000
0000
,  // measure 4
0000
0000
0000
0000
,  // measure 5
1000
0000
0000
0000
,  // measure 6
0000
0000
0000
0000
,  // measure 7
0010
0000
0000
0000
,  // measure 8
0000
0000
0000
0000
,  // measure 9
0100
0000
0010
0000
,  // measure 10
1001
0000
0000
0000
,  // measure 11
1000
0000
0000
0000
,  // measure 12
0000
0000
0000
0000
,  // measure 13
0001
0000
0000
0000
,  // measure 14
0000
0000
0000
0000
,  // measure 15
0100
0000
0000
0000
,  // measure 16
0000
0000
0000
0000
,  // measure 17
0010
0000
0000
0000
,  // measure 18
0010
0000
0000
0000
,  // measure 19
0100
0000
0010
0000
,  // measure 20
1001
0000
0000
0000
,  // measure 21
0001
0000
0000
0000
,  // measure 22
1000
0000
0000
0000
,  // measure 23
0010
0000
0000
0000
,  // measure 24
0100
0000
0000
0000
,  // measure 25
0010
0000
0000
0000
,  // measure 26
1000
0000
0000
0000
,  // measure 27
0001
0000
0000
0000
,  // measure 28
1000
0000
0000
0000
,  // measure 29
0110
0000
0000
0000
0010
0000
0000
0010
,  // measure 30
0000
0000
0000
0000
,  // measure 31
0110
0000
0000
0000
0100
0000
0000
0100
,  // measure 32
0000
0000
0000
0000
,  // measure 33
0001
0001
0001
0000
,  // measure 34
1000
1000
1000
0000
,  // measure 35
0001
0001
0001
0000
,  // measure 36
0100
0100
0100
0000
,  // measure 37
0010
0000
0000
0000
,  // measure 38
1000
0000
0001
0000
,  // measure 39
0010
0000
0000
0000
,  // measure 40
0100
0100
0100
0000
,  // measure 41
0010
0000
0000
0000
,  // measure 42
0001
0000
0000
0000
,  // measure 43
1000
0000
0000
0000
,  // measure 44
0010
0000
0000
0000
,  // measure 45
0110
0000
0000
0000
0100
0000
0000
0100
,  // measure 46
0000
0000
0000
0000
,  // measure 47
0110
0000
0000
0000
0010
0000
0000
0010
,  // measure 48
0000
0000
0000
0000
,  // measure 49
1000
0000
0000
0000
,  // measure 50
0001
0000
0000
0000
,  // measure 51
0100
0000
0010
0000
,  // measure 52
1001
0000
0000
0000
,  // measure 53
0001
0001
0000
0000
,  // measure 54
1000
0000
0000
0000
,  // measure 55
0010
0000
0010
0000
,  // measure 56
0010
0000
0000
0000
,  // measure 57
0110
0000
0000
0000
,  // measure 58
0100
0000
0000
0000
,  // measure 59
0010
0000
0010
0000
,  // measure 60
0010
0000
0000
0000
,  // measure 61
1001
0000
0000
0000
,  // measure 62
1000
0000
0000
0000
,  // measure 63
0001
0000
0000
0000
,  // measure 64
0100
0000
0000
0000
,  // measure 65
0010
0000
0000
0000
,  // measure 66
0100
0000
0000
0000
,  // measure 67
0001
1000
0001
1000
,  // measure 68
0001
1000
0001
1000
,  // measure 69
0100
0000
0000
0000
,  // measure 70
0000
0000
0000
0000
,  // measure 71
0010
0000
0000
0000
,  // measure 72
0000
0000
0000
0000
,  // measure 73
0001
0000
0000
0000
,  // measure 74
0000
0000
0000
0000
,  // measure 75
0100
0000
0010
0000
,  // measure 76
1001
0000
0000
0000
,  // measure 77
1000
0000
0000
0000
,  // measure 78
0000
0000
0000
0000
,  // measure 79
0001
0000
0000
0000
,  // measure 80
0000
0000
0000
0000
,  // measure 81
0010
0000
0000
0000
,  // measure 82
0000
0000
0000
0000
,  // measure 83
0100
0000
0000
0000
,  // measure 84
0010
0000
0000
0000
,  // measure 85
0001
0000
1000
0000
,  // measure 86
0110
0000
1000
0000
;

//---------------dance-single - ----------------
#NOTES:
     dance-single:
     :
     Easy:
     8:
     0.363077,0.523436,0.285275,0.484102,0.000000,294.000000,261.000000,33.000000,56.000000,0.000000,0.000000,0.363077,0.523436,0.285275,0.484102,0.000000,294.000000,261.000000,33.000000,56.000000,0.000000,0.000000:
// measure 0
0000
0000
0000
0000
,  // measure 1
0000
0000
0000
0000
,  // measure 2
0000
0000
0000
0000
,  // measure 3
1000
0100
1000
0010
,  // measure 4
0100
0002
0023
0230
,  // measure 5
1300
0100
1000
0010
,  // measure 6
0100
0002
2003
3020
,  // measure 7
1030
0010
0100
0001
,  // measure 8
0010
0200
0320
0032
,  // measure 9
2003
0000
3002
0000
,  // measure 10
0200
0000
0000
0303
,  // measure 11
0001
0100
0010
1000
,  // measure 12
0100
0020
0230
2300
,  // measure 13
3100
1000
0010
0100
,  // measure 14
0001
2000
3002
2003
,  // measure 15
3001
0010
0100
1000
,  // measure 16
0100
2000
3020
0230
,  // measure 17
0301
0000
0000
1010
0000
0000
0001
0000
,  // measure 18
1000
0000
0000
0011
0000
0000
0001
0000
,  // measure 19
1000
0001
0000
0001
1000
0000
0001
0100
,  // measure 20
0010
0000
0000
0000
,  // measure 21
0100
0000
0010
0000
,  // measure 22
1000
0000
0001
1000
,  // measure 23
0100
0000
1000
0000
,  // measure 24
0010
1000
0100
0000
,  // measure 25
0010
0000
0001
0000
,  // measure 26
0100
0001
1000
0001
,  // measure 27
0100
0000
0010
0000
,  // measure 28
0100
0001
1000
0000
,  // measure 29
1001
0000
0000
0000
1010
0000
0000
0202
,  // measure 30
0000
0000
0000
0303
,  // measure 31
1001
0000
0000
0000
0011
0000
0000
2200
,  // measure 32
0000
0000
0000
3300
,  // measure 33
1000
0100
0100
0100
,  // measure 34
0010
0100
0100
0100
,  // measure 35
0010
0100
0100
0100
,  // measure 36
0010
0010
0011
1100
,  // measure 37
0001
1000
0010
1000
,  // measure 38
0001
0010
0100
1000
,  // measure 39
0100
1000
0010
0100
,  // measure 40
0001
1000
0010
1000
,  // measure 41
0001
0010
0100
0010
,  // measure 42
0001
0100
0010
1000
,  // measure 43
0001
1000
0100
1000
,  // measure 44
0010
0100
0001
1000
,  // measure 45
1010
0000
0000
0000
0101
0000
0000
0022
,  // measure 46
0000
0000
0000
0033
,  // measure 47
0011
0000
0000
0000
1100
0000
0000
2002
,  // measure 48
0000
0000
0000
3003
,  // measure 49
0001
1000
0000
0100
,  // measure 50
0010
0001
0000
0010
,  // measure 51
0100
0000
1000
0000
,  // measure 52
0010
0000
0100
0000
0010
0000
1000
0001
,  // measure 53
1001
0000
2002
0000
0000
0000
3003
0001
,  // measure 54
0000
0100
0000
0020
0000
0000
0030
0000
,  // measure 55
0110
0000
1001
0000
,  // measure 56
0110
0000
0000
0101
0001
0000
1000
0000
,  // measure 57
0100
0000
2000
0000
0000
0000
0000
3001
,  // measure 58
0000
0100
0001
0100
0001
0000
0000
0000
,  // measure 59
0100
0110
0010
0110
,  // measure 60
0100
0000
0010
2000
0000
0000
3000
0000
,  // measure 61
1002
0000
0000
0000
0000
0000
0000
1003
,  // measure 62
0000
0100
0000
1000
0000
0000
0000
0000
,  // measure 63
1100
0000
0100
0010
,  // measure 64
0001
0000
0100
0001
0000
1000
0000
0000
,  // measure 65
0000
0001
0000
1000
,  // measure 66
0100
0001
0100
1000
,  // measure 67
1001
1001
1001
1001
,  // measure 68
1001
1000
0010
0100
,  // measure 69
0001
0000
0000
0100
0000
0000
0010
0000
,  // measure 70
0000
2000
3200
0320
,  // measure 71
0031
0000
0000
0010
0000
0000
0100
0000
,  // measure 72
0000
0020
0032
0203
,  // measure 73
0310
0000
0000
1000
0000
0000
0001
0000
,  // measure 74
0000
2000
3200
2300
,  // measure 75
3020
0000
0230
0000
,  // measure 76
0002
0000
0000
0303
,  // measure 77
0001
0000
0000
0010
0000
0000
0001
0000
,  // measure 78
0000
2000
3200
0320
,  // measure 79
0130
0000
0000
1000
0000
0000
0010
0000
,  // measure 80
0000
0200
0320
2030
,  // measure 81
3001
0000
0000
1000
0000
0000
0100
0000
,  // measure 82
0000
0020
0230
2300
,  // measure 83
3001
0000
0000
1010
0000
0000
0001
0000
,  // measure 84
1000
0000
0000
0011
0000
0000
0001
0000
,  // measure 85
1000
0001
0000
0100
0010
0000
1000
0001
,  // measure 86
0100
0000
0010
0000
;

//---------------dance-single - ----------------
#NOTES:
     dance-single:
     :
     Medium:
     12:
     0.496452,0.635601,0.475458,0.561905,0.008645,402.000000,347.000000,55.000000,65.000000,0.000000,0.000000,0.496452,0.635601,0.475458,0.561905,0.008645,402.000000,347.000000,55.000000,65.000000,0.000000,0.000000:
// measure 0
0000
0000
0000
0000
,  // measure 1
0000
0000
0000
0000
,  // measure 2
0000
0000
0000
0000
,  // measure 3
0001
0100
0000
0010
1000
0000
0100
0010
,  // measure 4
0000
0100
0000
1000
0020
0000
2030
0000
,  // measure 5
3001
0010
0000
0001
0100
0000
0010
1000
,  // measure 6
0000
0100
0000
0010
0200
0000
2300
0000
,  // measure 7
3001
0010
0000
0001
0100
0000
0010
1000
,  // measure 8
0000
0001
2000
0000
3002
0000
0203
0000
,  // measure 9
0320
0000
0000
0000
0000
0000
0000
0000
0130
0000
0000
0001
0000
0000
0010
0000
,  // measure 10
0200
0000
0000
2000
0000
0000
3300
0000
,  // measure 11
0100
0010
0000
0100
1000
0000
0010
0100
,  // measure 12
0000
0010
0000
1000
0002
0000
2003
0000
,  // measure 13
3001
0100
0000
0001
0010
0000
0100
1000
,  // measure 14
0000
0100
0000
0010
0200
0000
2300
0000
,  // measure 15
3010
0100
0000
0010
1000
0000
0100
0010
,  // measure 16
0000
0100
0020
0000
0032
0000
0203
0000
,  // measure 17
0310
1000
0010
0200
0000
0310
1000
0100
,  // measure 18
0010
0001
0010
0200
0000
0310
0001
1000
,  // measure 19
0010
1010
0000
0001
0101
0000
0001
1000
,  // measure 20
1001
0000
1000
0100
,  // measure 21
0020
0000
0000
0000
0000
0000
0000
0130
,  // measure 22
0000
0000
1000
0000
0010
0000
0100
0002
,  // measure 23
0000
0000
0000
1003
,  // measure 24
0001
0000
0100
0002
0000
0000
0003
0000
,  // measure 25
0000
0000
0100
0000
0010
1000
0000
0100
,  // measure 26
0000
0010
0000
0100
0000
0000
2000
0000
,  // measure 27
0002
0000
0000
0000
3003
0020
0000
0200
,  // measure 28
0000
0000
0000
0330
,  // measure 29
0101
0000
0000
0000
1010
0000
0000
2200
,  // measure 30
0000
0000
0000
3300
,  // measure 31
1010
0000
0000
0000
0011
0000
0000
2002
,  // measure 32
0000
0000
0000
3003
,  // measure 33
1000
0001
1000
0000
0001
0000
1001
0000
,  // measure 34
1000
0001
1000
0000
0001
0000
1001
0000
,  // measure 35
1000
0001
1000
0000
0001
0000
1001
0000
,  // measure 36
0001
0100
0010
1000
0001
0000
0110
0000
,  // measure 37
0001
0000
0010
0000
0100
1000
0001
0000
,  // measure 38
0100
0000
0010
0000
1000
0100
0010
0100
,  // measure 39
1000
0000
0100
0000
0010
0001
0100
0000
,  // measure 40
0010
0000
0100
0000
0010
1000
0001
0000
,  // measure 41
1000
0000
0001
0000
0010
0001
0100
0000
,  // measure 42
0010
0000
1000
0000
0010
0100
0001
1000
,  // measure 43
0200
0000
0310
0000
0100
1000
0001
0000
,  // measure 44
0200
0000
0310
0000
0100
0010
1000
0000
,  // measure 45
1100
0000
0000
0000
0101
0000
0000
2002
,  // measure 46
0000
0000
0000
3003
,  // measure 47
0011
0000
0000
0000
1010
0000
0000
0202
,  // measure 48
0000
0000
0000
0303
,  // measure 49
0001
0000
1010
0000
0001
0100
0010
0000
,  // measure 50
1000
0000
0011
0000
0010
0100
1000
0000
,  // measure 51
0001
0000
0100
0010
1000
0000
0001
0100
,  // measure 52
0000
1001
0110
1001
,  // measure 53
0101
0000
0202
0000
0000
0000
0303
0001
,  // measure 54
0000
0100
0000
0020
0000
0000
0030
0000
,  // measure 55
0100
0010
0110
0000
0010
0100
0110
0000
,  // measure 56
0110
0000
0000
1001
1000
0000
0100
0000
,  // measure 57
0011
0000
2200
0000
0000
0000
3300
0100
,  // measure 58
0000
0010
0100
1000
0020
0000
0000
0000
,  // measure 59
0130
0101
0100
0110
,  // measure 60
0100
0000
0010
0100
0001
0000
1000
0000
,  // measure 61
2002
0000
0000
0000
0000
0000
3003
0101
,  // measure 62
0000
1010
0000
2200
0000
3300
0000
0000
,  // measure 63
1100
0000
0011
0110
,  // measure 64
1000
0000
0100
1000
0000
1010
0000
0000
,  // measure 65
0000
0100
0000
0010
,  // measure 66
1001
0010
1001
0100
,  // measure 67
1001
0110
1001
0110
,  // measure 68
1001
0110
1001
0110
,  // measure 69
0001
0100
0000
0010
1000
0000
0100
0010
,  // measure 70
0000
0100
0000
1000
0200
0000
2300
0000
,  // measure 71
3010
0100
0000
0001
0010
0000
0100
0010
,  // measure 72
0000
0100
0000
1000
0002
0000
0203
0000
,  // measure 73
0310
1000
0000
0001
0010
0000
0100
0010
,  // measure 74
0000
0001
2000
0000
3020
0000
0230
0000
,  // measure 75
0320
0000
0000
0000
0000
0000
0000
0000
0130
0000
0000
0001
0000
0000
1000
0000
,  // measure 76
0200
0000
0000
0020
0000
0000
0330
0000
,  // measure 77
0001
0010
0000
0100
1000
0000
0010
1000
,  // measure 78
0000
0001
0000
1000
0020
0000
2030
0000
,  // measure 79
3100
0010
0000
0100
1000
0000
0010
0100
,  // measure 80
0000
0010
0000
1000
0002
0000
2003
0000
,  // measure 81
3001
0100
0000
0010
1000
0000
0001
0100
,  // measure 82
0000
0010
2000
0000
3200
0000
0320
0000
,  // measure 83
0031
0001
0010
0200
0000
0310
0001
1000
,  // measure 84
0010
0010
0100
0002
0000
0103
0010
1000
,  // measure 85
0001
1001
0000
1000
1001
0000
0100
0010
,  // measure 86
0110
0000
0001
0000
;

//---------------dance-single - ----------------
#NOTES:
     dance-single:
     :
     Hard:
     15:
     0.722449,0.785154,0.587839,0.389011,0.116703,585.000000,517.000000,68.000000,45.000000,0.000000,0.000000,0.722449,0.785154,0.587839,0.389011,0.116703,585.000000,517.000000,68.000000,45.000000,0.000000,0.000000:
// measure 0
0000
0000
0000
0000
,  // measure 1
0000
0000
0000
0000
,  // measure 2
0000
0000
0000
0000
,  // measure 3
0001
0100
1000
0100
0010
1000
0001
0010
,  // measure 4
0000
0110
0000
0010
0001
0000
1001
0000
,  // measure 5
1000
0010
0001
0010
0100
0001
1000
0100
,  // measure 6
0000
0110
0000
0100
1000
0000
0101
0000
,  // measure 7
1000
0100
0001
0100
0010
0001
0010
0100
,  // measure 8
0000
0011
0000
0001
0100
0001
1000
0100
,  // measure 9
0020
0000
0000
0000
0000
0000
0000
0000
0230
0000
0000
2300
0000
0000
3020
0000
,  // measure 10
0230
0000
0000
0302
0000
0000
0000
0000
,  // measure 11
0103
0001
0100
1000
0100
0001
0010
0100
,  // measure 12
0000
0011
0000
0001
0010
0000
1100
0000
,  // measure 13
1000
0100
0001
0100
1000
0100
0010
0001
,  // measure 14
0000
1001
0000
0001
0100
0000
1010
0000
,  // measure 15
1000
0010
0001
0010
0100
0001
1000
0100
,  // measure 16
0000
1001
0000
0001
1000
0000
0110
0000
,  // measure 17
1000
1000
0001
0200
0000
0310
1000
0001
,  // measure 18
1000
1000
0001
0200
0000
0310
1000
0001
,  // measure 19
0010
0110
0000
1000
1100
0000
1000
0001
,  // measure 20
0110
0000
0000
0000
,  // measure 21
1000
0000
0001
0000
0001
0010
0000
0010
,  // measure 22
0001
0001
1000
0100
0010
0001
0010
0000
,  // measure 23
0110
0000
0110
0000
0100
1000
0000
0010
,  // measure 24
0100
0001
1000
0001
0010
0100
1000
0000
,  // measure 25
1100
0000
1000
0000
0100
1000
0001
0100
,  // measure 26
0000
0010
0000
1000
0000
0001
0000
0000
,  // measure 27
0012
0000
0000
0000
0003
0200
0000
0310
,  // measure 28
1000
0000
0000
0000
0001
0000
1000
0001
1000
0000
0001
0000
0020
0000
0000
0000
,  // measure 29
0230
0000
1300
1000
0020
0000
0130
0002
,  // measure 30
0000
0000
0013
0100
1000
0000
0001
0000
1000
0000
0010
0100
0001
0000
0010
0000
,  // measure 31
0200
0000
0000
0000
1300
0000
1000
0001
1000
0000
0001
0010
0100
0000
0020
0000
,  // measure 32
0000
0000
0130
0000
0010
0001
1000
0000
0010
0000
0100
0001
0010
0000
0001
0000
,  // measure 33
1000
1000
0001
0000
1000
0000
1001
0000
,  // measure 34
1000
1000
0001
0000
1000
0000
1001
0000
,  // measure 35
1000
1000
0001
0000
1000
0000
1001
0000
,  // measure 36
0010
0010
0010
0010
1001
0000
0110
0000
,  // measure 37
0001
0000
0100
0000
0010
0000
1000
0001
0000
0010
0100
0000
1000
0000
0000
0000
,  // measure 38
0100
0010
0001
0010
0100
0010
0001
1000
,  // measure 39
0010
0000
0100
0000
0001
0000
1000
0010
0000
0100
0010
0000
1000
0000
0100
0000
,  // measure 40
0010
0000
0100
0000
1000
0000
0001
0100
0010
0000
1000
0000
0001
0000
0000
0000
,  // measure 41
1100
0000
0101
0000
0100
0010
1000
0001
,  // measure 42
0010
0000
0100
0000
1000
0100
1000
0001
0100
0000
0120
0000
0000
0000
1030
0000
,  // measure 43
1001
0000
0001
0000
0010
0000
0001
0010
0000
0100
1000
0000
0010
0000
0100
0000
,  // measure 44
0001
0010
0100
1000
0000
1000
0001
1000
,  // measure 45
0200
0000
0010
0310
0002
0000
0103
0020
,  // measure 46
0000
0000
0130
0000
0001
0000
1000
0000
0100
0000
0010
0001
0010
0000
0100
0000
,  // measure 47
2000
0000
0010
3010
0200
0000
0310
2000
,  // measure 48
0000
0000
0100
0000
3100
0000
0010
0001
0010
0000
0001
0000
1000
0000
0010
0000
,  // measure 49
0100
0000
0101
0000
0001
0010
0001
0000
,  // measure 50
1000
0000
0110
0000
1000
0010
1000
0000
,  // measure 51
1002
0000
0000
0000
0013
0000
0000
0000
1001
0000
1000
0010
0100
0000
0001
0000
,  // measure 52
0010
0000
0110
0000
1100
0000
1000
1000
,  // measure 53
1100
0000
0102
0000
1003
0010
1000
0001
,  // measure 54
0000
1100
0000
0101
0001
0010
0100
0000
,  // measure 55
1000
0010
0101
0000
0001
0010
1100
0000
,  // measure 56
1002
0000
0000
0000
1003
0000
1000
0100
0010
0000
0100
0000
1000
0000
0001
0000
,  // measure 57
1001
0000
0201
0000
0310
0000
0100
0002
,  // measure 58
0000
0013
0100
0100
0200
0000
0300
0000
,  // measure 59
0010
0001
1100
0000
1000
0010
0101
0000
,  // measure 60
0001
0000
0001
1000
0010
0000
0010
1000
0100
0000
0010
0000
0100
0000
1000
0000
,  // measure 61
0001
0000
0100
0000
0001
0000
1000
0000
0001
0000
0010
0100
1000
0000
0010
0000
,  // measure 62
1000
0000
0010
0000
1000
0000
0001
0000
0100
0000
0001
0010
0100
0000
1000
0000
,  // measure 63
0001
0010
0100
0000
0100
0010
0001
0000
,  // measure 64
0100
0000
0010
0000
1000
0000
0001
0000
0010
0000
0100
0000
1000
0001
1000
0000
,  // measure 65
0001
0001
1001
0000
1000
1000
1001
0000
,  // measure 66
0110
1001
0110
1001
,  // measure 67
1010
0101
0011
1010
,  // measure 68
0011
0101
1100
1001
,  // measure 69
0001
0010
1000
0010
0001
0100
0010
1000
,  // measure 70
0000
1001
0000
0001
0020
0000
0230
0000
,  // measure 71
1300
0100
0001
0100
0010
0001
0100
0010
,  // measure 72
0000
1010
0000
1000
0001
0010
0100
0010
,  // measure 73
0001
0100
1000
0100
0010
1000
0001
0011
,  // measure 74
0000
0110
0000
0100
2000
0000
3020
0000
,  // measure 75
0230
0000
0000
0000
0000
0000
0000
0000
0320
0000
0000
2030
0000
0000
3002
0000
,  // measure 76
0023
0000
0000
0200
0000
0000
0330
0000
,  // measure 77
0010
0010
0001
0010
0010
0001
1000
1000
,  // measure 78
0000
0110
0000
0010
2000
0000
3002
0000
,  // measure 79
0013
0010
0100
1000
1000
0001
0100
0100
,  // measure 80
0000
1010
0000
0001
0200
0000
0320
0000
,  // measure 81
1030
1000
0001
0100
0100
0001
0010
0010
,  // measure 82
0000
1001
0000
0001
0200
0000
0320
0000
,  // measure 83
1030
1000
0010
0100
0001
0010
0100
1000
,  // measure 84
0001
0001
0100
0001
1000
0100
0010
0001
,  // measure 85
1000
0101
0000
1000
0110
0000
0001
0100
,  // measure 86
1010
0000
0001
0000
;
