#VERSION:0.83;
#TITLE:The Cyber Grind;
#SUBTITLE:;
#ARTIST:meganeko;
#TITLETRANSLIT:;
#SUBTITLETRANSLIT:;
#ARTISTTRANSLIT:;
#GENRE:;
#CREDIT:;
#MUSIC:The Cyber Grind.ogg;
#BANNER:The Cyber Grind-bn.png;
#BACKGROUND:The Cyber Grind-bg.png;
#CDTITLE:;
#SAMPLESTART:101.052;
#SAMPLELENGTH:15.000;
#SELECTABLE:YES;
#OFFSET:1.264;
#BPMS:0.000=190.000;
#STOPS:;
#BGCHANGES:;
#FGCHANGES:;

//--------------- dance-single - ----------------
#NOTEDATA:;
#STEPSTYPE:dance-single;
#DESCRIPTION:;
#DIFFICULTY:Hard;
#METER:14;
#RADARVALUES:0,0,0,0,0;
#CREDIT:Talkion;
#NOTES:
0000
0000
0000
0000
,
0000
0000
0000
0000
,
0000
0000
0000
0000
,
0000
0000
0000
0000
,
0000
0000
0000
0000
,
0000
0000
0000
0000
,
0000
0000
0000
0000
,
0000
0000
0000
0000
,
0000
0000
0000
0000
,
2000
0000
3100
0010
0000
0100
0000
1000
,
0000
1000
0001
0000
0100
0000
0020
0000
,
1030
0000
0001
0010
0000
0100
0000
0010
,
0000
0010
0001
0000
1000
0000
0010
0000
,
0200
0000
0301
2000
0000
3001
0010
0200
,
0000
0310
0001
0000
1000
0010
0100
0000
,
0210
0000
0000
0000
,
0301
0000
0000
1000
0000
0000
0100
0000
0000
0010
0000
0000
0011
0000
0000
0000
,
1002
0000
0000
0203
0000
0000
1000
0000
0000
0310
0000
0000
0100
0000
0010
0100
,
0002
0000
0000
2003
0000
0000
0100
0000
0000
3001
0000
0000
0010
0000
0100
0010
,
0002
0000
0000
0023
0000
0000
1000
0000
0000
0130
0000
0000
0010
0000
0100
0010
,
0002
0000
0000
2003
0000
0000
0010
0000
0000
3001
0000
0000
0100
0000
0010
0000
,
2000
0000
0000
3020
0000
0000
0001
0000
0000
0130
0000
0000
0010
0000
0100
0010
,
2000
0000
0000
3002
0000
0000
0010
0000
0000
1003
0000
0000
0100
0000
0010
0100
,
2000
0000
0000
3200
0000
0000
0001
0000
0000
0310
0000
0000
0100
0000
1000
0001
,
2000
0000
0000
0010
0000
0000
3001
0000
1002
0000
0000
0010
0000
0000
1003
0000
,
2001
0000
0000
3200
0000
0000
0301
0000
0100
0010
0001
0000
1000
0000
0001
0010
,
0200
0000
0000
2300
0000
0000
3001
0000
1000
0010
0100
0000
0001
0000
0100
0010
,
2000
0000
0000
3020
0000
0000
0031
0000
0010
0100
0001
0000
1000
0000
0001
0100
,
0020
0000
0000
2030
0000
0000
3001
0000
0000
1000
0000
0000
1100
0000
0000
0000
,
0002
0000
0000
0203
0000
0000
1300
0000
0100
0010
1000
0000
0001
0000
1000
0010
,
0100
0000
0001
0100
0000
0100
0010
0000
0000
1000
0000
0000
0002
0000
0000
0000
,
0013
0000
0100
0000
0001
0000
0100
0000
0010
0000
0001
0000
1000
0000
0010
0100
,
0010
1000
0002
0003
0100
0100
0010
0000
,
1001
0000
0000
0001
0000
0000
0010
0000
0000
0001
0000
0000
2000
0000
0000
0000
,
3100
0000
0000
0010
0000
0000
0001
0000
0000
0010
0000
0000
0200
0000
0000
0000
,
1300
0000
0000
0001
0000
0000
0100
0000
0000
0001
0000
0000
2000
0000
0000
0000
,
3010
0000
0000
0100
0000
0000
0001
0000
0000
0100
0000
0000
0010
0000
0010
0000
,
1000
0000
0000
0001
0000
0000
0010
0000
0000
0100
0000
0000
2000
0000
0000
0000
,
3001
0000
0000
1000
0000
0000
0010
0000
0000
0100
0000
0000
0002
0000
0000
0000
,
1003
0000
0000
0001
0000
0000
0010
0000
0000
0100
0000
0000
2000
0000
0000
0000
,
3001
0000
0001
0000
0100
0000
0100
0000
0010
0100
0000
0010
0200
0000
0000
0000
,
0301
0000
0000
1000
0000
0000
0100
0000
0000
0010
0000
0000
0001
0000
0001
0000
,
1000
0000
0000
0010
0000
0000
0100
0000
0000
0010
0000
0000
1000
0000
1000
0000
,
0001
0000
0000
0010
0000
0000
0100
0000
0000
0010
0000
0000
0001
0000
0001
0000
,
1000
0000
0000
0010
0000
0000
0100
0000
0000
0010
0000
0000
0002
0000
0000
0000
,
0023
0000
0000
2030
0000
0000
3002
0000
0000
2003
0000
0000
3100
0000
0010
0000
,
0002
0000
0000
2003
0000
0000
3200
0000
0000
2300
0000
0000
3001
0000
0001
0000
,
1000
0010
0000
0010
0100
0000
0010
0100
0000
0100
0001
0000
1004
0000
0000
0000
,
0000
0000
0023
0130
,
1100
0000
0000
00M0
0000
0000
0200
0000
0000
0000
0000
0000
0301
0000
0000
0000
0101
0000
0000
00M0
0000
0000
0200
0000
0000
0000
0000
0000
1300
0000
0000
0000
,
1100
0000
0000
00M0
0000
0000
0200
0000
0000
0000
0000
0000
0001
0000
0000
0000
0000
0000
0010
0000
0000
0000
0000
0000
0301
0000
0000
0000
1000
0000
0000
0000
,
2010
0000
0000
0001
0000
0000
3100
0000
2100
0000
0000
0001
0000
0000
3010
0000
,
1010
0000
1000
0000
0001
0000
0010
0000
0001
0000
1000
0000
,
1010
0000
0000
0M00
0000
0000
0010
0000
0000
0000
0000
0000
0001
0000
0000
0000
0011
0000
0000
0M00
0000
0000
0010
0000
0000
0000
0000
0000
1000
0000
0000
0000
,
1010
0000
0000
0M00
0000
0000
0020
0000
0000
0000
0000
0000
0001
0000
0000
0000
0000
0000
0100
0000
0000
0000
0000
0000
0031
0000
0000
0000
1000
0000
0000
0000
,
2001
0000
0000
3020
0000
0000
0001
0000
0000
0130
0000
0000
0010
0100
0001
0000
,
1002
0000
0000
0010
0000
0000
1003
0000
2001
0000
0000
0010
0000
0000
3001
0000
,
0011
0000
0000
0M00
0000
0000
0020
0000
0000
0000
0000
0000
1030
0000
0000
0000
1100
0000
0000
00M0
0000
0000
0200
0000
0000
0000
0000
0000
0301
0000
0000
0000
,
0011
0000
0000
0M00
0000
0000
0020
0000
0000
0000
0000
0000
1000
0000
0000
0000
0000
0000
0100
0000
0000
0000
0000
0000
1030
0000
0000
0000
0001
0000
0000
0000
,
0102
0000
0000
1000
0000
0000
0013
0000
0012
0000
0000
1000
0000
0000
0103
0000
,
0101
0000
0001
0000
1000
0000
0100
0000
1000
0000
0001
0000
,
0101
0000
0000
00M0
0000
0000
0100
0000
0000
0000
0000
0000
1000
0000
0000
0000
1010
0000
0000
0M00
0000
0000
0010
0000
0000
0000
0000
0000
0001
0000
0000
0000
,
0101
0000
0000
00M0
0000
0000
0200
0000
0000
0000
0000
0000
1000
0000
0000
0000
0000
0000
0010
0000
0000
0000
0000
0000
1300
0000
0000
0000
0001
0000
0000
0000
,
0100
0000
0020
0000
0000
0001
0000
0000
0130
0000
0000
0010
0100
0010
1000
0000
,
2001
0000
0000
0100
0000
0000
3001
0000
1002
0000
0000
0100
0000
0000
1003
0000
,
0001
0100
0010
0002
0000
0013
0100
0002
,
0000
0013
0100
1000
0001
1000
0010
1000
,
0001
0010
0100
0002
0000
0103
0010
0002
,
0000
0103
0010
1000
0001
1000
0100
1000
,
1001
0001
0100
2000
0000
3100
0010
2000
,
0000
3100
0010
0001
1000
0001
0100
0001
,
1000
0100
0010
2000
0000
3010
0100
2000
,
0000
3010
0100
0001
1000
0001
0010
0001
,
1002
0103
0100
0100
,
0100
0100
0100
0100
,
2001
3100
0100
0100
,
0100
0100
0100
0100
,
1002
0000
0103
0000
0001
1000
0010
1000
,
0001
0000
0010
0000
0100
0100
1000
0000
,
2001
0000
3020
0000
0130
0100
0002
0000
,
0043
0000
0000
0130
,
1001
1000
0010
0110
0000
1001
0000
0011
,
0000
0010
0100
1000
1001
0000
0001
0101
,
0000
1010
0000
1001
0000
1100
0000
0011
,
0000
0001
0010
0100
1000
0010
0100
0001
,
1001
1000
0100
0110
0000
1001
0000
0101
,
0000
0100
0010
1000
1001
0000
0001
0011
,
0000
0000
1100
0000
0000
0000
1001
0000
0000
0000
1010
0000
0000
0000
0010
0100
,
0001
1000
0001
1000
0001
1000
0100
0100
,
1000
0001
0100
2000
0000
3100
0010
2000
,
0000
3100
0010
0001
1000
0001
0100
0001
,
1000
0001
0010
0100
0010
1000
0010
0100
,
0010
0001
1000
0001
0100
0010
1000
0000
,
0001
1000
0100
0002
0000
0103
0010
0002
,
0000
0103
0010
1000
0001
1000
0100
1000
,
0001
1000
0010
0100
0010
0001
0010
0100
,
0001
1000
0001
0000
0010
0000
0001
1000
0001
0000
0100
0000
0020
0000
0000
0000
,
1030
0010
0100
1000
0100
0010
1000
0100
,
0010
1000
0010
0100
1000
0001
1000
0010
,
0100
0010
0001
0010
0100
0010
1000
0100
,
0010
0100
0001
0100
0010
0001
2000
0000
,
3001
0100
0010
0001
0010
0100
0001
0010
,
0100
0001
0100
0010
0001
1000
0001
0100
,
0010
0100
1000
0100
0010
0100
0001
0010
,
0100
0010
1000
0010
0100
1000
0002
0000
,
1003
0010
0100
1000
0001
0010
0100
0001
,
0010
0100
0001
1000
0010
0100
1000
0001
,
0100
0010
0100
1000
0001
0010
0100
0010
,
1000
0001
0010
0001
0100
0010
2000
0000
,
3001
0100
0010
0001
1000
0100
0010
1000
,
0100
0010
1000
0001
0100
0010
0001
0000
,
4004
0000
0000
0000
,
0000
0000
0000
0000
0000
3003
0110
0000
,
1001
0000
0000
0000
;

//--------------- dance-single - ----------------
#NOTEDATA:;
#STEPSTYPE:dance-single;
#DESCRIPTION:;
#DIFFICULTY:Challenge;
#METER:17;
#RADARVALUES:0,0,0,0,0;
#CREDIT:Talkion;
#NOTES:
0000
0000
0000
0000
,
0000
0000
0000
0000
,
0000
0000
0000
0000
,
0000
0000
0000
0000
,
0000
0000
0000
0000
,
0000
0000
0000
0000
,
0000
0000
0000
0000
,
0000
0000
0000
0000
,
0000
0000
0000
0000
,
1000
0000
0001
0010
0001
0000
1000
0000
0001
0100
0001
0000
1000
0100
0010
0000
,
0001
1000
0001
0000
0100
0000
0001
1000
0001
0000
0010
0000
0100
0000
2000
0000
,
3001
0000
1000
0010
0100
0000
0001
0000
0010
0000
0001
1000
0001
0000
0100
0000
,
0001
1000
0001
0000
0010
0000
0100
0010
0001
0000
1000
0000
0010
0100
0001
0100
,
0010
0000
1000
0001
1000
0000
0100
0000
0020
0000
0031
1000
0100
1000
0001
0000
,
0000
0100
0100
0001
1000
0100
0020
0000
,
0032
0000
0000
0000
,
1003
0000
0000
0001
0010
0001
1000
0000
0000
0001
0010
0001
0100
0000
0000
0000
,
1001
0000
1000
0100
0000
1000
0001
0000
1000
0100
0000
1000
0001
0000
1000
0100
,
0010
0000
0001
1000
0000
0001
0100
0000
0001
1000
0000
0001
0100
0000
0010
0100
,
0001
0000
1000
0100
0000
0010
0100
0000
1000
0100
0000
0010
0100
0000
0010
0001
,
1000
0000
0001
0100
0000
0010
0100
0000
0001
1000
0001
0000
0010
0000
0000
0000
,
0010
0000
0001
0010
0000
0001
1000
0000
0001
0010
0000
0001
1000
0000
0001
0010
,
0100
0000
1000
0001
0000
1000
0010
0000
1000
0001
0000
1000
0010
0000
0100
0010
,
1000
0000
0001
0010
0000
0100
0010
0000
0001
0010
0000
0100
0010
0000
0001
1000
,
0002
0000
0000
0100
0000
0000
1003
0000
2001
0000
0000
0100
0000
0000
3001
0000
,
1001
0000
1000
0010
0000
1000
0001
0000
1000
0010
0100
0000
0001
1000
0100
1000
,
0001
0000
0010
0100
0000
0010
0001
0000
0010
0100
1000
0000
0001
0100
0010
0100
,
0001
0000
1000
0010
0000
1000
0001
0000
1000
0010
0100
0000
0001
1000
0100
1000
,
0001
0000
0010
0100
0000
0010
0001
0000
1000
0100
1000
0000
0001
0000
0000
0000
,
0001
0100
0000
0100
0010
0000
0100
0010
0000
0010
1000
0000
0001
1000
0100
1000
,
0001
0000
0010
0100
1000
0100
0010
0000
0000
0001
0000
0000
0200
0000
0000
0000
,
0310
0000
1000
0010
0100
0001
1000
0000
0001
0010
0100
1000
0001
0000
1000
0010
,
0100
0100
0002
0013
0001
0001
1000
0000
,
1001
0000
0000
0001
0000
0000
0010
0000
0000
0001
0000
0000
1000
0000
2000
0000
,
3100
0000
0000
0010
0000
0000
0001
0000
0000
0010
0000
0000
0100
0000
0200
0000
,
1300
0000
0000
0001
0000
0000
0100
0000
0000
0001
0000
0000
1000
0000
2000
0000
,
3010
0000
0000
0100
0000
0000
0001
0000
0000
0100
0000
0000
0010
0000
1000
0001
,
1000
0000
0000
0100
0000
0000
0010
0000
0000
0100
0000
0000
1000
0000
1000
0000
,
0001
0000
0000
0100
0000
0000
0010
0000
0000
0100
0000
0000
0001
0000
0001
0000
,
1000
0000
0000
0100
0000
0000
0010
0000
0000
0100
0000
0000
1000
0000
0001
1000
,
0001
0000
1000
0010
1000
0000
0001
0100
0000
0100
0000
0100
0020
0000
0000
0000
,
1030
0000
0000
0001
0010
0000
0100
0000
0010
0001
0000
0000
1000
0000
0001
0100
,
0010
0000
0000
1000
0001
0000
0010
0000
0001
1000
0000
0000
0100
0000
0010
0100
,
1000
0000
0000
0001
0100
0000
0010
0000
0100
0001
0000
0000
1000
0000
0001
0010
,
0100
0000
0000
1000
0001
0000
0100
0000
0001
1000
0000
0000
0010
0100
0001
0100
,
0020
0000
0000
2030
0000
0000
3002
0000
0000
2003
0000
0000
3100
0000
0010
0000
,
0002
0000
0000
2003
0000
0000
3200
0000
0000
2300
0000
0000
3001
0000
0001
0000
,
0100
0010
0100
0001
1000
0001
0010
0100
1000
0001
1000
0010
1000
0001
0010
0001
,
1000
0001
0100
0010
1000
0001
0010
0001
0200
0000
0000
0000
0301
0000
0000
0000
,
1100
0000
0000
00M0
0000
0000
0100
0000
0001
0000
0000
0000
1000
0000
0000
0000
1100
0000
0000
00M0
0000
0000
0100
0000
0001
0000
0000
0000
1000
0000
0000
0000
,
1100
0000
0000
00M0
0000
0000
0100
0000
0001
0000
0000
0000
0100
0000
0000
0000
0010
0000
0100
0000
0001
0000
0000
0000
0010
0000
0000
0000
0100
0000
0020
0000
,
0001
0000
0000
0130
1000
0000
0001
0000
0021
0000
0000
0130
1000
0000
0001
0000
,
0200
0000
0001
0000
0010
0000
1000
0000
0010
0000
0301
0000
,
0011
0000
0000
0M00
0000
0000
0010
0000
1000
0000
0000
0000
0001
0000
0000
0000
0011
0000
0000
0M00
0000
0000
0010
0000
1000
0000
0000
0000
0001
0000
0000
0000
,
0011
0000
0000
0M00
0000
0000
0010
0000
1000
0000
0000
0000
0010
0000
0000
0000
0100
0000
0010
0000
1000
0000
0000
0000
0100
0000
0000
0000
0010
0000
0100
0000
,
1000
0000
0001
0100
0000
0100
0010
0000
0010
0100
0000
0100
0001
1000
0100
1000
,
0002
0000
0000
0010
0000
0000
1003
0000
2001
0000
0000
0010
0000
0000
3001
0000
,
0101
0000
0000
M000
0000
0000
0100
0000
0010
0000
0000
0000
0001
0000
0000
0000
0101
0000
0000
M000
0000
0000
0100
0000
0010
0000
0000
0000
0001
0000
0000
0000
,
0101
0000
0000
M000
0000
0000
0100
0000
0010
0000
0000
0000
0001
0000
0000
0000
1000
0000
0100
0000
0010
0000
0000
0000
0001
0000
0000
0000
0100
0000
0020
0000
,
1000
0000
0000
0130
0001
0000
1000
0000
1020
0000
0000
0130
0001
0000
1000
0000
,
0200
0000
1000
0000
0010
0000
0001
0000
0010
0000
1300
0000
,
1010
0000
0000
000M
0000
0000
0010
0000
0100
0000
0000
0000
1000
0000
0000
0000
1010
0000
0000
000M
0000
0000
0010
0000
0100
0000
0000
0000
1000
0000
0000
0000
,
1010
0000
0000
000M
0000
0000
0010
0000
0100
0000
0000
0000
1000
0000
0000
0000
0001
0000
0010
0000
0100
0000
0000
0000
1000
0000
0000
0000
0010
0000
0100
0000
,
0001
0000
1000
0100
0000
0100
0010
0000
0010
0100
0000
0100
1000
0001
0100
0001
,
2000
0000
0000
0010
0000
0000
3001
0000
1002
0000
0000
0010
0000
0000
1003
0000
,
0001
0010
0100
0002
0000
0103
0010
0002
,
0000
0103
0010
1000
0001
1000
0100
1000
,
0001
0100
0010
0002
0000
0013
0100
0002
,
0000
0013
0100
1000
0001
1000
0010
1000
,
1001
0001
0010
2000
0000
3010
0100
2000
,
0000
3010
0100
0001
1000
0001
0010
0001
,
1000
0010
0100
2000
0000
3100
0010
2000
,
0000
3100
0010
0001
1000
0001
0100
0001
,
1002
0013
0010
0010
,
0010
0010
0010
0010
,
2001
3010
0010
0010
,
0010
0010
0010
0010
,
1002
0000
0013
0000
0001
1000
0100
1000
,
0001
0000
0100
0000
0010
0010
1000
0000
,
2001
0000
0000
0000
3100
0000
1000
0001
1000
0000
0020
0000
0130
0000
0100
0000
,
0001
1000
0100
0010
0001
1000
0100
0010
0001
1000
0100
0010
0001
0000
0000
0000
,
1002
0103
0010
1010
1000
1001
1000
1100
,
0000
1000
0100
0010
0011
0000
1001
0101
,
0000
2010
0001
3100
0000
0012
1000
0103
,
0000
2010
3001
0010
0110
1001
0000
1000
,
2001
3010
0100
0101
0001
1001
0001
0011
,
0000
0001
0010
0100
1100
0000
1001
1010
,
0000
0000
0102
0000
1000
0000
0013
0000
0000
0000
2100
0000
3001
0000
1000
0010
,
0100
0100
0100
0100
0100
0100
0001
0001
,
1000
0100
0020
1000
0230
0001
0310
0001
,
0000
0001
0200
1000
0320
0001
0130
0001
,
0000
0002
1000
0103
0000
2000
0001
3100
,
0000
0002
1000
0103
0010
1000
0000
1000
,
0001
0010
0200
0001
0320
1000
0130
1000
,
0000
1000
0020
0001
0230
1000
0310
1000
,
0000
0000
2000
0000
0001
0000
3010
0000
1000
0000
0001
0000
1000
0000
0010
0100
,
0001
0100
0010
0000
0010
0000
1000
0001
1000
0000
0100
0000
1000
0001
0010
0100
,
1000
0001
0010
0001
0100
0000
0000
0000
0000
0000
1000
0001
0010
0001
0100
0000
,
0000
0000
1000
0001
0010
0100
0010
0001
1000
0001
0100
0010
1000
0000
0000
0000
,
0001
1000
0010
1000
0100
0000
0000
0000
0000
0000
0001
1000
0010
1000
0100
0000
,
0000
0000
0001
1000
0010
0100
0010
1000
0001
1000
0100
0010
0001
0000
0000
0000
,
1000
0100
1000
0001
0100
0000
0000
0000
0000
0000
1000
0100
1000
0001
0100
0000
,
0000
0000
1000
0100
1000
0001
1000
0010
0100
0001
0100
0010
1000
0000
0000
0000
,
0001
0100
0001
1000
0100
0000
0000
0000
0000
0000
0001
0100
0001
1000
0100
0000
,
0000
0000
0001
0100
0001
1000
0001
0010
0100
1000
0100
0010
0002
0000
0000
0000
,
1003
0010
0100
0010
0001
0000
0000
0000
0000
0000
1000
0010
0100
0010
0001
0000
,
0000
0000
1000
0010
0100
0010
1000
0001
1000
0100
0010
0001
1000
0000
0000
0000
,
0001
0010
0100
0010
1000
0000
0000
0000
0000
0000
0001
0010
0100
0010
1000
0000
,
0000
0000
0001
0010
0100
0010
0001
1000
0001
0100
0010
1000
0001
0000
0000
0000
,
1000
0001
0010
0100
0001
0000
0000
0000
0000
0000
1000
0001
0010
0100
0001
0000
,
0000
0000
1000
0001
0010
0100
1000
0001
1000
0010
0100
0010
1000
0000
0000
0000
,
4004
0000
0000
0000
,
0000
0000
0000
0000
0000
3003
0110
0000
,
1001
0000
0000
0000
;
