#VERSION:0.83;
#TITLE:That Life;
#SUBTITLE:;
#ARTIST:Unknown Mortal Orchestra;
#TITLETRANSLIT:;
#SUBTITLETRANSLIT:;
#ARTISTTRANSLIT:;
#GENRE:;
#CREDIT:NOWHERE Dance Club & Venomothim;
#MUSIC:That Life.ogg;
#BANNER:That Life-bn.png;
#BACKGROUND:That Life-bg.png;
#CDTITLE:;
#SAMPLESTART:82.907;
#SAMPLELENGTH:20.436;
#SELECTABLE:YES;
#OFFSET:-0.189;
#BPMS:0.000=123.311;
#STOPS:;
#SPEEDS:0.000=1.000=0.000=0;
#SCROLLS:0.000=1.000;
#TICKCOUNTS:0.000=4;
#TIMESIGNATURES:0.000=4=4;
#LABELS:0.000=Song Start;
#COMBOS:0.000=1;
#ORIGIN:;
#PREVIEWVID:;
#JACKET:That Life-jacket.png;
#CDIMAGE:;
#DISCIMAGE:;
#BGCHANGES:0.000=That Life.avi=1.000=1=0=0=StretchNoLoop==CrossFade==,
99999.000=-nosongbg-=1.000=0=0=0=StretchNoLoop====
;
#FGCHANGES:;

//--------------- dance-single - Team DREAM TEAM ----------------
#NOTEDATA:;
#STEPSTYPE:dance-single;
#DESCRIPTION:Team DREAM TEAM;
#DIFFICULTY:Beginner;
#METER:1;
#RADARVALUES:0.092015,0.14552,0.007952,0,0,81,80,1,0,0,0,0,0,0,0.092015,0.14552,0.007952,0,0,81,80,1,0,0,0,0,0,0;
#CHARTNAME:;
#CHARTSTYLE:;
#CREDIT:;
#NOTES:
0000
0000
0000
0000
,
0000
0000
0000
0000
,
0000
0000
0000
0000
,
0000
0000
0000
0000
,
0000
0000
0000
0000
,
0000
0000
0000
0000
,
0000
0000
0000
0000
,
1000
0000
1000
0000
,
1000
0000
0000
0000
,
0001
0000
0001
0000
,
0001
0000
0000
0000
,
1000
0000
0000
0000
,
0100
0000
0000
0000
,
0010
0000
0000
0000
,
0001
0000
0000
0000
,
0100
0000
0000
0000
,
0010
0000
0000
0000
,
1000
0000
0000
0000
,
0001
0000
0000
0000
,
1000
0000
0000
0000
,
0010
0000
0000
0000
,
0100
0000
0000
0000
,
0001
0000
0000
0000
,
0010
0000
0000
0000
,
0100
0000
0000
0000
,
1000
0000
0000
0000
,
0001
0000
0000
0000
,
1000
0000
1000
0000
,
0100
0000
0100
0000
,
0010
0000
0010
0000
,
0001
0000
0000
0000
,
0001
0000
0001
0000
,
0100
0000
0100
0000
,
0010
0000
0010
0000
,
1000
0000
0000
0000
,
0001
0000
0001
0000
,
0010
0000
0010
0000
,
0100
0000
0100
0000
,
1000
0000
0000
0000
,
1000
0000
1000
0000
,
0010
0000
0010
0000
,
0100
0000
0100
0000
,
0001
0000
0001
0000
,
1000
0000
0000
0000
,
0001
0000
0000
0000
,
1000
0000
1000
0000
,
1000
0000
0000
0000
,
0001
0000
0001
0000
,
0001
0000
0000
0000
,
0100
0000
0100
0000
,
0100
0000
0000
0000
,
0010
0000
0010
0000
,
0010
0000
0010
0000
,
1000
0000
1000
0000
,
1000
0000
0000
0000
,
0100
0000
0100
0000
,
0100
0000
0000
0000
,
0010
0000
0010
0000
,
0010
0000
0000
0000
,
0001
0000
0001
0000
,
0001
0000
0001
0000
,
1001
0000
0000
0000
;

//--------------- dance-single - Team DREAM TEAM ----------------
#NOTEDATA:;
#STEPSTYPE:dance-single;
#DESCRIPTION:Team DREAM TEAM;
#DIFFICULTY:Easy;
#METER:5;
#RADARVALUES:0.196526,0.242533,0.087471,0.135182,0,173,162,11,17,0,0,0,0,0,0.196526,0.242533,0.087471,0.135182,0,173,162,11,17,0,0,0,0,0;
#CHARTNAME:;
#CHARTSTYLE:;
#CREDIT:;
#NOTES:
0000
0000
0000
0000
,
0000
0000
0000
0000
,
0000
0000
0000
0000
,
0000
0000
0000
0000
,
0000
0000
0000
0000
,
0000
0000
0000
0000
,
0000
0000
0000
0000
,
1000
0100
0010
0001
,
1000
0000
1000
0000
,
0001
0100
0010
1000
,
0001
0000
0001
0000
,
1000
1000
0100
0000
,
0010
0010
0001
0000
,
1000
0010
0100
0001
,
1000
0000
1001
0000
,
0001
0001
0010
0000
,
0001
0001
0100
0000
,
0001
0010
0100
1000
,
0001
0000
1001
0000
,
1000
0100
1000
0000
,
0001
0100
0001
0000
,
1000
0010
0100
0001
,
1000
0000
1010
0000
,
0001
0010
0001
0000
,
1000
0010
1000
0000
,
0001
0100
0010
1000
,
0001
0000
1001
0000
,
2000
0000
3100
0000
,
0020
0000
0031
0000
,
0002
0100
0100
0010
,
1000
0000
1003
0000
,
2000
0000
3010
0000
,
0200
0000
0301
0000
,
0002
0010
0100
0100
,
1000
0000
1003
0000
,
1000
0100
0020
0030
,
0001
0100
0020
0030
,
1000
0001
0100
0010
,
0200
0300
0200
0300
,
0001
1000
0020
0030
,
1000
0001
0020
0030
,
0001
1000
0100
0010
,
0002
0003
0001
1000
,
0200
0300
0200
0300
,
0020
0030
0020
0030
,
0001
0100
0010
1000
,
0001
0000
1100
0000
,
0001
0010
0100
1000
,
0001
0000
0011
0000
,
0001
0100
0010
1000
,
0001
0000
1010
0000
,
0001
1000
0100
1000
,
0010
0010
0010
0010
,
0100
0010
1000
0001
,
0100
0000
0101
0000
,
0010
1000
0001
0100
,
0010
0000
1010
0000
,
1000
0100
0010
0001
,
1000
0000
1100
0000
,
0001
0010
0100
1000
,
0001
0001
1000
1000
,
1001
0000
0000
0000
;

//--------------- dance-single - Team DREAM TEAM ----------------
#NOTEDATA:;
#STEPSTYPE:dance-single;
#DESCRIPTION:Team DREAM TEAM;
#DIFFICULTY:Medium;
#METER:9;
#RADARVALUES:0.338524,0.366782,0.190846,0.246509,0,298,274,24,31,0,0,0,0,0,0.338524,0.366782,0.190846,0.246509,0,298,274,24,31,0,0,0,0,0;
#CHARTNAME:;
#CHARTSTYLE:;
#CREDIT:;
#NOTES:
0000
0000
0000
0000
,
0000
0000
0000
0000
,
0000
0000
0000
0000
,
0000
0000
0000
0000
,
0000
0000
0000
0000
,
0000
0000
0000
0000
,
0000
0000
0000
0000
,
1000
0100
0010
0001
,
0100
0000
0000
0220
0000
0000
0330
0000
,
0001
0100
0010
1000
,
0100
0000
0000
0220
0000
0000
0330
0000
,
1000
0100
1000
0000
0010
0000
0100
0000
,
0001
0010
0001
0000
0100
0000
0010
0000
,
1000
0001
0100
0010
0000
0010
0000
0100
,
0000
0100
0001
0000
0110
0000
1001
0000
,
1000
0001
0010
0000
0001
0000
1000
0000
,
0001
1000
0010
0000
1000
0000
0001
0000
,
1000
0100
0010
0001
0000
0100
0000
0010
,
0000
0010
0100
0000
0110
0000
1001
0000
,
1000
0010
0100
0000
0001
0000
1000
0000
,
0001
0010
0100
0000
1000
0000
0001
0000
,
1000
0100
0001
0100
0000
0010
0000
0100
,
0000
0100
1000
0000
0110
0000
1001
0000
,
0001
0100
0010
0000
1000
0000
0001
0000
,
1000
0100
0010
0000
0001
0000
1000
0000
,
0001
0100
1000
0100
0000
0010
0000
1000
,
0000
1000
0001
0000
0110
0000
1001
0000
,
0001
0000
0010
0200
0000
1000
1300
0000
,
1000
0000
0010
0200
0000
0001
0301
0000
,
0001
0010
0100
1000
0000
0001
0000
0110
,
0000
1000
0001
0000
0011
0000
1100
0000
,
0001
0000
0100
0020
0000
1000
1030
0000
,
0100
0000
1000
0020
0000
0100
0130
0000
,
0001
0000
0100
0010
0000
1000
0000
0001
,
0000
0010
0100
0000
1010
0000
0101
0000
,
0001
0000
0010
0200
0000
1000
1300
0000
,
1000
0010
0100
0002
0000
1000
1003
0000
,
0001
1000
0100
0020
0000
0001
0000
0031
,
0000
1000
0010
0000
0110
0000
1001
0000
,
1000
1000
0001
0200
0000
0001
0301
0000
,
1000
0001
0001
2000
0000
0100
3100
0000
,
1000
0010
0100
0001
0000
0001
0001
1000
,
0000
1001
0000
1000
0100
0010
0001
1000
,
0000
0001
0010
0001
0000
0001
0100
0001
,
0000
1000
0010
1000
0000
1000
0100
1000
,
1000
0100
0010
0001
1000
0100
0010
0001
,
0100
0000
0000
2002
0000
0000
3003
0000
,
0001
0010
0100
1000
0001
0010
0100
1000
,
0010
0000
0000
2002
0000
0000
3003
0000
,
1000
0001
0100
0010
1000
0001
0100
0010
,
1000
0000
0000
2002
0000
0000
3003
0000
,
0001
1000
0010
0100
0001
1000
0010
0100
,
0002
0010
0100
0010
,
1003
0100
1000
0100
0001
0100
0001
0100
,
0010
0000
0000
2002
0000
0000
3003
0000
,
0001
0100
0001
0100
1000
0100
1000
0100
,
0010
0000
0000
2002
0000
0000
3003
0000
,
1000
0010
1000
0010
0001
0010
0001
0010
,
0100
0000
0000
2002
0000
0000
3003
0000
,
0001
0010
0001
0010
1000
0010
1000
0010
,
0002
0203
2300
3020
,
0032
0000
0003
0000
;

//--------------- dance-single - Team DREAM TEAM ----------------
#NOTEDATA:;
#STEPSTYPE:dance-single;
#DESCRIPTION:Team DREAM TEAM;
#DIFFICULTY:Hard;
#METER:14;
#RADARVALUES:0.440763,0.46459,0.238557,0.437355,0.258437,388,358,30,55,12,0,0,0,0,0.440763,0.46459,0.238557,0.437355,0.258437,388,358,30,55,12,0,0,0,0;
#CHARTNAME:;
#CHARTSTYLE:;
#CREDIT:;
#NOTES:
0000
0000
0000
0000
,
0000
0000
0000
0000
,
0000
0000
0000
0000
,
0000
0000
0000
0000
,
0000
0000
0000
0000
,
0000
0000
0000
0000
,
0000
0000
0000
0000
0000
0000
0000
2000
,
0000
0000
3100
1000
0001
0010
0001
1000
0100
1000
0001
0010
,
0002
0000
0003
2002
0000
3003
0000
0002
,
0000
0000
0103
0001
1000
0010
1000
0001
0100
0001
1000
0010
,
2000
0000
3000
2002
0000
0000
3003
0000
,
1000
0100
0001
0001
0100
1000
0001
0100
,
1000
0100
0001
0010
0000
0100
1001
1000
,
0001
0010
0100
1000
0010
0100
1000
0100
,
0000
0100
0010
0010
0110
0000
1001
0000
,
1100
0001
0010
0200
0000
1300
0100
0001
,
0100
0010
0001
2000
0000
3002
0000
1003
,
1000
0010
0001
0010
1000
0001
0100
0010
,
1000
0001
1000
1000
0011
0000
1100
0000
,
0001
1000
0010
0001
0010
0100
0001
1000
,
1000
0100
0001
0100
0000
0100
1001
0001
,
1000
0100
0010
0001
0001
0100
0010
1000
,
0000
0001
1000
0100
0110
0000
1001
0000
,
0001
1000
0100
2000
0000
3010
0100
0100
,
0001
0010
0100
2000
0000
3020
0000
0130
,
0100
1000
0100
0001
0010
0100
1000
0001
,
0100
0010
1000
1000
0101
0001
0100
0010
,
2000
0000
0100
3200
0000
0320
0000
0031
,
0001
0100
1000
0100
0000
0020
0000
0000
,
1030
0100
0001
2000
0000
3010
0100
1000
,
0000
0000
0001
0200
0000
0000
0000
0000
0310
0000
1000
0000
0100
0000
0010
0000
,
0001
0100
0001
1000
0000
0020
0000
0000
,
0130
0001
0010
0100
1000
0010
2000
0000
,
3001
1000
0010
2000
0000
3001
0100
0001
,
0000
0000
0001
0020
0000
0000
0000
0000
0130
0000
1000
0000
0001
0000
1000
0000
,
0001
0100
1000
0002
0000
0023
0000
0000
,
1030
0100
0001
2000
0000
3020
0000
0000
,
0031
0100
0010
2000
0000
3001
0001
1000
,
0000
0000
0001
0200
0000
0000
0000
0000
0301
0000
0100
0000
0010
0000
1000
0000
,
1000
0010
0001
2000
0000
3200
0000
0000
,
0301
0010
1000
0002
0000
0203
0000
0000
,
1300
0001
0001
0100
0010
1000
0001
0100
,
1000
0100
0001
0010
0100
1000
0010
2010
,
0000
3001
0010
0012
0000
1003
0100
2100
,
0000
3001
0100
0101
0001
1000
0000
1002
,
0000
0000
0000
1003
0010
1000
0001
0010
0001
1000
0100
0010
,
0002
0000
0000
1003
0000
1001
0000
2010
,
0000
0000
0000
3001
0010
0001
1000
0010
1000
0001
0100
0010
,
2000
0000
0000
3001
0000
1001
0000
2100
,
0000
0000
0000
3001
0010
1000
0001
0100
1000
0001
0010
1000
,
0020
0000
0000
0031
0000
1001
0000
0102
,
0000
0000
0000
1003
0010
0001
1000
0100
0001
1000
0010
0001
,
0010
1000
0001
1000
0200
0000
0310
0021
,
0000
0000
0000
0000
0000
0000
0031
0000
0100
000M
0100
0000
1000
0000
0010
M000
0010
0000
0001
0000
0100
000M
0100
0000
,
2000
0000
0000
3001
0000
1001
0000
1200
,
0000
0000
0000
0000
0000
0000
1300
0000
0100
M000
0100
0000
0001
0000
0010
000M
0010
0000
1000
0000
0100
M000
0100
0000
,
0002
0000
0000
1003
0000
1001
0000
2010
,
0000
0000
0000
0000
0000
0000
3001
0000
0100
000M
0100
0000
1000
0000
0010
M000
0010
0000
0001
0000
0100
000M
0100
0000
,
2000
0000
0000
3001
0000
1001
0000
0102
,
0000
0000
0000
0000
0000
0000
1003
0000
0100
M000
0100
0000
0001
0000
0010
000M
0010
0000
1000
0000
0100
M000
0100
0000
,
0001
1000
0001
1000
0020
0000
0130
0002
,
2000
0000
3003
0000
;
