#VERSION:0.83;
#TITLE:Thank You;
#SUBTITLE:;
#ARTIST:Dido;
#TITLETRANSLIT:;
#SUBTITLETRANSLIT:;
#ARTISTTRANSLIT:;
#GENRE:Trip Hop;
#ORIGIN:;
#CREDIT:;
#BANNER:Thank You-bn.png;
#BACKGROUND:Thank You-bg.png;
#PREVIEWVID:;
#JACKET:Thank You-jacket.png;
#CDIMAGE:;
#DISCIMAGE:;
#LYRICSPATH:;
#CDTITLE:cdtitle.png;
#MUSIC:thank you.ogg;
#OFFSET:-0.022000;
#SAMPLESTART:11.984999;
#SAMPLELENGTH:24.007000;
#SELECTABLE:YES;
#BPMS:0.000=79.978;
#STOPS:;
#DELAYS:;
#WARPS:;
#TIMESIGNATURES:0.000=4=4;
#TICKCOUNTS:0.000=4;
#COMBOS:0.000=1;
#SPEEDS:0.000=1.000=0.000=0;
#SCROLLS:0.000=1.000;
#FAKES:;
#LABELS:0.000=Song Start;
#BGCHANGES:0.000=Thank You.avi=1.000=1=0=0=StretchNoLoop==CrossFade==,
99999=-nosongbg-=1.000=0=0=0 // don't automatically add -songbackground-
;
#KEYSOUNDS:;
#ATTACKS:
;

//---------------dance-single - ----------------
#NOTEDATA:;
#CHARTNAME:;
#STEPSTYPE:dance-single;
#DESCRIPTION:;
#CHARTSTYLE:;
#DIFFICULTY:Easy;
#METER:4;
#RADARVALUES:0.214797,0.211014,0.017086,0.076888,0.000000,176.000000,174.000000,2.000000,9.000000,0.000000,0.000000,0.000000,0.000000,0.000000,0.214797,0.211014,0.017086,0.076888,0.000000,176.000000,174.000000,2.000000,9.000000,0.000000,0.000000,0.000000,0.000000,0.000000;
#CREDIT:iamthek3n;
#NOTES:
// measure 0
0000
0000
0000
0000
,  // measure 1
0000
0000
0000
0000
,  // measure 2
1000
0000
0010
1000
0001
0000
0100
0000
,  // measure 3
0001
0000
0010
0100
1000
0000
0001
0000
,  // measure 4
2000
0001
3100
1000
,  // measure 5
0002
0000
0100
0000
1003
0000
0001
1000
,  // measure 6
0020
0100
1030
0001
,  // measure 7
2000
0000
0100
0000
3001
0000
1000
0100
,  // measure 8
0020
0001
0130
1000
,  // measure 9
0020
0000
0100
0000
1030
0010
1000
0000
,  // measure 10
0002
0010
1003
0100
,  // measure 11
0010
0000
0001
0100
0001
0000
1000
0010
,  // measure 12
1000
0000
0100
0010
0001
0000
1000
0000
,  // measure 13
0001
0000
0100
0001
1000
0000
0010
0000
,  // measure 14
0100
0000
0001
0000
1000
0000
0100
1000
,  // measure 15
0001
0000
0100
0000
0001
0000
0010
0100
,  // measure 16
1000
0000
0001
0000
0100
0000
0001
0010
,  // measure 17
0100
0000
1000
0000
0001
0000
1000
0010
,  // measure 18
0100
0000
0001
0000
1000
0000
0100
1000
,  // measure 19
0001
0000
0100
0000
0001
0000
0010
0100
,  // measure 20
2000
0000
3001
0100
,  // measure 21
0001
0010
0100
1000
,  // measure 22
1001
0000
0001
0000
0100
0010
1000
0000
,  // measure 23
0100
0000
0010
0000
0001
1000
0010
0000
,  // measure 24
1000
0000
0001
0000
0010
0100
1000
0000
,  // measure 25
0001
0000
1000
0000
0010
1000
0100
0000
,  // measure 26
0010
0000
0001
0000
0010
0100
1000
0000
,  // measure 27
0001
0000
0100
0000
0001
0010
0100
0000
,  // measure 28
1000
0000
0001
0000
0100
0000
0010
1000
,  // measure 29
0100
0000
1000
0000
0001
0000
0100
0001
,  // measure 30
1001
0000
1000
0000
0001
0010
0100
0000
,  // measure 31
1000
0000
0010
0000
1000
0001
0100
0000
,  // measure 32
0001
0000
0010
0000
0100
0010
0001
0000
,  // measure 33
0010
0000
0100
0000
1000
0001
0100
0000
,  // measure 34
0010
0000
1000
0000
0001
1000
0100
0000
,  // measure 35
0010
0000
0001
0000
0100
0001
1000
0000
,  // measure 36
0010
0000
0100
0000
0001
0010
0100
0000
,  // measure 37
2000
0010
0001
0010
,  // measure 38
3001
0000
0000
0000
;

//---------------dance-single - ----------------
#NOTEDATA:;
#CHARTNAME:;
#STEPSTYPE:dance-single;
#DESCRIPTION:;
#CHARTSTYLE:;
#DIFFICULTY:Medium;
#METER:8;
#RADARVALUES:0.362470,0.357100,0.042715,0.205034,0.457054,297.000000,292.000000,5.000000,24.000000,0.000000,0.000000,0.000000,0.000000,0.000000,0.362470,0.357100,0.042715,0.205034,0.457054,297.000000,292.000000,5.000000,24.000000,0.000000,0.000000,0.000000,0.000000,0.000000;
#CREDIT:iamthek3n;
#NOTES:
// measure 0
0000
0000
0000
0000
,  // measure 1
0000
0000
0000
0000
,  // measure 2
0001
0000
0000
0100
0010
0000
1000
0000
0001
0010
0100
0000
0001
0000
0100
0000
,  // measure 3
1000
0000
0000
0100
0010
0000
0100
0000
1000
0001
0100
0000
0010
0000
1000
0000
,  // measure 4
1001
0000
0000
0100
0001
0000
0010
0000
0100
0000
1000
0010
0000
0100
0010
1000
,  // measure 5
0001
0000
0000
0100
0000
0100
0000
0010
1000
0000
0100
0000
0001
0000
0100
0010
,  // measure 6
0001
0000
0000
0100
0010
0100
0000
0001
0000
0010
0000
1000
0000
0100
0000
0010
,  // measure 7
0000
2000
0000
0001
3000
0001
0000
0100
0010
0000
1000
0000
0001
0000
0010
0100
,  // measure 8
1000
0000
0000
0010
1000
0001
0000
0100
0000
1000
0000
0100
0000
0010
0100
0001
,  // measure 9
0000
0010
0000
0200
0000
0000
0301
0100
1000
0000
0001
0100
0000
0010
0000
1000
,  // measure 10
0100
0000
0000
1000
0010
0000
1000
0200
0000
0000
0010
0000
0320
0000
1030
0010
,  // measure 11
0001
0100
1000
0100
0001
0010
1000
0010
,  // measure 12
0001
0000
0000
1000
0100
0000
1000
0000
0001
0010
0100
0000
1100
0000
1000
0000
,  // measure 13
0001
0000
0000
0100
0010
0000
1000
0000
0100
0010
0001
0000
0101
0000
0100
0010
,  // measure 14
0100
0000
0000
0001
1000
0001
0000
0010
0000
0010
0100
0000
1000
0000
0010
0000
,  // measure 15
1000
0000
0100
0010
0001
0000
0000
1000
0010
0000
0100
0000
1000
0000
0100
0000
,  // measure 16
0001
0000
0000
0100
0010
0100
0000
0001
0000
0001
1000
0000
0010
0000
0100
0010
,  // measure 17
0100
0000
0001
1000
0000
1000
0000
0010
0100
0000
0001
0000
1000
0000
0010
1000
,  // measure 18
0001
0000
0000
0010
0100
2000
0000
3020
0000
0032
0000
0203
0000
2300
0000
3002
,  // measure 19
0000
0203
0000
0320
0000
0000
1030
0010
1000
0000
0100
0000
0010
0000
1000
0010
,  // measure 20
0001
0000
1000
0000
0010
0000
0100
0001
,  // measure 21
1000
1000
0010
0010
0100
0100
0001
0001
,  // measure 22
1001
0000
0000
0000
0010
0000
0000
0001
0000
0001
1000
0000
0010
1000
0000
0001
,  // measure 23
0100
0000
0000
0002
0000
0000
0000
1003
0000
1000
0100
0000
1000
0000
0001
0000
,  // measure 24
0100
0020
0000
2030
0000
3200
0000
0310
,  // measure 25
0002
0000
0000
0000
1000
0000
0003
0010
0000
0010
1000
0000
0001
0000
0100
0000
,  // measure 26
0001
0000
0000
0000
0010
0000
0000
0100
0000
0100
1000
0000
0010
1000
0000
0001
,  // measure 27
0100
0010
0000
0200
0000
0000
0000
0310
0000
0010
0100
0000
0001
0000
1000
0000
,  // measure 28
0100
0020
0000
2030
0000
3020
0000
0031
,  // measure 29
0200
0000
0000
0000
0310
0000
0100
0000
0000
0001
0000
0000
1000
0000
0100
0000
,  // measure 30
1010
0000
0000
1000
0001
0000
0010
0000
0000
0100
0010
0000
0001
1000
0000
0010
,  // measure 31
0100
0000
0000
0001
1000
0000
0100
0000
1000
0000
0000
0001
0000
0000
0100
0000
,  // measure 32
0001
0000
0000
0010
0100
0000
0000
1000
0010
0000
0000
1000
0000
0000
0001
0000
,  // measure 33
0020
0000
0000
0000
0130
0000
0010
0000
0001
0000
0000
1000
0000
0000
0010
0000
,  // measure 34
1000
0000
0000
0100
0010
0000
0000
0001
0100
0000
0001
0000
1000
0010
0000
0100
,  // measure 35
0001
0000
0000
0010
0001
0000
1000
0000
0100
0000
0000
0010
0000
0000
0001
0000
,  // measure 36
1000
0000
0000
0010
0100
0000
0001
0000
1000
0000
0000
0010
0000
0000
1000
0000
,  // measure 37
0200
0000
0010
0000
1300
0100
0001
0100
,  // measure 38
1000
0000
0000
0000
;

//---------------dance-single - ----------------
#NOTEDATA:;
#CHARTNAME:;
#STEPSTYPE:dance-single;
#DESCRIPTION:;
#CHARTSTYLE:;
#DIFFICULTY:Hard;
#METER:11;
#RADARVALUES:0.435696,0.422027,0.111060,0.358809,0.563842,357.000000,344.000000,13.000000,42.000000,0.000000,0.000000,0.000000,0.000000,0.000000,0.435696,0.422027,0.111060,0.358809,0.563842,357.000000,344.000000,13.000000,42.000000,0.000000,0.000000,0.000000,0.000000,0.000000;
#CREDIT:iamthek3n;
#NOTES:
// measure 0
0000
0000
0000
0000
,  // measure 1
0000
0000
0000
0000
,  // measure 2
1010
0000
1000
0001
1000
0000
0100
0010
0000
0010
0001
0000
1001
0000
0010
0000
,  // measure 3
1000
0000
0001
0010
0100
0000
0010
0001
0000
0001
1000
0000
1010
0000
0001
0000
,  // measure 4
1000
0000
0000
0001
0010
0001
0000
0100
0000
1000
0100
0001
0000
0001
0010
0001
,  // measure 5
1000
0000
0000
1000
0100
1000
0000
0001
0000
0001
0100
0000
1001
0000
0001
0010
,  // measure 6
0100
0000
0000
1000
0100
1000
0000
0010
0000
0100
0001
1000
0000
0100
0010
0001
,  // measure 7
1000
0000
0000
0010
0100
0010
0000
1000
0000
0001
0100
0000
1001
0000
0010
0001
,  // measure 8
1000
0000
0000
0001
0100
0001
0000
0010
0000
0010
0100
0000
1000
0001
0010
0001
,  // measure 9
1000
0000
0000
0100
0010
0001
0000
1000
0000
1000
0100
0000
0110
0000
0010
0001
,  // measure 10
0010
0000
0000
0100
1000
0001
0000
0100
0000
0100
0010
0000
1001
0000
0001
1000
,  // measure 11
0001
0000
0100
0010
1000
0001
0000
0010
0000
0010
0100
1000
0000
1000
0010
1000
,  // measure 12
0001
0000
0010
0100
1000
0000
0001
0100
0000
0100
1000
0000
1100
0000
1000
0100
,  // measure 13
0001
0000
1000
0010
0001
0000
0001
0100
0000
0100
1000
0000
1100
0000
1000
0010
,  // measure 14
1020
0000
0001
0000
1030
0100
0000
1000
0000
0001
0001
0000
1000
0010
0100
0010
,  // measure 15
1000
0000
0001
0100
0001
1000
0000
0010
0000
0100
0001
0000
1000
0100
0010
0001
,  // measure 16
1002
0000
0010
0000
1003
0001
0000
0100
0000
0001
0010
0000
0001
0100
1000
0100
,  // measure 17
0001
0000
0010
0100
0000
1000
0010
1000
0000
0100
0100
0000
1000
0010
1000
0001
,  // measure 18
0200
0000
0010
0000
0301
0000
1000
0100
0000
0100
0010
0000
0001
0000
0100
0001
,  // measure 19
1000
0000
0010
0100
0001
0000
0010
0100
0000
0100
1000
0000
0001
0000
0100
0001
,  // measure 20
2000
0000
0010
0000
3100
0020
0000
0000
0032
0000
0000
0000
0203
0000
1300
0100
,  // measure 21
0001
0000
1000
0020
0100
0000
1030
0010
0100
0000
1000
0000
0100
0000
0001
0000
,  // measure 22
1001
0000
0010
0000
1000
0100
1000
0000
0001
0100
0010
2000
0000
3200
0000
0300
,  // measure 23
2100
0000
0000
3020
0000
0000
0000
0100
0030
0100
0010
0000
1000
0000
0001
0000
,  // measure 24
0100
0000
0001
0000
1000
0000
0100
0000
0010
0000
0001
0000
0010
0000
0100
0010
,  // measure 25
0001
0000
1000
0000
0001
0000
0000
0010
0000
0010
0100
0000
1000
0000
0001
0000
,  // measure 26
1000
0100
1000
0000
0000
0010
1000
0200
0000
0320
0000
0000
1000
0000
0000
0000
,  // measure 27
0031
0100
1000
0100
0010
1000
0001
0010
,  // measure 28
0001
1000
0001
0000
0010
0000
1000
0000
0010
0000
0100
0000
1000
0000
0100
0000
,  // measure 29
0020
0000
0000
0000
0031
0000
0020
0000
0000
0230
0000
0000
2300
0000
3001
0100
,  // measure 30
0001
0000
0010
0000
1000
0010
0002
0000
0000
2003
0000
0000
3100
1000
0000
0010
,  // measure 31
0200
0000
0000
0302
0000
0000
0010
0000
0203
0000
0000
0320
0000
0000
2030
0000
,  // measure 32
3001
0000
0010
0000
0001
0000
1000
0000
0200
0000
0000
2300
0000
0000
3002
0000
,  // measure 33
0013
0000
0001
0100
0001
0000
0010
0000
0200
0000
0000
0320
0000
0000
0032
0000
,  // measure 34
1003
0001
1000
0000
0100
0000
0010
0000
0002
0000
0000
0203
0000
0000
0302
0000
,  // measure 35
1003
0010
0000
2000
0000
0000
0100
0000
3200
0000
0000
0302
0000
0000
0023
0000
,  // measure 36
1030
0010
1000
0000
0001
0000
0010
0000
2000
0000
0000
3020
0000
0000
0032
0000
,  // measure 37
0203
0000
1000
0000
0010
0000
0301
0100
0000
0010
0100
0001
1000
0100
0001
0100
,  // measure 38
1000
0000
0000
0000
;

//---------------dance-single - ----------------
#NOTEDATA:;
#CHARTNAME:;
#STEPSTYPE:dance-single;
#DESCRIPTION:;
#CHARTSTYLE:;
#DIFFICULTY:Beginner;
#METER:1;
#RADARVALUES:0.070785,0.080625,0.000000,0.000000,0.000000,58.000000,58.000000,0.000000,0.000000,0.000000,0.000000,0.000000,0.000000,0.000000,0.070785,0.080625,0.000000,0.000000,0.000000,58.000000,58.000000,0.000000,0.000000,0.000000,0.000000,0.000000,0.000000,0.000000;
#CREDIT:iamthek3n;
#NOTES:
0000
0000
0000
0000
,
0000
0000
0000
0000
,
0001
0000
0000
0000
,
1000
0000
0000
0000
,
0001
0000
0000
0000
,
0100
0000
0000
0000
,
0001
0000
0000
0000
,
1000
0000
0000
0000
,
0100
0000
0000
0000
,
0010
0000
0000
0000
,
0100
0000
0000
0000
,
1000
0000
0000
0000
,
0001
0000
0000
0000
,
0010
0000
0000
0000
,
0001
0000
1000
0000
,
0001
0000
0010
0000
,
0001
0000
1000
0000
,
0100
0000
1000
0000
,
0010
0000
1000
0000
,
0001
0000
0100
0000
,
0001
0000
0000
0000
,
1000
0000
0000
0000
,
0000
0001
0000
0100
,
0000
0001
0000
1000
,
0000
0010
0000
1000
,
0000
0001
0000
0010
,
0000
0001
0000
1000
,
0000
0100
0000
1000
,
0000
0010
0000
1000
,
0000
0100
0000
0010
,
0000
0001
0000
0100
,
0000
0001
0000
1000
,
0000
0001
0000
0010
,
0000
0001
0000
1000
,
0000
0100
0000
0010
,
0000
0001
0000
1000
,
0000
0001
0000
0010
,
0000
0100
0000
1000
;
