#TITLE:Tentaclar Aliens' Epic Extraterretterrestrial Jungle Dance Party;
#SUBTITLE:Inside Of A Super-Ultra-Mega-Gigantic U.F.O. (It Maybe U.U.F.O.) Silently Flying Over Illinois St.;
#ARTIST:Camellia;
#TITLETRANSLIT:;
#SUBTITLETRANSLIT:;
#ARTISTTRANSLIT:;
#GENRE:;
#CREDIT:;
#MUSIC:tentaclar.ogg;
#BANNER:SC2022-bn.png;
#BACKGROUND:SC2022-bg.png;
#CDTITLE:;
#SAMPLESTART:26.575;
#SAMPLELENGTH:24.000;
#SELECTABLE:YES;
#OFFSET:0.425;
#BPMS:0.000=160.000
,87.000=320.000
,88.000=160.000
,103.000=320.000
,104.000=160.000
,167.000=320.000
,168.000=160.000
,183.500=320.000
,184.000=160.000
,216.000=80.000
,224.500=160.000
,225.000=80.000
,228.000=160.000
,228.500=80.000
,230.000=160.000
,230.250=80.000
,247.500=160.000
;
#STOPS:87.000=0.025
,87.125=0.024
,87.250=0.023
,87.375=0.023
,87.500=0.047
,87.750=0.047
,103.000=0.047
,103.250=0.047
,103.500=0.047
,103.750=0.047
,167.000=0.024
,167.125=0.024
,167.250=0.024
,167.375=0.024
,167.500=0.024
,167.625=0.024
,167.750=0.024
,167.875=0.024
,183.500=0.023
,183.625=0.023
,183.750=0.023
,183.875=0.023
,224.500=0.046
,224.625=0.046
,224.750=0.046
,224.875=0.046
,228.000=0.046
,228.125=0.046
,228.250=0.046
,228.375=0.046
,230.000=0.046
,230.125=0.046
,247.500=0.032
,247.583=0.032
,247.667=0.032
,247.750=0.032
,247.833=0.032
,247.917=0.031
;
#DISPLAYBPM:80.000:160.000;
#BGCHANGES:;
#FGCHANGES:;

//--------------- dance-single - Unoriginal ----------------
#NOTES:
     dance-single:
     Unoriginal:
     Medium:
     15:
     0,0,0,0,0:
0000
0000
0000
0000
,
0000
0000
0000
0000
,
0000
0000
0000
0000
,
0000
0000
0000
0000
,
0000
0000
0000
0000
,
0000
0000
0000
0000
,
1000
0000
0010
0000
0000
0010
0000
0000
,
0100
0000
0001
0000
0000
0001
0000
0000
,
1000
0000
0100
0000
0000
0100
0000
0000
,
0010
0000
0001
0000
0000
0001
0000
0000
,
4000
3000
0000
0000
0000
0000
0000
0000
,
0004
0003
0000
0000
0000
0000
0000
0000
0000
0000
0000
0000
0000
0000
0000
0000
,
0400
0300
0000
0000
0000
0000
0000
0000
,
0040
0030
0000
0000
0000
0000
0000
0000
0000
0000
0000
0000
0000
0000
0000
0000
,
2002
0000
0000
0000
,
0000
0000
0000
0000
,
3003
0000
0000
0000
,
0000
0000
0000
0000
0000
1000
0010
0100
,
0001
0000
0001
0000
1000
0000
0100
1000
0000
0000
0001
0000
0010
0001
0000
0000
,
1000
0000
0010
1000
0000
0000
0001
0000
0100
0001
0000
1000
0000
0000
0010
0100
,
0001
0000
0001
0000
1000
0000
0010
1000
0000
0000
0001
0000
0100
0001
0000
0000
,
1000
0000
0100
1000
0000
0000
0001
0000
2002
0000
3003
0000
1000
0001
1000
0001
,
1000
0000
1000
0001
0100
0000
0001
0100
0000
0000
0010
0000
0100
0010
0000
0000
,
0100
0000
0001
0100
0000
0000
0010
0000
0100
0010
0000
1000
0000
0010
0100
0000
,
0001
0000
0000
0001
0000
0000
0010
0000
0000
0010
0000
0000
0100
0000
0000
0100
,
0000
0000
1000
0000
0000
1000
0000
0000
0001
0000
4000
0000
3001
0100
0001
0100
,
0001
0000
0001
0100
0010
0000
1000
0010
0100
0000
0001
0000
0010
0001
1000
0000
,
0100
0000
0010
0100
1000
0000
0010
0000
0100
0010
1000
0001
0000
0000
1000
0010
,
1000
0000
1000
0000
0001
0000
1000
0010
0100
0000
0001
0000
0000
0001
1000
0000
,
0100
0000
0010
0100
1000
0000
0010
0100
0001
0000
1000
0001
1000
0000
0000
0000
,
0000
0000
0000
0000
,
0000
0000
0000
0000
,
0000
0000
0000
0000
,
0000
0000
0000
2000
,
3001
0000
0001
0010
0100
0000
1000
0100
0010
0000
0001
0000
0100
0001
1000
0000
,
0010
0000
0100
0010
1000
0000
0100
0000
0010
0100
1000
0000
0001
0000
0000
0001
,
0000
0000
0100
0000
0000
0100
0000
0000
0010
0000
0000
0010
0000
0000
1000
0000
,
0004
0043
0430
4300
3400
0340
0034
4003
3000
0004
4003
3000
0004
0003
4000
3000
,
0001
0000
0000
0000
1000
0000
0000
0000
0100
0000
0000
0000
0020
0000
0000
0030
0100
0000
0000
0000
1000
0000
0000
0000
0001
0000
0000
0100
0000
0000
0001
0000
0000
0000
0000
0000
0020
0000
0000
0030
0000
0000
0100
0000
0000
0000
0000
0000
,
1000
0000
1000
0000
0020
0030
0100
0001
0000
0100
0010
0000
0200
0300
0001
0000
,
1000
0000
0000
0000
0001
0000
0000
0000
0100
0000
0000
0000
0020
0000
0000
0030
0100
0000
0000
0000
0001
0000
0000
0000
1000
0000
0000
0100
0000
0000
1000
0000
0000
0000
0000
0000
0020
0000
0000
0030
0000
0000
0100
0000
0000
0000
0000
0000
,
0001
0000
0001
0000
0020
0130
1000
0001
0100
0000
0010
0000
0400
0000
0000
0000
,
0301
0010
0100
0000
1000
0100
0010
0001
,
1000
0010
0100
0000
0001
0100
0010
0000
,
1000
0100
0010
1000
0010
0001
0100
1000
,
0200
0000
0000
0000
0000
0000
0000
0304
,
4003
3000
0400
0340
0030
0040
0034
0003
4000
3000
0004
0403
0300
0004
0043
0030
,
0400
0300
4000
3040
0030
0040
0430
0300
0004
0003
0040
0430
0300
0040
0034
0003
,
4000
3000
0004
0043
0030
0040
0430
0300
4000
3000
0040
4030
3000
0040
0430
0300
,
0004
0003
4000
3400
0300
0400
0340
0030
0004
0003
0400
0304
0003
0400
0340
0030
,
4000
3000
0004
0403
0300
0400
0340
0030
0004
0003
0040
0430
0300
0040
4030
3000
,
0400
0300
0040
0034
0003
0004
0043
0030
4000
3000
0040
0034
0003
4000
3400
0300
,
4000
3000
0004
0043
4030
3000
0004
0403
4300
3000
0004
0403
4300
3000
0004
0043
,
4030
3040
0430
0304
4003
3040
0430
0304
4003
3400
0340
0034
4003
3400
0340
0034
,
1003
0000
0000
0000
,
0010
0000
0000
0000
0M00
0000
0000
0000
000M
0M00
00M0
0M00
0000
000M
M000
0000
00M0
0000
0000
0000
0M00
0000
0000
0M00
0000
0000
000M
0000
0000
0000
M000
0000
,
0100
0000
0000
0000
M000
00M0
0M00
000M
M000
0000
00M0
0000
M000
000M
0M00
0000
0M00
0000
0000
0000
00M0
0000
M000
000M
00M0
0M00
00M0
0000
000M
M000
0M00
M000
,
0001
0000
0000
0000
M000
0000
0000
000M
0M00
0000
00M0
0000
0M00
0000
000M
M000
0M00
00M0
0000
0000
000M
0000
0000
0000
M000
0000
0M00
00M0
000M
0000
0000
0000
,
2000
0000
0000
0000
0100
0000
0000
0100
0000
0000
0010
0000
0000
0010
0000
0000
0001
0000
0000
0001
0000
0000
0010
0000
3020
0000
2030
0000
3002
0000
0203
0000
,
0010
0000
0000
0000
0001
0000
0000
0001
0000
0000
0010
0000
0000
0010
0000
0000
1000
0000
0000
1000
0000
0000
0010
0000
0310
0000
1000
0000
0001
0000
0100
0000
,
0020
0000
0000
0000
1000
0000
0000
1000
0000
0000
0100
0000
0000
0100
0000
0000
0001
0000
0000
0001
0000
0000
0100
0000
0230
0000
0302
0000
0023
0000
0032
0000
,
1000
0000
0000
0000
0100
0000
0000
0100
0000
0000
0010
0000
0000
0010
0000
0000
1000
0000
0000
1000
0000
0000
0100
0000
0103
0000
0010
0000
4000
0000
0000
0000
,
3004
0003
0000
0000
0000
0000
0000
0000
,
4000
3000
0000
0000
0000
0000
0000
0000
0000
0000
0000
0000
0000
0000
0000
0000
,
0400
0300
0000
0000
0000
0000
0000
0000
,
0040
0030
0000
0000
0000
0000
0000
0000
0000
0000
0000
0000
0000
0000
0000
0000
,
2002
0000
0000
0000
,
0000
0000
0000
0000
,
3003
0000
0000
0000
,
0000
0000
0000
0000
0000
0001
0010
0100
,
1000
0010
1000
0001
1000
0100
0010
0100
,
1000
0000
0100
0000
0100
0000
1000
0000
0010
0000
1000
0100
0000
1000
0100
0000
,
1000
0000
0100
0010
0001
0000
0010
0001
1000
0000
0001
1000
0100
0000
1000
0100
,
0010
0000
0100
0010
0001
0000
0010
0001
1000
0000
0010
0000
0100
0000
0000
0000
,
0001
0010
0001
1000
0001
0100
0010
0100
,
0001
0000
0100
0000
0100
0000
0001
0000
0010
0000
0001
0100
0000
0001
0100
0000
,
0001
0000
0100
0010
1000
0000
0010
1000
0001
0000
1000
0100
0000
0000
0010
0001
,
0010
0001
0001
0000
0200
0000
0320
0000
,
4030
0000
3000
0000
0004
0003
4000
0000
3000
0000
0004
0000
0043
0000
0030
0000
0400
0000
4300
0000
3004
0000
0043
0000
0030
0000
0400
0000
4300
0000
3000
0000
,
0004
0003
4000
3040
0430
0304
0003
4000
3004
0003
0000
0001
0000
0000
0001
0000
,
4000
3400
0340
0430
0300
4000
3004
0003
0000
0400
0340
4030
3004
0003
0000
0000
,
4000
3400
0340
0034
0003
4000
3004
0003
0100
0000
0000
0100
0000
0000
0100
0000
,
0001
0000
0000
0100
0000
0000
0001
0000
1000
0000
0000
0100
0000
0000
1000
0000
,
0001
0000
0000
0010
0000
0000
0001
0000
1000
0000
0000
0010
0000
0000
1000
0000
,
1010
0000
0000
0010
0000
0000
0011
0000
0000
0010
0000
0000
0101
0000
0000
0100
,
0000
0000
1100
0000
0000
0100
0000
0000
1001
0000
0000
0000
0000
0000
0000
0000
,
2000
0100
3200
0010
0320
0001
0032
1000
,
2003
0001
3002
1000
2003
0000
0000
0000
,
3002
0100
0203
0010
0320
1000
2030
0001
,
3002
1000
2003
0001
3002
0000
0000
0000
,
0013
0010
0200
1000
1300
0002
0100
0103
,
0020
1000
1030
0002
2003
0000
0000
0000
,
3001
0000
1001
0000
1000
0000
1001
0000
0001
0000
1001
0000
,
1000
0000
1001
0000
0001
0000
1002
0000
0000
0000
0000
0000
,
1003
0000
0000
0000
,
0000
0000
0000
0000
,
0000
0000
0000
0000
,
0000
0000
0000
0000
,
2000
3000
0000
0000
0000
0000
0000
0000
0000
0000
0000
0000
0000
0000
0000
0000
;

//--------------- dance-single - Unoriginal ----------------
#NOTES:
     dance-single:
     Unoriginal:
     Challenge:
     18:
     0,0,0,0,0:
0000
0000
0000
0000
,
0000
0000
0000
0000
,
1000
0000
1000
0000
1000
0100
0000
0100
,
0000
0000
1000
0000
1000
0000
0000
0000
0010
0000
0000
0010
0000
0000
0010
0000
,
1000
0000
1000
0000
1000
0001
0000
0001
,
0000
0000
0010
0000
0010
0000
0000
0000
0100
0000
0000
0100
0000
0000
0100
0000
,
1000
0000
1000
0000
1000
0010
0000
0010
,
0000
0000
1000
0000
1000
0000
0000
0000
0100
0000
0000
0100
0000
0000
0100
0000
,
1000
0000
1000
0000
1000
0001
0000
0001
,
0000
0100
0100
0000
0000
0001
0000
0000
,
1001
0000
0000
0000
2000
3000
0001
0100
0001
0100
0020
0030
0100
0001
0100
0010
,
1000
0000
0000
0000
0002
0003
1000
0100
1000
0100
0020
0030
0100
1000
0100
0010
,
0001
0000
0000
0000
2000
3000
0100
0010
0100
0010
0002
0003
0100
0010
0100
0010
,
1000
0000
0000
0000
0002
0003
0100
0010
0100
0010
2000
3000
0100
0010
0100
0010
,
0004
0000
0000
0000
,
0000
0000
0000
0000
,
0003
0000
0000
0000
,
0000
0000
0000
0000
0000
0000
0000
0000
0000
0000
0022
0033
0220
0330
2200
3300
,
1000
0000
1000
0000
0002
0003
0010
0100
0002
0003
0100
0010
0000
0010
0002
0003
,
1000
0000
0010
0000
0200
0000
0301
0000
1000
0000
0000
0000
1000
0000
0100
0000
0020
0000
0030
0000
0001
0000
0020
0000
0030
0000
0100
0000
0020
0030
0200
0300
,
1000
0000
1000
0000
0020
0030
0100
0001
0020
0030
0100
0001
0100
0010
0004
4003
,
3002
0003
0010
0100
2000
3000
0010
0100
0002
0000
0003
0000
4000
3400
0320
0032
,
1003
0000
1000
0000
0002
0003
0100
0010
0002
0003
0010
0100
0000
0100
0002
0003
,
1000
0100
0020
0031
1000
0000
1000
0010
0200
0300
0001
0200
0300
0010
4000
3004
,
1003
0000
1000
0100
00M0
0100
0001
0000
0001
0010
0M00
0010
1000
0000
1000
0100
,
00M0
0100
0001
0000
0001
0010
0M00
0010
2000
0000
0004
3000
1003
0010
0100
0001
,
1000
0000
1000
0000
0200
0310
0000
0100
0002
0003
0100
1000
0001
0100
0020
0030
,
1000
0100
0020
0031
0100
0000
0001
0100
2000
3000
0100
0020
0030
1000
0200
0320
,
0031
0000
0001
0000
0020
0030
0100
1000
0020
0030
0100
1000
0100
0010
4000
3004
,
2003
3000
0010
0100
0002
0003
0010
0100
2000
0000
3001
1000
0001
0000
0000
0000
,
0000
0000
0000
0000
,
0000
0000
0000
0000
,
0000
0000
0000
0000
,
0000
0000
0000
0000
0000
0000
0000
0000
0000
0000
0000
0000
0000
0000
0000
0000
0000
0000
0000
0000
0000
0000
0000
0000
0000
0000
0000
0000
0000
0000
0000
0000
0000
0000
0000
0000
0000
0000
0000
0000
0000
0000
0000
0000
0000
0000
0000
0000
0000
0000
0000
0000
0000
0000
0000
0000
0000
0000
0000
0000
0000
0000
0000
0000
0000
0000
0000
0000
0000
0000
0000
0000
0000
0000
0000
0000
0000
0000
0000
0000
0000
0000
0000
0000
0000
0000
0000
0000
0000
0000
0000
0000
0000
0000
0000
0000
0000
0000
0000
0000
0000
0000
0000
0000
0000
0000
0000
0000
0000
0000
0000
0000
0000
0000
0000
0000
0000
0000
0000
0000
0000
0000
0000
0000
0000
0000
0000
0000
0000
0000
0000
0000
0000
0000
0000
0000
0000
0000
0000
0000
0000
0000
0000
0000
0002
0000
0000
0000
0000
0000
0000
0000
0000
0000
0000
0000
0000
0000
0000
0000
0000
0000
0000
0000
0000
0000
0000
0000
0000
0000
0000
0000
0000
0000
0000
0000
0000
0000
0000
0000
0000
0000
0000
0000
0000
0003
0000
0000
0000
0000
0000
0000
,
2000
3000
1000
0100
0002
0003
0100
1000
0010
0000
0002
0003
1000
0100
0002
0003
,
2000
3000
0001
0010
0200
0300
1000
0000
0001
0100
0020
0030
1000
0100
0020
0130
,
1000
0000
0002
0003
0010
0100
0002
0003
0100
0000
0020
0031
0100
0000
0020
0030
,
2000
3002
2003
3200
0320
0032
2003
3200
0320
0030
2002
0000
0000
0000
3003
0000
,
0001
0000
0000
0000
0100
0000
00M0
0000
0100
0000
0000
0000
1000
0000
0000
0000
0100
0000
00M0
0000
0100
0000
0000
0000
0002
0000
0000
0103
0000
0000
0010
0000
0000
0000
0000
0000
0220
0000
0000
0330
0000
0000
0220
0000
0000
0330
0000
0000
,
0100
0000
0100
0000
0202
0303
0001
1000
0000
1000
0100
0000
2200
3300
2200
3300
,
1000
0000
0000
0000
0100
0000
00M0
0000
0100
0000
0000
0000
0001
0000
0000
0000
0100
0000
00M0
0000
0100
0000
0000
0000
2000
0000
0000
3100
0000
0000
0010
0000
0000
0000
0000
0000
0220
0000
0000
0330
0000
0000
0220
0000
0000
0330
0000
0000
,
0100
0000
0100
0000
2000
3100
0010
0100
1000
0001
0100
0000
0040
0000
0000
0000
,
2030
3000
0001
1000
0100
0000
1100
0000
1000
0000
0100
0000
0010
0000
0001
0000
,
2000
3000
0001
1000
0010
0000
1010
0000
1000
0000
0001
0000
0020
0000
0030
0000
,
0002
0003
0010
0100
1000
0000
0002
0000
2003
3000
0100
0010
0001
0000
2000
0000
,
3004
0000
0000
0000
0000
0000
0000
0000
0013
0000
0100
1000
0000
0000
0004
0000
,
2003
0000
3000
0000
0004
0043
0430
4300
3001
0000
0001
0020
0030
0001
1000
0020
,
1030
0000
0001
0000
0020
0000
0230
0000
1300
0000
0000
0000
1000
0000
0001
0000
0200
0000
0301
0000
1000
0000
0020
0000
1030
0001
1000
0000
0200
0000
0320
0000
,
0032
0000
0000
0000
0003
0000
0000
0000
4000
0000
3040
0000
0430
0000
0304
0000
1003
0000
0001
0000
0020
0230
2300
3000
0000
0000
0020
0030
1000
0000
0200
0300
,
0020
0032
2003
3000
0000
0000
0020
0030
1000
0000
0001
0000
0200
0320
2030
3000
0000
0000
0020
0030
2000
3000
0002
0003
2000
3200
2300
3000
0002
0023
0032
0003
,
2000
0000
3000
0000
0004
0403
0340
4030
3001
0000
0001
0200
0300
0001
1000
0200
,
1300
0000
0001
0000
0200
0000
0320
0000
1030
0000
0000
0000
1000
0000
0001
0000
0020
0000
0031
0000
1000
0000
0200
0000
1300
0001
1000
0000
0020
0000
0230
0000
,
0302
0000
0000
0000
0003
0000
0000
0000
4000
0000
3400
0000
0340
0000
0034
0000
1003
0000
0001
0000
0200
0320
2030
3000
0000
0000
0200
0300
1000
0000
0020
0030
,
0200
0302
2003
3000
0000
0000
0200
0300
1000
0000
0001
0000
0020
0230
2300
3000
0000
0000
0200
0300
2000
3000
0002
0003
2000
3020
2030
3000
0002
0203
0302
0003
,
1000
0000
0000
0000
,
0100
0000
0000
0000
0000
0000
0000
0000
0020
0000
0030
0000
0000
0000
0000
1000
0001
0000
0010
0000
0200
0000
0320
0000
0030
0000
0002
0000
1003
0000
0000
0000
0100
0000
0000
0000
0000
0000
0000
0000
0020
0000
0030
0000
0000
0000
0020
0000
0030
0000
0000
0000
0001
0000
0000
0000
0000
0000
0000
0000
2000
0000
0000
0000
,
3010
0000
0000
0000
2000
3020
0230
0302
1003
0000
0020
0030
1000
0001
0100
0000
0100
0000
0000
0000
0020
0030
1000
0001
0040
0430
0310
0000
0001
1000
0100
1000
,
0001
1000
0010
0100
0002
0000
0000
2003
3100
0000
0010
0000
0100
0000
1000
0001
0100
0010
0000
0000
4000
0000
0000
0000
3001
0000
0200
0320
2030
3000
0000
0000
,
0002
0000
0000
0000
0103
0000
0001
0100
0000
0000
0001
0000
0010
0001
0000
0000
1000
0000
0001
1000
0000
0000
0010
0000
0020
0000
2030
0000
3002
0000
0203
0000
,
0010
0000
0000
0000
0301
0000
0100
0001
0000
0000
0010
0000
0001
0010
0000
0000
0001
0000
1000
0001
0000
0000
0010
0000
0010
0000
0001
0000
1000
0000
0100
0000
,
0020
0000
0000
0000
0031
0000
0010
0001
0000
0000
0100
0000
0001
0100
0000
0000
0001
0000
1000
0001
0000
0000
0100
0000
0200
0000
0302
0000
0023
0000
0032
0000
,
1003
0000
0000
0000
0000
0000
0000
0000
0000
0000
0000
0000
0001
0000
0000
0000
0000
0000
0100
0000
0000
0001
0000
0000
0000
0000
0000
0000
0000
0000
0010
0000
0000
0000
0000
0000
0001
0000
0000
0010
0000
0000
0000
0000
0000
0000
0000
0000
0001
0000
0000
0000
0000
0000
1000
0000
0000
0001
0000
0000
0000
0000
0000
0000
0000
0000
0100
0000
0000
0000
0000
0000
0100
0000
0000
0000
0000
0000
0010
0000
0000
0000
0000
0000
1000
0000
0001
0000
1000
0000
0001
0000
1000
0000
0001
0000
,
1000
0000
0000
0000
1000
0000
0000
0000
1100
0000
0000
0100
0010
0000
0110
0000
,
0110
0000
0100
0000
1000
0000
0010
0000
1010
0000
0000
1010
0000
0000
1010
0000
,
1000
0000
0000
0000
1000
0000
0000
0000
1001
0000
0001
0010
0000
0000
0011
0000
,
0011
0000
0001
0000
0100
0000
0010
0000
0110
0000
0000
0110
0000
0000
0110
0000
,
4004
0000
0000
0000
,
0000
0000
0000
0000
,
3003
0000
0000
0000
,
0000
0000
0000
0000
0000
0000
0000
0000
0000
0000
0202
0303
0220
0330
2020
3030
,
1000
0000
0100
0010
0002
0003
0010
0100
1000
0001
0100
0010
0100
0000
0001
1000
,
0040
0000
4030
3004
4003
3400
0340
0000
4030
3040
0034
0403
0340
0000
0000
0000
,
1030
0000
0001
0100
0010
0000
1000
0100
0001
0000
1000
0010
0100
0000
0001
0100
,
1000
0000
0100
0010
1000
0000
0010
0001
1000
0000
0010
1000
0100
0000
1000
0000
,
0001
0000
0100
0010
2000
3000
0010
0100
0001
1000
0100
0010
0100
0000
1000
0001
,
0040
0000
0034
4003
3004
0403
0340
0000
0034
0043
4030
3400
0340
0000
0000
0000
,
0031
0000
1000
0100
0010
0000
0001
0100
1000
0000
0001
0010
0100
0000
0110
0000
,
0010
0000
0100
0001
0010
0000
0001
0000
2000
0000
0000
0000
3002
0000
0000
0000
,
4003
0000
3000
0000
0004
0003
0004
0000
0013
0000
0400
0300
0400
0000
0300
0000
4000
0000
3004
0000
0043
0000
0034
0000
0103
0000
0040
0030
0040
0000
0030
0000
,
4000
3000
0004
0403
0340
4030
3100
0040
0430
0300
0000
0110
0000
0000
1001
0000
,
4000
0000
3004
0000
0403
0000
0304
0000
1003
0000
0040
0030
0040
0000
0030
0000
0100
0000
0004
0000
0043
0000
0430
0000
4300
0000
3000
0000
0001
0000
0010
0000
,
4000
0000
3040
0000
0430
0000
0340
0000
0031
0000
4000
3000
4000
0000
3000
0000
0100
0000
0000
0000
0000
0000
0100
0000
0000
0000
0000
0000
0100
0000
0000
0000
,
1100
0000
0000
0101
0000
0000
0011
0000
1010
0000
0000
1100
0000
0000
0101
0000
,
0011
0000
0000
1010
0000
0000
1100
0000
0101
0000
0000
0011
0000
0000
1010
0000
,
1100
0000
0000
1100
0000
0000
1010
0000
0000
1010
0000
0000
0011
0000
0000
0011
,
0000
0000
0101
0000
0000
0101
0000
0000
1001
0000
0000
1001
00M0
0M00
00M0
0M00
,
1000
0000
0001
0100
0010
0000
1000
0000
0100
0010
0001
0000
1000
0000
0100
0010
,
1000
0000
0010
0000
0001
0100
0010
0000
1000
0000
0100
01M0
0000
0001
0100
01M0
,
1000
0000
0001
0010
0100
0000
1000
0000
0010
0100
0001
0000
1000
0000
0010
0100
,
1000
0000
0100
0000
0001
0010
0100
0000
1000
0000
0100
01M0
0000
0001
0010
0M10
,
1000
0000
1000
0001
1000
0000
0100
0000
0100
0010
0100
0000
0010
0000
0010
0001
,
0010
0000
0001
0000
0001
1000
0001
0000
1000
0000
0010
0M10
0000
0001
0010
0M10
,
1000
0000
1100
0000
0001
0000
0101
0000
1000
0000
1010
0000
,
0001
0000
0011
0000
0110
0000
1002
0000
0000
0000
0000
0000
,
1003
0000
0000
0000
,
0000
0000
0000
0000
,
0000
0000
0000
0000
,
0000
0000
0000
0000
,
2000
3000
0000
0000
0000
0000
0000
0000
0000
0000
0000
0000
0000
0000
0000
0000
;
