#TITLE:Tech Alert;
#SUBTITLE:;
#ARTIST:lapix;
#TITLETRANSLIT:;
#SUBTITLETRANSLIT:;
#ARTISTTRANSLIT:;
#GENRE:;
#CREDIT:;
#BANNER:Tech Alert.png;
#BACKGROUND:Tech Alert-bg.png;
#LYRICSPATH:;
#CDTITLE:;
#MUSIC:Tech Alert.ogg;
#OFFSET:-0.040000;
#SAMPLESTART:32.915024;
#SAMPLELENGTH:15.000000;
#SELECTABLE:YES;
#BPMS:0.000000=175.000000
;
#STOPS:
;
#BGCHANGES:;
#KEYSOUNDS:;
#ATTACKS:;

//---------------dance-single - ----------------
#NOTES:
     dance-single:
     :
     Hard:
     14:
     0.705356,0.661497,0.102864,0.363982,0.340244,624.000000,611.000000,13.000000,46.000000,0.000000,0.000000,0.705356,0.661497,0.102864,0.363982,0.340244,624.000000,611.000000,13.000000,46.000000,0.000000,0.000000:
0000
0000
0000
0000
,
0000
0000
0000
0000
,
0000
0000
0000
0000
,
0000
0000
0000
0000
,
1000
0000
0000
1000
0000
0000
0100
0000
0000
0100
0000
0000
1000
0000
0001
1000
,
0001
0000
0000
0001
0000
0000
0100
0000
0000
0010
0000
0000
0010
0000
1000
0001
,
1000
0000
0000
1000
0000
0000
0100
0000
0000
0100
0000
0000
1000
0000
0001
1000
,
0001
0000
0000
0001
0000
0000
0100
0000
0000
0010
0000
0000
0010
0000
0100
0000
,
0001
0000
1000
0010
0000
0000
1000
0000
1000
0000
0001
0010
0000
0000
0001
0000
,
0001
0000
1000
0100
0000
0000
1000
0000
1000
0000
0001
0100
0000
0000
0001
0000
,
0001
0000
0100
0010
0000
0000
1000
0000
1000
0000
0010
0100
0000
0000
0001
0000
,
0001
0000
0010
0100
0000
0000
1000
0000
1000
0000
0100
0010
0000
0000
0001
0000
,
1000
0000
0001
0000
1000
0000
0001
0000
0100
0000
0000
0100
0000
0000
0010
0000
,
0100
0001
1000
0010
1000
0001
0100
0000
,
0001
0000
1000
0000
0001
0000
1000
0000
0100
0000
0000
0100
0000
0000
0010
0000
,
0001
0001
0010
0100
1000
0001
1000
0000
,
0010
0010
0100
0001
0010
0010
0100
1000
,
0100
0100
1000
0010
0100
0100
0001
0010
,
0100
1000
0100
0010
0100
0001
0200
0000
,
0310
0001
1000
0001
0100
0010
0110
0000
,
0010
0000
0000
0010
1000
0000
0000
0000
0001
0000
0000
0001
0100
0000
0000
0000
,
0001
0000
0000
0001
0010
0000
0000
0000
0100
0000
0000
0100
1000
0000
0000
0000
,
1100
1010
0011
0201
,
0020
0000
0000
0000
0330
0000
0000
0000
1000
0000
0001
0100
0001
0100
0001
0000
,
1000
0000
0200
0000
0300
0000
1000
0100
0010
0000
0200
0000
0300
0000
0010
0100
,
0010
0002
0003
0001
0100
0001
0010
0001
,
1000
0000
0020
0000
0030
0000
1000
0010
0100
0000
0020
0000
0030
0000
0100
0010
,
0100
0002
0003
0001
0100
1000
0100
0001
,
0001
0000
0020
0000
0030
0000
0001
0010
0100
0000
0020
0000
0030
0000
0100
0010
,
0100
2000
3000
1000
0100
1000
0010
1000
,
0001
0100
0010
0100
0001
1000
0001
0010
,
0100
0010
0001
1000
0010
0100
0100
0100
,
0001
0000
0100
0010
0100
0000
0010
0000
1000
0000
0010
0100
0010
0000
0100
0000
,
0001
0010
0000
0010
0001
1000
0000
0010
,
1000
0000
0100
0010
0100
0000
0010
0000
0001
0000
0100
0010
0100
0000
0010
0000
,
1000
0100
0000
0100
1000
0001
0000
0100
,
0001
0000
1000
0000
0010
0000
0100
0010
0100
0000
0010
0000
1000
0000
0001
1000
,
0001
0010
0000
0010
0001
1000
0000
0010
,
0010
1000
0001
1000
0100
0010
0001
2000
,
3001
0000
0000
0000
1001
0000
0000
0000
0001
0000
0100
0001
0000
0000
0001
0000
,
2000
0000
0000
3200
0000
0000
0320
0000
0000
0032
0000
0000
0203
0000
0000
0000
,
0302
0000
0000
2003
0000
0000
3020
0000
0000
0100
0000
0000
0230
0000
0000
0000
,
0302
0000
0000
2003
0000
0000
3020
0000
0000
0230
0000
0000
0302
0000
0000
0000
,
2003
0000
0000
3002
0000
0000
0023
0000
0000
0100
0000
0000
0230
0000
0000
0000
,
1300
0000
0000
1000
0000
0000
0100
0000
0000
0100
0000
0000
1000
0000
0001
1000
,
0001
0000
0000
0001
0000
0000
0100
0000
0000
0010
0000
0000
0010
0000
1000
0001
,
1000
0000
0000
1000
0000
0000
0100
0000
0000
0100
0000
0000
1000
0000
0001
1000
,
0001
0000
0000
0001
0000
0000
0100
0000
0000
0010
0000
0000
0110
0000
0000
0000
,
1000
0001
0010
1000
0010
0100
1000
0001
,
0100
0000
0010
0000
1000
0000
0001
1000
0000
0000
1000
0000
0010
0000
0100
0000
,
0001
1000
0010
0001
0010
0100
0001
1000
,
0100
0000
0010
0000
0001
0000
1000
0001
0000
0000
0001
0000
0100
0000
0010
0000
,
1000
1000
0100
0010
0001
0001
1000
0010
,
0100
0100
0001
1000
0010
0010
1000
0001
,
0010
0100
0010
0100
1000
0001
0200
0000
,
0301
0000
1000
0001
0000
0001
1000
0000
0100
0000
0010
0000
0100
0000
1000
0000
,
2002
0000
0000
0000
,
0000
0000
0000
3003
,
0001
0100
0001
0100
0001
1000
0001
1000
,
0100
1000
0100
1000
0100
0010
0200
0000
,
1300
0100
0010
0001
0100
0010
1000
0100
,
0010
0001
1000
0010
0100
0001
0010
0100
,
1000
0001
1000
0001
0100
0010
0100
0001
,
2002
0000
0000
0000
3003
0000
0000
0000
0001
0000
1000
0100
1000
0100
1000
0000
,
0001
1000
0010
1000
0001
0100
0001
1000
,
0010
0000
1000
0000
0001
0000
1000
0100
0000
0000
0010
0000
0100
0010
0100
0000
,
1000
0001
0010
0001
1000
0100
1000
0001
,
0010
0000
0001
0000
1000
0000
0001
0100
0000
0100
0001
0000
1000
0100
1000
0000
,
0001
0100
0010
0100
0001
0010
0001
0100
,
0010
0000
0100
0000
0001
0000
1000
0100
0000
0000
0010
0000
0100
0010
0100
0000
,
1000
0010
0100
0010
1000
0100
1000
0010
,
0100
0000
0010
0000
0100
0000
0010
0000
1000
0000
0001
0100
0001
0100
0001
0000
,
1000
0100
0001
0001
0100
1000
0001
0010
,
0100
0000
0010
0000
0001
0000
1000
0100
0000
0000
1000
0000
0010
0000
0100
0000
,
0001
0100
1000
1000
0100
0001
1000
0010
,
0100
0000
0010
0000
1000
0000
0001
1000
0001
0000
1000
0000
0001
0010
0001
0000
,
1000
0100
0001
1000
0010
0001
1000
0100
,
0001
0000
1000
0000
0010
0000
0001
0010
0000
0000
0001
0000
0100
0000
0010
0000
,
1000
0010
0001
1000
0100
0001
2000
0000
,
3200
0000
0000
0000
0300
0000
0000
0000
0010
0000
0001
1000
0001
1000
0001
0000
,
0001
0000
0200
0000
0300
0000
0001
0100
0010
0000
0200
0000
0300
0000
0010
0100
,
0010
0000
2000
0000
3000
0000
1000
0000
0001
0000
0100
0000
0001
0000
0010
0001
,
1000
0000
0200
0000
0300
0000
1000
0100
0010
0000
0200
0000
0300
0000
0010
0100
,
0010
0002
0003
0001
0010
0100
0010
0001
,
0101
0010
1100
0010
,
0101
0001
1000
0010
1000
0100
0010
0001
,
1000
0100
0001
0100
1000
1000
2000
0000
,
3001
0000
0000
0100
0000
0000
0100
0000
0010
0000
1000
0000
0100
0000
0000
0000
,
1001
0000
0000
0000
;

//---------------dance-single - ----------------
#NOTES:
     dance-single:
     :
     Challenge:
     16:
     0.888477,1.009653,0.181991,0.371894,0.747745,786.000000,763.000000,23.000000,47.000000,0.000000,0.000000,0.888477,1.009653,0.181991,0.371894,0.747745,786.000000,763.000000,23.000000,47.000000,0.000000,0.000000:
// measure 0
0000
0000
0000
0000
,  // measure 1
0000
0000
0000
0000
,  // measure 2
0000
0000
0000
0000
,  // measure 3
0000
0000
0000
0000
,  // measure 4
1000
0000
0000
0100
0000
0000
0010
0000
0000
0100
0000
0000
0001
0000
0100
0010
,  // measure 5
0001
0000
0000
0010
0000
0000
0100
0000
0000
0010
0000
0000
1000
0000
0010
0100
,  // measure 6
1000
0000
0000
0010
0000
0000
0100
0000
0000
0010
0000
0000
0001
0000
0010
0100
,  // measure 7
0001
0000
0000
0100
0000
0100
0010
0000
0000
0100
0000
0000
1000
0000
0100
0010
,  // measure 8
1000
0000
0010
1000
0000
0001
0000
1000
0000
0100
1000
0000
1000
0000
0100
0010
,  // measure 9
0001
0000
0010
0001
0000
1000
0000
0001
0000
0100
0001
0000
0001
0000
0100
0010
,  // measure 10
1000
0000
0001
0010
0000
0100
0000
0010
0000
0001
1000
0000
1000
0000
0010
0100
,  // measure 11
0001
0000
1000
0010
0000
0100
0000
0010
0000
1000
0001
0000
0001
0000
1000
0001
,  // measure 12
1000
0000
0100
0000
1000
0000
0001
0000
0010
0000
0010
0001
0000
1000
0001
0000
,  // measure 13
1000
0000
0100
0000
0010
0000
0100
1000
0000
0010
0000
0100
0010
0000
1000
0000
,  // measure 14
0001
0000
0100
0000
0001
0000
1000
0000
0010
0000
0010
1000
0000
0001
1000
0000
,  // measure 15
0001
0000
0100
0000
0010
0000
1000
0010
1000
0000
0001
0000
0100
0000
0010
0000
,  // measure 16
1010
0010
0100
0001
0011
0010
0100
1000
,  // measure 17
1100
0100
0010
0001
0101
0100
0010
1000
,  // measure 18
1001
0001
1001
1000
0010
0010
0010
0200
,  // measure 19
0310
1000
0001
0100
0001
0010
0100
1000
,  // measure 20
0010
0000
0000
0010
1000
0000
0000
1000
0100
0000
0000
0100
1000
0000
0000
0100
,  // measure 21
0010
0000
0000
0010
0001
0000
0000
0001
0100
0000
0000
0100
0001
0000
0000
0100
,  // measure 22
0010
1000
0100
1000
0001
0100
0001
0010
,  // measure 23
0200
0000
0000
0000
0300
0000
0000
0000
1000
0000
0001
0100
0001
0100
0001
0100
,  // measure 24
0001
0000
2000
0000
3010
0100
0010
0100
0010
0000
2000
0000
3000
0000
0100
0010
,  // measure 25
0100
0000
2000
0000
3001
0010
0001
0010
0100
0000
0010
0000
0001
0000
0100
0000
,  // measure 26
0100
0000
0002
0000
1003
0100
1000
0100
1000
0000
0002
0000
0003
0000
0010
0100
,  // measure 27
0010
0000
0002
0000
1003
0010
1000
0010
0100
0010
0100
0000
0002
0000
1003
0000
,  // measure 28
1000
0000
0020
0000
0130
0001
0100
0001
0100
0000
0020
0000
0030
0000
1000
0001
,  // measure 29
1000
0000
0200
0000
0310
0001
0010
0001
0010
0100
0010
0000
0001
0000
1000
0000
,  // measure 30
0001
0000
0010
0000
1000
0000
0010
0000
0001
0000
0010
0000
0100
0000
1000
0001
,  // measure 31
1000
0000
0001
0100
0000
0100
0010
0000
1000
0000
0001
0010
0001
0010
0001
0010
,  // measure 32
0001
0000
0010
0100
1000
0000
0100
0010
0001
0000
0010
0100
1000
0000
0100
0010
,  // measure 33
0001
0000
1000
0000
0010
0000
1000
0000
0001
0010
0001
0000
0010
0000
0001
0000
,  // measure 34
1000
0000
0010
0100
0001
0000
0100
0010
1000
0000
0010
0100
0001
0000
0100
0010
,  // measure 35
1000
0000
0001
0000
0010
0000
0001
0000
1000
0010
1000
0000
0200
0000
0000
0000
,  // measure 36
1300
0000
0001
1000
0100
0000
1000
0001
0100
0000
0001
1000
0100
0000
1000
0001
,  // measure 37
0100
0000
0010
0000
1000
0000
0010
0000
0100
0001
0100
0000
0010
0000
1000
0000
,  // measure 38
0100
1000
0100
1000
0001
0010
0001
2000
,  // measure 39
0002
0000
0000
0000
3003
0000
0000
0000
1000
0000
1000
0100
0000
0000
1100
0000
,  // measure 40
0001
0000
0000
0010
0000
0000
0100
0000
0000
0010
0000
0000
1000
0000
0010
0100
,  // measure 41
1000
0000
0000
0100
0000
0000
0010
0000
0000
0100
0000
0000
0001
0000
0100
0010
,  // measure 42
0001
0000
0000
1000
0000
0000
0010
0000
0000
0100
0000
0000
1000
0000
0100
0010
,  // measure 43
1000
0000
0000
0001
0000
0000
0010
0000
0000
0100
0000
0000
0001
0000
0100
0010
,  // measure 44
0001
0000
0000
0001
1000
0100
1000
0100
0000
0010
0000
0000
0001
0000
1000
0001
,  // measure 45
1000
0000
0000
1000
0001
0100
0001
0100
0000
0010
0000
0000
0010
0000
0010
1000
,  // measure 46
0001
0000
0000
0001
1000
0100
1000
0100
0000
0010
0000
0000
0100
0000
1000
0001
,  // measure 47
1000
0000
0000
1000
0001
0100
0001
0100
0000
0010
0000
0000
0110
0000
0000
0000
,  // measure 48
1002
0000
2003
0000
3200
0000
0320
0000
0031
1000
0002
0000
0203
0000
0320
0000
,  // measure 49
2030
0000
3002
0000
0023
0000
0130
1000
0000
1000
0002
0000
0103
0000
0010
0000
,  // measure 50
2001
0000
3002
0000
0203
0000
0320
0000
1030
0001
1000
0000
0020
0000
0230
0000
,  // measure 51
0302
0000
0023
0000
0230
0000
1300
0001
0000
0001
0020
0000
0032
0000
1003
0000
,  // measure 52
1010
0010
0100
0001
0011
0010
0100
1000
,  // measure 53
1100
1000
0001
0100
0101
0100
0010
1000
,  // measure 54
1001
0001
1001
1000
0100
0100
0100
0020
,  // measure 55
0130
1000
0100
1000
0001
0100
0001
0100
0001
0000
0100
0000
0010
0000
1000
0000
,  // measure 56
1000
1000
1000
1000
1000
1000
1000
1000
,  // measure 57
0001
0001
0010
0010
0100
0100
1000
1000
,  // measure 58
0010
0010
0100
0100
0001
0001
1000
1000
,  // measure 59
0100
0100
0010
0010
0001
0001
2000
0000
,  // measure 60
3001
0010
0001
0000
0010
0100
0010
0000
0100
1000
0100
0000
1000
0001
1000
0000
,  // measure 61
1000
0010
1000
0000
0010
0100
0010
0000
0100
0001
0100
0000
0001
1000
0001
0000
,  // measure 62
0100
0010
0100
0010
1000
0001
1000
0001
0010
0100
0010
0100
1000
0001
1000
0001
,  // measure 63
2000
0000
0000
0000
0000
0000
0000
0000
3001
0000
0100
0001
0100
0001
0100
0001
,  // measure 64
1000
0000
0010
0000
0100
0000
0010
0000
1000
0010
1000
0000
0001
0000
1000
0000
,  // measure 65
0100
0000
0010
0000
0001
0000
0010
0100
0000
0100
1000
0000
0001
0000
0100
0000
,  // measure 66
0010
0000
1000
0000
0001
0000
1000
0000
0010
1000
0010
0000
0100
0000
0001
0000
,  // measure 67
0010
0000
0100
0000
1000
0000
0100
0000
0010
0000
0001
0010
0100
0010
0100
0000
,  // measure 68
1000
0000
0001
0000
0100
0000
0010
0000
0100
0001
0100
0000
0010
0000
1000
0000
,  // measure 69
0001
0000
0010
0000
0100
0000
1000
0001
0000
0001
0010
0000
0001
0000
0100
0000
,  // measure 70
0010
0000
1000
0000
0010
0000
0100
0000
0001
0100
0010
0000
1000
0000
0001
0000
,  // measure 71
0010
0000
0001
0000
0010
0000
0100
0000
1000
0000
0001
0010
0001
0010
0001
0010
,  // measure 72
0100
0000
1000
0000
0010
0000
1000
0000
0001
1000
0001
0000
0100
0000
0001
0000
,  // measure 73
0010
0000
0100
0000
1000
0000
0100
0010
0000
0010
0001
0000
1000
0000
0001
0000
,  // measure 74
0100
0000
0001
0000
0010
0000
0001
0000
1000
0001
1000
0000
0100
0000
1000
0000
,  // measure 75
0010
0000
1000
0000
0001
0000
0100
0010
0100
0000
0010
0100
0001
1000
0001
0000
,  // measure 76
1000
0000
0100
0000
0001
0000
0100
0000
1000
0100
1000
0000
0001
0000
0100
0000
,  // measure 77
1000
0000
0100
0000
0001
0000
1000
0001
0000
0001
0010
0000
0100
0010
0100
0000
,  // measure 78
1000
0001
0100
0010
1000
0001
0010
0200
,  // measure 79
0020
0000
0000
0000
0330
0000
0000
0000
0001
0000
1000
0100
1000
0100
1000
0100
,  // measure 80
1000
0000
0001
0010
0100
0000
1000
0000
1000
0000
0100
0010
0001
0000
1000
0000
,  // measure 81
2000
3100
0000
0001
0002
0103
0000
1000
,  // measure 82
1000
0000
0010
0100
0001
0000
1000
0000
1000
0000
0100
0010
0001
0000
1000
0000
,  // measure 83
2000
3001
0000
0100
0200
0301
0000
1000
,  // measure 84
1100
0000
0100
0010
0100
0000
0010
0000
0011
0000
0001
0010
0001
0000
1000
0000
,  // measure 85
1010
0010
0100
0001
0101
0100
0010
1000
,  // measure 86
1100
0100
0110
0010
0011
0001
0001
2000
,  // measure 87
3010
0000
0100
0010
0000
0100
0010
0000
1000
0000
0001
0100
0001
0100
0001
0100
,  // measure 88
0010
0000
0000
0000
;

//---------------dance-single - ----------------
#NOTES:
     dance-single:
     :
     Medium:
     11:
     0.532408,0.591866,0.371894,0.324418,0.079126,471.000000,424.000000,47.000000,41.000000,0.000000,0.000000,0.532408,0.591866,0.371894,0.324418,0.079126,471.000000,424.000000,47.000000,41.000000,0.000000,0.000000:
0000
0000
0000
0000
,
0000
0000
0000
0000
,
0000
0000
0000
0000
,
0000
0000
0000
0000
,
1000
0000
0000
1000
0000
0000
0100
0010
,
0001
0000
0000
0001
0000
0000
0010
0100
,
1000
0000
0000
1000
0000
0000
0100
0010
,
0001
0000
0000
0001
0000
0000
1000
0001
,
1000
0000
0000
0001
0000
0000
0100
0000
0001
0000
0000
1000
0000
0000
0100
0000
,
1000
0000
0000
0001
0000
0000
0010
0000
0001
0000
0000
1000
0000
0000
0010
0000
,
1000
0000
0000
0010
0000
0000
0100
0000
0010
0000
0000
1000
0000
0000
0001
0000
,
0010
0000
0000
0100
0000
0000
0010
0000
0001
0000
0000
0000
1001
0000
0000
0000
,
1000
0000
0001
0000
0100
0000
0000
0000
0010
0000
0000
0010
0000
0000
0100
0000
,
0001
1100
0001
1100
,
0001
0000
1000
0000
0100
0000
0000
0000
0010
0000
0000
0010
0000
0000
0100
0000
,
1000
0101
1000
0101
,
0110
0010
1010
1000
,
1001
0001
0011
0010
,
0110
0000
1100
0000
0011
0000
1100
1000
,
0100
0000
0100
0000
0100
1000
0001
1000
,
0010
0010
0010
0010
,
1010
0110
1001
0101
,
0001
0100
0001
1000
0100
1000
0001
0100
,
0020
0000
0030
0000
1000
0001
1000
0000
,
1000
0200
0300
1000
0100
0020
0030
0100
,
0010
0002
0003
0001
1000
0000
1001
0000
,
0001
0200
0300
0001
0100
0020
0030
0100
,
0010
2000
3000
1000
0001
1000
0100
0000
,
1000
0020
0030
1000
0001
0020
0030
0001
,
1000
0020
0030
1000
0001
0000
1001
0000
,
0001
0010
0100
0000
1000
0010
0100
0000
,
0001
0000
0000
0001
0000
0000
0001
0000
1000
0000
0001
0000
0010
0000
0000
0000
,
0100
1000
0100
0001
0100
1000
0100
0001
,
0100
1100
0010
0101
,
0100
0001
0100
1000
0100
0001
0100
1000
,
0100
0101
0010
1100
,
0100
1000
0010
0100
0001
0100
0010
1000
,
0100
1100
0010
0101
,
1010
1001
0011
1001
,
0220
0000
0330
0000
,
2000
0000
0000
3000
0000
0000
2000
0000
0000
3000
0000
0000
0100
0000
0010
0000
,
0002
0000
0000
0003
0000
0000
0002
0000
0000
0003
0000
0000
0010
0000
0100
0000
,
2000
0000
0000
3000
0000
0000
2000
0000
0000
3000
0000
0000
0100
0000
0010
0000
,
0002
0000
0000
0003
0000
0000
0002
0000
0000
0003
0000
0000
1000
0000
0001
0000
,
2000
0000
0000
3000
0000
0000
0020
0000
0000
0030
0000
0000
0010
0000
1000
0000
,
0002
0000
0000
0003
0000
0000
0020
0000
0000
0030
0000
0000
0100
0000
0010
0000
,
0001
0000
0000
0001
0000
0000
1000
0000
0000
0001
0000
0000
0100
0000
0010
0000
,
1000
0000
0000
1000
0000
0000
0001
0000
0000
1000
0000
0000
0100
0000
0000
0000
,
1000
0100
0010
0000
0001
0010
0100
0000
,
1000
0000
0000
0000
0001
0000
0000
0001
0000
0000
0100
0000
0010
0000
0000
0000
,
1000
0010
0100
0000
0001
0100
0010
0000
,
2000
3020
0031
0020
,
1030
0101
0001
1100
,
0010
0101
0010
1100
,
1001
0000
0101
0000
1010
0000
0101
0100
,
0010
0000
0010
0000
1000
0001
1000
0100
,
0010
0010
0010
0010
,
0010
0010
0010
0010
,
0001
0001
1000
1000
,
0010
0010
0100
0200
,
0301
0000
0001
0000
0001
0010
0100
0000
,
1000
0000
1000
0000
0010
0100
0001
0000
,
0001
0100
0010
1000
0100
0010
0001
1000
,
0020
0000
0030
0000
1000
0001
1000
0000
,
0001
0100
0010
0100
,
0001
0000
1000
0000
0010
0000
0000
0010
0000
0000
1000
0000
0100
0000
0000
0000
,
1000
0100
0010
0100
,
1000
0001
0010
0001
1000
0000
1001
0000
,
0001
0100
0010
0100
,
0001
0000
1000
0000
0010
0000
0000
0010
0000
0000
0100
0000
0001
0000
0000
0000
,
1000
0100
0010
0100
,
1000
0000
1000
0000
1000
0001
0100
0001
,
0100
0010
0100
0001
,
1000
0000
0001
0000
0010
0000
0000
0010
0000
0000
0001
0000
1000
0000
0000
0000
,
0100
0010
0100
1000
,
0001
0000
1000
0000
0010
0000
0000
0010
0000
0000
0100
0000
0010
0000
0000
0000
,
1010
0100
0011
0100
,
1001
0010
0110
1000
,
0001
0010
0001
1000
0010
1000
0002
0000
,
0023
0000
0030
0000
1000
0001
1000
0000
,
1000
0200
0300
1000
0100
0020
0030
0100
,
0010
0002
0003
0010
0100
0000
1001
0000
,
0001
0200
0300
0001
0100
0020
0030
0100
,
0010
2000
3000
0001
1000
0001
1000
0000
,
1000
0200
0300
1000
0001
0200
0300
0001
,
1000
0020
0030
1000
0001
0020
0030
0001
,
1001
0000
0110
0000
0001
1000
0001
0000
,
0100
0000
0000
0100
0000
0000
0100
0000
0010
0000
1000
0000
0001
0000
0000
0000
,
1001
0000
0000
0000
;

//---------------dance-single - ----------------
#NOTES:
     dance-single:
     :
     Easy:
     6:
     0.333461,0.348156,0.253205,0.087039,0.000000,295.000000,263.000000,32.000000,11.000000,0.000000,0.000000,0.333461,0.348156,0.253205,0.087039,0.000000,295.000000,263.000000,32.000000,11.000000,0.000000,0.000000:
0000
0000
0000
0000
,
0000
0000
0000
0000
,
0000
0000
0000
0000
,
0000
0000
0000
0000
,
1000
0000
0100
1000
,
0001
0000
0100
0001
,
1000
0000
0100
1000
,
0001
0000
0001
0100
,
0010
0000
0101
0000
,
0010
0000
0101
0000
,
0010
0000
1100
0000
,
0010
0000
1100
0000
,
1000
1000
0010
0000
,
1000
0001
1000
0100
,
1000
1000
0010
0000
,
1000
0000
0001
1000
,
0001
0001
0010
0000
,
0001
1000
0001
0100
,
0001
0001
0010
0010
,
0110
0000
0000
0000
,
1000
0100
0001
0100
,
1000
0010
0001
0010
,
1000
1000
0001
0001
,
2002
0000
0000
3003
,
0101
0000
1010
0000
,
0101
0000
0001
1000
,
1100
0000
0011
0000
,
1100
0000
1000
0001
,
0101
0000
1010
0000
,
0101
0000
0001
1000
,
0100
0100
0010
0010
,
0100
1000
0002
0003
,
1000
0010
1000
0010
,
0100
0000
0100
0000
,
0001
0010
0001
0010
,
0100
0000
0100
0000
,
1000
0010
0001
0010
,
1000
0000
0001
0000
,
1000
1000
0100
0100
,
0020
0000
0031
0000
,
1000
0000
0010
1000
,
0010
0000
0100
0001
,
0100
0000
0010
1000
,
0010
0000
1000
0000
,
0001
0000
0010
0001
,
0010
0000
0100
1000
,
0100
0000
0010
0001
,
0010
0000
0110
0000
,
0001
0100
0001
1000
,
0001
0010
0001
0000
,
1000
0010
1000
0001
,
1000
0100
1000
0000
,
0001
0100
1000
0100
,
0001
1000
0001
0000
,
1000
0100
0001
0200
,
0310
0000
0110
0000
,
0001
0001
0001
0001
,
1000
1000
1000
1000
,
0010
0010
0010
0010
,
0100
0100
0200
0300
,
0001
0001
1000
1000
,
0100
0100
0010
0010
,
0001
1000
0010
0100
,
2002
0000
0000
3003
,
0001
1000
0010
0100
,
0001
1000
0100
0010
,
0001
1000
0010
0100
,
0001
1000
0100
0100
,
1000
0001
0010
0100
,
1000
0001
0100
0010
,
1000
0001
0010
0100
,
1100
0000
0101
0000
,
0001
0100
0010
1000
,
0001
0010
0100
1000
,
0001
0100
0010
1000
,
0001
1000
0001
0001
,
1000
0100
0001
0100
,
1000
0010
0001
0010
,
1000
1000
0001
0001
,
2002
0000
0000
3003
,
1100
0000
0011
0000
,
1100
0000
1000
0001
,
0101
0000
1010
0000
,
0101
0000
0001
1000
,
1100
0000
0101
0000
,
0011
0000
1010
0000
,
0010
0010
0100
0100
,
0001
0001
0002
1003
,
1001
0000
0000
0000
;

//---------------dance-single - ----------------
#NOTES:
     dance-single:
     :
     Beginner:
     3:
     0.188773,0.313341,0.079126,0.000000,0.000000,167.000000,157.000000,10.000000,0.000000,0.000000,0.000000,0.188773,0.313341,0.079126,0.000000,0.000000,167.000000,157.000000,10.000000,0.000000,0.000000,0.000000:
0000
0000
0000
0000
,
0000
0000
0000
0000
,
0000
0000
0000
0000
,
0000
0000
0000
0000
,
1000
0000
0000
0000
,
0001
0000
0000
0000
,
1000
0000
0000
0000
,
0001
0000
0000
0000
,
1000
0000
1000
0000
,
0100
0000
0100
0000
,
0001
0000
0001
0000
,
0100
0000
0100
0000
,
1000
0000
0000
0000
,
0001
0000
0000
0000
,
1000
0000
0000
0000
,
0001
0000
0000
0000
,
1000
0000
1000
0000
,
0001
0000
0001
0000
,
1000
0000
0001
0000
,
0100
0000
0000
0000
,
0001
0000
0001
0000
,
0001
0000
0001
0000
,
1001
0000
0000
0000
,
0110
0000
0000
0000
,
1000
0000
1000
0000
,
1000
0000
0000
0000
,
0001
0000
0001
0000
,
0001
0000
0000
0000
,
1000
0000
1000
0000
,
1000
0000
0000
0000
,
1000
0000
0010
0000
,
0100
0000
0001
0000
,
1000
0000
0001
0000
,
1000
0000
0000
0000
,
0001
0000
1000
0000
,
0001
0000
0000
0000
,
1000
0000
0001
0000
,
1000
0000
0000
0000
,
0001
0000
0010
0000
,
0110
0000
0000
0000
,
1000
0000
0000
0000
,
0100
0000
0000
0000
,
0001
0000
0000
0000
,
0010
0000
0000
0000
,
0001
0000
0000
0000
,
0100
0000
0000
0000
,
1000
0000
0000
0000
,
0010
0000
0000
0000
,
1000
0000
1000
0000
,
0100
0000
0000
0000
,
0001
0000
0001
0000
,
0100
0000
0000
0000
,
1000
0000
0001
0000
,
0001
0000
1000
0000
,
0100
0010
0100
0010
,
0100
0000
0000
0000
,
1000
1000
1000
0000
,
0001
0001
0001
0000
,
1000
1000
1000
0000
,
0001
0001
0001
0000
,
1000
0000
0010
0000
,
0100
0000
0001
0000
,
0010
0000
0100
0000
,
0110
0000
0000
0000
,
1000
0100
1000
0100
,
0010
0100
0010
0000
,
0001
0100
0001
0100
,
0010
0100
0010
0000
,
1000
0100
1000
0100
,
0010
0100
0010
0000
,
0001
0100
0001
0100
,
0010
0000
1001
0000
,
1000
0100
1000
0001
,
1000
0100
0010
0000
,
0001
0100
0001
1000
,
0001
0100
0010
0000
,
1000
0000
0001
0000
,
1000
0000
0001
0000
,
1001
0000
1001
0000
,
0110
0000
0000
0000
,
1000
0000
0100
0000
,
0010
0000
0000
0000
,
0001
0000
0100
0000
,
0010
0000
0000
0000
,
1000
0000
0100
0000
,
0010
0000
0000
0000
,
0001
0000
1000
0000
,
0110
0000
0000
0000
,
1001
0000
0000
0000
;
