#TITLE:Take On Miku;
#SUBTITLE:by A-Ha Ft. Hatsune Miku;
#ARTIST:Astrophysics;
#TITLETRANSLIT:;
#SUBTITLETRANSLIT:;
#ARTISTTRANSLIT:;
#GENRE:;
#CREDIT:NOWHERE Dance Club;
#MUSIC:Take On Miku.ogg;
#BANNER:Take On Miku-banner.png;
#BACKGROUND:Take On Miku-bg.png;
#CDTITLE:;
#SAMPLESTART:23.004;
#SAMPLELENGTH:19.412;
#SELECTABLE:YES;
#OFFSET:0.996;
#BPMS:0.000=170.000;
#STOPS:;
#BGCHANGES:;
#FGCHANGES:;

//--------------- dance-single - NOWHERE Dance Club ----------------
#NOTES:
     dance-single:
     NOWHERE Dance Club:
     Hard:
     10:
     0,0,0,0,0:
0000
0000
0000
0000
,
0000
0000
0000
0000
,
0000
0000
0000
0000
,
0000
0000
0000
0000
,
0000
0000
0000
0000
,
2000
0000
0000
0000
,
0000
0000
0000
0000
,
0001
0000
0000
3001
0000
0000
1000
0000
,
0100
0000
0010
0000
0001
0001
0000
0100
,
0010
0000
0000
0110
0000
0000
0010
0010
,
1000
1000
0000
1001
0000
0000
1000
1000
,
0100
0000
0000
0110
0000
0000
0100
0100
,
1000
1000
0000
1001
0000
0001
1000
0001
,
0200
0000
0000
0010
0000
0310
0000
1000
,
0000
0010
0000
1000
0100
0010
0001
0010
,
0001
0100
0010
1000
0000
0100
0000
0110
,
0000
0110
0000
0100
0010
0001
1000
0001
,
1001
0000
0000
0001
0000
0100
0000
0001
,
0000
0010
0000
0000
0001
0001
1000
0000
,
0010
0010
0000
1000
0000
0100
0000
1000
,
0000
0001
0000
0000
0010
0010
0100
0100
,
0010
0010
0000
0001
0000
0010
0000
0001
,
0000
0100
0000
0000
0010
0010
1000
1000
,
0100
0100
0000
1000
0000
0010
0000
1000
,
0000
0001
0000
0000
0010
0010
0001
0001
,
0020
0000
0000
0031
0000
0100
0000
0020
,
0000
1000
0000
1030
0001
0000
1000
0000
,
0200
0000
0000
1300
0000
0010
0000
0200
,
0000
0001
0000
0301
1000
0000
0001
0000
,
1000
0000
0000
1100
0000
0010
0002
1000
,
0000
1003
0000
0001
0100
0000
0010
0000
,
1000
1000
0100
1000
0000
0001
0100
0110
,
0000
0110
0000
0010
1000
0000
0001
0000
,
2000
0000
0000
0000
3001
0000
0000
0101
,
0000
0001
0000
0010
0001
0000
0100
0000
,
0010
0010
1000
0001
0000
1000
0000
0100
,
0000
0010
0000
0010
0001
0000
1000
0000
,
1001
0000
0001
0000
0100
0000
0010
2000
,
0000
0001
0000
0001
3001
0000
0011
0000
,
0001
0000
1000
1000
0100
0100
0010
0010
,
0002
0100
0103
1001
,
1000
0100
1000
0001
1000
0100
1000
0100
,
0010
0001
1000
0001
0010
0001
0010
0001
,
0200
0010
1000
0310
,
1000
0000
0000
1100
0000
0000
0011
0000
,
0001
0100
0001
1000
0001
0100
0001
0100
,
0010
1000
0001
1000
0010
1000
0010
1000
,
0200
0010
1000
0310
,
1100
0000
0000
0011
0000
0000
0101
0000
,
1000
0100
0010
0000
0011
0000
0000
0001
,
0100
0010
1000
0000
1001
0000
0000
0000
,
0001
0100
0010
0000
1001
1000
0001
2100
,
0000
0000
3001
0001
0000
1000
0002
0000
,
0000
0023
0001
0001
,
0100
0031
0200
0001
,
1300
0001
0100
0010
,
2000
3100
0010
0001
,
1000
0000
0000
1100
0000
0010
0002
1000
,
0000
1003
0000
0001
0100
0000
0010
0000
,
1000
0000
0100
1000
0000
0001
1000
1001
,
0000
0100
0000
0010
1000
0000
0001
0000
,
2002
0000
3003
0000
1001
0000
0000
0101
,
0000
0001
0000
0010
0001
0000
0100
0000
,
0010
0000
1000
0001
0000
1000
0000
0100
,
0000
0010
0001
0000
0002
0000
1003
0000
,
1001
0000
0001
0000
0100
0000
0010
2000
,
0000
0001
0000
0001
3001
0000
0101
0000
,
1000
1000
0100
0010
0001
0100
0010
2000
,
0002
0000
3003
0001
1000
0001
0001
1000
,
0001
0010
0001
1000
0001
0010
0001
0010
,
0100
1000
0001
1000
0100
1000
0100
1000
,
0020
0100
0001
0130
,
0001
0000
0000
0011
0000
0000
1100
0000
,
1000
0010
1000
0001
1000
0010
1000
0010
,
0100
0001
1000
0001
0100
0001
0100
0001
,
0020
0100
0001
0130
,
0011
0000
0000
1100
0000
0000
1010
0000
,
0001
0010
0100
0000
1100
0000
0000
1000
,
0010
0100
0001
0000
1001
0000
0000
0000
,
1000
0010
0100
0000
1001
0001
1000
0012
,
0000
0000
1003
1000
0000
0001
2000
0000
,
0000
3000
0020
0000
0000
0000
0001
0000
,
0000
0100
0000
1000
,
0000
0100
0000
0001
,
0000
0100
0000
1030
,
1001
0000
0000
0000
;
