#TITLE:TWERKPROMISES28;
#SUBTITLE:;
#ARTIST:dj SuZy WORLD DEBUT;
#TITLETRANSLIT:;
#SUBTITLETRANSLIT:;
#ARTISTTRANSLIT:;
#GENRE:JERSEY CLUB;
#CREDIT:;
#BANNER:;
#BACKGROUND:;
#LYRICSPATH:;
#CDTITLE:;
#MUSIC:twerkpromises28.mp3;
#OFFSET:-0.029613;
#SAMPLESTART:44.713779;
#SAMPLELENGTH:11.162792;
#SELECTABLE:YES;
#BPMS:0.000000=172.000000
;
#STOPS:
;
#BGCHANGES:;
#KEYSOUNDS:;
#ATTACKS:;

//---------------dance-single - ----------------
#NOTES:
     dance-single:
     :
     Medium:
     12:
     0.538929,0.819693,0.469390,0.208618,0.060847,434.000000,380.000000,54.000000,24.000000,0.000000,0.000000,0.538929,0.819693,0.469390,0.208618,0.060847,434.000000,380.000000,54.000000,24.000000,0.000000,0.000000:
0000
0000
0000
0000
,
0000
0000
0000
0000
,
0000
0000
0000
0000
,
0000
0000
0000
0000
,
0000
0000
0000
0000
,
0000
0000
0000
0000
,
0000
0000
0000
0000
,
0000
0000
0000
0000
,
1000
0000
0001
0000
0100
0001
0100
0000
,
0010
0000
1000
0000
0100
1000
0100
0000
,
0010
0000
0001
0000
0100
0001
0100
0000
,
2000
3200
0302
0023
,
0130
0000
0010
0000
0001
1000
0001
0000
,
0100
0000
0010
0000
1000
0001
1000
0000
,
2000
0100
3002
0100
,
2003
0010
3002
0010
,
1003
0000
0000
0000
0001
0000
0000
0000
0101
0000
0000
0101
0000
0000
0101
0000
,
1000
0000
0000
0000
0001
0000
0100
0000
0010
0000
0000
0010
0000
0000
0010
0000
,
1000
0000
0000
0000
0001
0000
0000
0000
1100
0000
0000
1100
0000
0000
1100
0000
,
0001
0000
0000
0000
1000
0000
0100
0010
0000
0000
0001
0000
1000
0000
0001
0000
,
0100
0000
0000
0000
0010
0000
0000
0000
1010
0000
0000
0110
0000
0000
1010
0000
,
1000
0000
0000
0000
0100
0000
0000
0000
0011
0000
0000
0110
0000
0000
0011
0000
,
0001
0000
0000
0000
1000
0000
0000
0000
1100
0000
0000
0110
0000
0000
1100
0000
,
0001
0000
0000
0000
1001
0000
1000
0100
0000
0000
0010
0000
0001
0000
0000
0000
,
1000
0100
1000
0000
0001
0010
0001
0000
,
1000
0010
1000
0000
0001
0010
0001
0000
,
1000
0001
1000
0000
0010
0100
0010
0000
,
1000
0100
0010
0000
0001
0010
0100
0000
,
1000
0100
1000
0100
0001
0100
0001
0100
,
1000
0010
1000
0010
0001
0010
0001
0010
,
1000
0100
0010
0001
1000
0010
0100
0001
,
0000
0000
0110
0000
,
1001
0000
1000
0000
0100
0010
0100
0010
,
0100
0001
0100
1000
0100
0001
0100
1000
,
0010
1000
0010
1000
0001
0100
0001
0100
,
0001
0010
1000
0010
0001
0000
0110
0000
,
1001
0000
0000
0000
0000
0000
0000
0000
1000
0000
0000
1000
0000
0000
1000
0000
,
0010
0100
1000
0100
0001
0100
1000
0100
,
0001
0010
0001
0010
1000
0010
1000
0010
,
0001
0001
0001
0001
0001
0000
0110
0000
,
1001
0000
1000
0001
1000
0100
0010
0100
,
1000
0010
0100
0010
1000
0010
0100
0010
,
1000
0001
0010
0001
1000
0001
0100
0001
,
1000
0100
0001
0100
1000
0000
1001
0000
,
0110
0000
0000
0000
0000
0000
0000
0000
0001
0000
0000
0001
0000
0000
0001
0000
,
0100
1000
0100
0001
0010
1000
0010
0001
,
0100
0000
0000
0000
0010
0000
0000
0000
1000
0000
0000
1000
0000
0000
1000
0000
,
0010
0100
0001
1000
0010
0000
0000
0000
,
2000
0000
0000
0000
,
3200
0000
0000
0000
,
0320
0000
0000
0000
,
0032
0000
0000
0000
,
1003
0100
0001
0100
,
1000
0010
0001
0010
,
2000
0100
3002
0100
,
0023
0100
0030
0000
,
1010
0000
1000
0100
0001
0100
1000
0000
,
0101
0000
1000
0001
0000
0100
0010
1000
,
0001
0000
1000
0100
0001
0100
1000
0000
,
0200
0320
0032
2003
,
3001
0000
0100
1000
0100
0001
0010
0000
,
0100
0000
1000
0010
1000
0010
0100
0001
,
2000
0000
0000
0000
,
3000
0000
0000
0000
,
1001
0000
0000
0000
0110
0000
0010
0010
,
0101
0000
1100
0000
0101
0000
1100
0010
,
0101
0000
1100
0000
0101
0000
0010
0010
,
0100
0010
0100
0000
1000
0000
1000
0000
0001
0000
0001
0000
0000
0000
0000
0000
,
0110
0000
0000
0000
1001
0000
0100
0100
,
0011
0000
1010
0000
0011
0000
1010
0100
,
0011
0000
0011
0100
1010
0000
1010
0100
,
0011
0100
1010
0100
0011
0000
0000
0000
,
0110
0000
0000
0000
1001
0000
0001
0100
,
1000
0100
0010
0100
0002
0000
1003
0100
,
0001
0100
0010
0100
2000
0000
3001
0100
,
0010
0010
1000
1000
0001
0000
1001
0000
,
0110
0000
0000
0000
0000
0000
0000
0000
1001
0000
0000
0001
1000
0000
0100
0000
,
0001
0100
0010
0100
1000
0000
1000
0010
,
0001
0000
0010
0000
0100
0000
0010
0000
1000
0000
0000
0001
1000
0000
0100
0000
,
0010
0100
0010
0002
2000
0000
0000
0000
,
0000
0000
0000
0000
,
0000
0000
3003
0000
,
0101
0000
0000
0000
;

//---------------dance-single - ----------------
#NOTES:
     dance-single:
     :
     Hard:
     15:
     0.694150,0.927316,0.478082,0.417235,0.486775,559.000000,504.000000,55.000000,48.000000,56.000000,0.000000,0.694150,0.927316,0.478082,0.417235,0.486775,559.000000,504.000000,55.000000,48.000000,56.000000,0.000000:
// measure 0
0000
0000
0000
0000
,  // measure 1
0000
0000
0000
0000
,  // measure 2
0000
0000
0000
0000
,  // measure 3
0000
0000
0000
0000
,  // measure 4
0000
0000
0000
0000
,  // measure 5
0000
0000
0000
0000
,  // measure 6
0000
0000
0000
0000
,  // measure 7
0000
0000
0000
0000
,  // measure 8
0001
0000
0010
0100
1000
0000
0001
1000
,  // measure 9
0020
0000
0000
0001
0000
0000
0000
0000
0000
0000
1030
0000
0100
0000
0010
0000
,  // measure 10
0000
2002
0000
0000
3003
0000
0000
0000
,  // measure 11
0002
0203
0320
2030
,  // measure 12
3001
1000
0100
0010
0001
0000
2000
0100
,  // measure 13
0000
0002
0000
3000
0000
0003
0000
0010
,  // measure 14
0200
0000
0000
0001
0000
0000
1300
0000
0020
0000
0000
0001
0000
0000
1030
0000
,  // measure 15
0002
0000
0000
1000
0000
0000
1003
0000
0000
0000
0000
0000
0000
0000
0110
0000
,  // measure 16
1001
0000
0000
0000
1000
0000
0001
0000
0020
0000
0000
1000
0000
0000
0032
0000
,  // measure 17
1000
0000
0000
0000
0103
0000
0000
0000
0101
0000
0000
0101
0000
0000
0101
0000
,  // measure 18
1000
0000
0000
0000
0010
0000
1000
0000
0200
0000
0000
0001
0000
0000
2300
0000
,  // measure 19
0001
0000
0000
0000
3010
0000
0000
0000
1010
0000
0000
1010
0000
0000
1010
0000
,  // measure 20
2000
0000
0000
0100
0000
0000
3001
0000
1000
0000
0000
1100
0000
0000
0101
0000
,  // measure 21
0002
0000
0000
0000
1003
0000
0000
0000
0001
0000
0000
0011
0000
0000
1010
0000
,  // measure 22
2000
0000
0000
0000
3001
0000
0100
0000
0010
0000
0000
1001
0000
0000
1001
0000
,  // measure 23
0001
0000
0000
0000
1000
0000
0001
1000
0000
0001
1000
0000
MMMM
0000
0000
0000
,  // measure 24
0001
0000
1000
0000
0100
1000
0100
0000
1000
0000
0001
0000
0100
0001
0100
0000
,  // measure 25
0001
0000
1000
0000
0010
1000
0010
0000
1000
0000
0001
0000
0010
0001
0010
0000
,  // measure 26
0100
0000
1000
0000
0010
0100
0010
0000
0100
0000
0001
0000
0010
0100
0010
0000
,  // measure 27
0100
0000
1000
0000
0001
1000
0001
0000
0100
0000
0001
0000
1000
0001
1000
0000
,  // measure 28
0001
0010
0100
0000
1000
0000
0001
0000
1000
0010
0100
0000
0001
0000
1000
0000
,  // measure 29
0001
0100
0010
0000
1000
0000
0001
0000
1000
0100
0010
0000
0001
0000
1000
0000
,  // measure 30
0001
0100
0001
1000
0010
1000
0001
0100
0010
1000
0001
1000
0010
1000
0100
0010
,  // measure 31
0000
0002
0000
0003
0100
0000
0010
0000
1001
0000
0000
0000
1000
0000
0001
0000
,  // measure 32
0110
0000
0000
0000
MMMM
0000
0000
0000
1000
0010
1000
0000
0001
0000
0100
0000
,  // measure 33
0001
0010
0001
0000
1000
0000
0001
0000
0010
0100
0010
0000
0100
0000
1000
0000
,  // measure 34
0001
0100
0010
0000
1000
0000
0001
0000
1000
0100
1000
0000
0001
0000
0100
0000
,  // measure 35
0010
0100
0010
0000
1000
0000
0001
0000
1000
0100
0010
0000
0002
0000
2003
0000
,  // measure 36
3010
0000
0000
0000
0001
0010
0001
0010
1000
0000
1000
0100
0000
0100
0010
0000
,  // measure 37
0001
0010
0100
0000
0010
0000
0001
0000
1000
0010
0100
0000
0010
0000
1000
0000
,  // measure 38
0001
1000
0100
0000
0001
0100
0010
0100
1000
0000
0001
1000
0010
0000
0100
0000
,  // measure 39
0101
0010
1100
0010
1001
0000
MMMM
0000
,  // measure 40
0110
0000
0000
0000
1000
0001
1000
0001
1000
0000
0010
0100
0010
0000
0010
0100
,  // measure 41
0001
0000
1000
0000
0001
0000
0100
0000
0001
0000
0010
0100
0010
0000
0010
0100
,  // measure 42
1000
0000
0001
0000
0100
0010
0100
0010
0100
0000
0100
0001
1000
0000
1000
0100
,  // measure 43
0010
0100
1000
0100
0001
0100
0110
0000
,  // measure 44
1001
0000
0000
0000
0001
1000
0010
0100
0001
0000
0001
1000
0000
1000
0001
0000
,  // measure 45
0010
0100
1000
0000
0001
0000
1000
0000
0010
0100
0001
0000
1000
0000
0001
0000
,  // measure 46
1000
0000
1000
0000
0001
0000
0020
0000
0230
0000
0000
0001
0000
0000
1300
0000
,  // measure 47
1010
0100
0011
0100
1001
0000
MMMM
0000
,  // measure 48
2000
0000
0000
0000
,  // measure 49
3002
0000
0000
0000
,  // measure 50
0203
0000
0000
0000
,  // measure 51
0320
0000
0000
0000
,  // measure 52
2030
0100
0001
0100
,  // measure 53
3002
0010
1000
0010
,  // measure 54
1003
0000
0000
0100
0000
0000
0010
0000
0001
0000
0000
0100
0000
0000
0010
0000
,  // measure 55
2000
0000
0002
3003
MMMM
0000
MMMM
0000
,  // measure 56
0110
0000
0000
0000
1000
0000
0010
1000
0100
0000
0001
0000
0100
0000
1000
0000
,  // measure 57
0020
0000
0000
0032
0000
0000
2003
0000
0000
0000
3200
0000
0000
0302
0000
0000
,  // measure 58
2003
0000
0000
0000
3001
0000
0010
0001
0100
0000
1000
0000
0100
0010
0100
0000
,  // measure 59
0002
0023
0230
2300
,  // measure 60
3001
0000
0000
0000
0010
0000
0100
1000
0001
0000
0010
0000
0100
1000
0001
0000
,  // measure 61
0100
0010
0001
1000
0100
0010
1000
0002
,  // measure 62
2000
0000
0000
0000
,  // measure 63
0000
0000
0000
0000
0000
0000
0000
0000
0000
0000
0000
0000
0000
0000
0000
0000
3003
0000
0000
0000
0000
0000
0000
0000
M000
0M00
00M0
0000
0000
00M0
0000
0000
,  // measure 64
1001
0000
0000
0000
0000
0000
0000
0000
0110
0000
0000
0000
0001
0100
1000
0000
,  // measure 65
0110
0000
1001
0000
0110
0000
1000
0100
,  // measure 66
0011
0000
0001
0000
0100
0001
0100
0010
1000
0000
0000
0000
0011
0000
0001
0000
,  // measure 67
0010
0100
1000
0000
0010
0100
0001
1000
0010
0000
0000
0000
MMMM
0000
0000
0000
,  // measure 68
0110
0000
0000
0000
1000
0000
0001
0000
0101
0000
0100
0000
0010
1000
0100
0000
,  // measure 69
1100
0100
0110
0010
0011
0001
1000
0001
,  // measure 70
0101
0000
0100
0000
0010
1000
0001
1000
0100
0000
1000
0000
1100
0000
0011
0000
,  // measure 71
0010
0001
0100
0000
0010
1000
0100
0000
1000
0000
0001
0000
MMMM
0000
0000
0000
,  // measure 72
0110
0000
0000
0000
1000
0010
1000
0010
0100
0000
0000
0000
0001
0100
0001
0000
,  // measure 73
0011
0001
1001
0001
0101
0001
0100
0010
,  // measure 74
1100
0000
1000
0000
0001
1000
0001
0100
0010
0000
1000
0000
1010
0000
1000
0000
,  // measure 75
0001
0010
0100
0000
0010
0001
1000
0001
0100
0000
0000
0000
MMMM
0000
0000
0000
,  // measure 76
0110
0000
0000
0000
0001
1000
0010
1000
0100
0000
0000
0010
0001
0000
1000
0000
,  // measure 77
1100
1000
1010
1000
1001
1000
0100
0010
,  // measure 78
0011
0000
0001
0000
0100
0001
1000
0010
0100
0000
0000
0001
1000
0000
0010
0000
,  // measure 79
1000
0100
0010
0000
0001
0100
0010
0000
2000
0000
0000
0000
0002
0000
0000
0000
,  // measure 80
3003
0000
0000
0000
0000
0000
M000
0000
0M00
0000
00M0
0000
000M
0M00
00M0
0000
,  // measure 81
M000
0000
000M
0000
00M0
0000
0M00
0000
0220
0000
0000
0000
0000
0000
0330
0MM0
,  // measure 82
0MM0
1MM1
0000
0000
0000
0000
0000
0000
0000
0000
0000
0000
0000
0000
0000
0000
;
