#VERSION:0.83;
#TITLE:トンデモワンダーズ;
#SUBTITLE:feat. 初音ミク (+KAITO);
#ARTIST:sasakure.UK;
#TITLETRANSLIT:TONDEMO-WONDERZ;
#SUBTITLETRANSLIT:feat. Hatsune Miku (+KAITO);
#ARTISTTRANSLIT:;
#GENRE:;
#CREDIT:;
#MUSIC:TONDEMO-WONDERZ.ogg;
#BANNER:TONDEMO-WONDERZ-bn.png;
#BACKGROUND:TONDEMO-WONDERZ-bg.png;
#CDTITLE:;
#SAMPLESTART:30.779;
#SAMPLELENGTH:15.000;
#SELECTABLE:YES;
#OFFSET:1.314;
#BPMS:0.000=172.000
,164.000=180.000
,202.000=172.000
,339.000=180.000
;
#STOPS:;
#SPEEDS:0.000=1.000=0.000=0,
91.000=2.000=0.000=0,
218.000=2.667=8.000=0,
236.000=5.333=0.000=0
;
#SCROLLS:0.000=1.000,
90.000=0.000,
91.000=0.500,
164.000=0.478,
193.000=0.358,
202.000=0.375,
234.000=0.000,
236.000=0.188,
339.000=0.180
;
#TIMESIGNATURES:0.000=4=4,
164.000=3=4,
194.000=4=4,
234.000=3=4,
237.000=4=4
;
#BGCHANGES:4.000=TONDEMO-WONDERZ.avi=1.000=0=0=0=StretchNoLoop====,
99999.000=-nosongbg-=1.000=0=0=0=StretchNoLoop====
;
#FGCHANGES:;

//--------------- dance-single - ----------------
#NOTEDATA:;
#STEPSTYPE:dance-single;
#DESCRIPTION:;
#DIFFICULTY:Hard;
#METER:13;
#RADARVALUES:0,0,0,0,0;
#CREDIT:Talkion;
#NOTES:
0000
0000
0000
0000
,
0000
0000
0000
0000
,
0000
0000
0000
0000
,
0000
0000
0000
0000
,
0000
0000
0000
0000
,
0001
0010
0001
0010
0100
0100
0000
1000
,
0001
1000
0010
0100
0000
1001
0000
0000
,
0001
0001
0100
0001
0001
0010
0000
0120
,
0000
1030
0010
0100
1000
0002
0010
0000
,
1003
0010
0010
0020
0000
0130
0010
1000
,
0001
0001
0010
0010
0100
0000
1001
0000
,
1000
1000
0010
1000
1000
0100
0000
0010
,
0100
0001
0100
0010
0002
0000
2003
0000
,
3010
0100
0001
0000
0010
0100
1000
0002
,
0000
0103
0000
0010
0100
0001
1000
1000
,
0200
0000
0000
0320
0000
0000
0032
0000
0000
0000
0103
0000
0010
0000
1000
0000
,
1001
0011
1100
1001
,
1000
0010
0100
0000
0001
0010
0100
2000
,
0000
3010
0100
0010
1000
0001
0001
0000
,
1000
0000
0100
0000
0010
0000
0100
0000
1000
0000
0000
1000
0000
0000
1000
0000
,
0001
0000
0100
0000
0010
0000
0001
0000
0020
0000
0000
0230
0000
0000
0301
0000
,
2000
3200
0320
0032
,
0203
0320
0030
M000
,
1001
0000
0000
1000
0100
0000
0000
0100
0010
0000
0001
0000
0001
0000
0200
0000
,
0000
0310
0001
0020
0000
0130
0000
0001
,
1000
0001
0010
0100
1000
0001
1000
0010
,
0100
0010
2000
0000
0000
3001
0001
0000
,
1000
0100
0010
0100
1000
0001
0100
0020
,
0000
0130
1000
0200
0000
0310
0000
2000
,
0010
0010
0000
3002
0010
0010
0000
1003
,
0000
1010
0000
1001
0000
0022
0000
0033
,
1001
0000
0000
0001
0100
0000
0000
0100
0010
0000
1000
0000
1000
0000
0200
0000
,
0000
0310
1000
0020
0000
0130
0000
1000
,
0001
1000
0010
0100
0001
1000
0001
0010
,
0100
0010
0002
0000
0000
1003
1000
0000
,
0001
0001
0100
0100
0001
1000
0100
0020
,
0000
0130
0001
0200
0000
0310
0000
0010
,
0001
0000
1000
0000
0100
0000
1000
0000
0001
1000
0001
0000
0100
0000
0010
0000
,
1000
0001
1000
0100
0002
0000
0103
0000
,
1000
0010
0010
0001
0010
0010
1000
0010
,
0100
0001
0010
0100
1000
0000
1001
0000
,
0001
0100
0010
0100
0001
0000
0001
0010
,
0100
0010
0001
0000
0001
0100
0010
0100
,
0001
0000
0001
0010
0100
0010
0001
0000
,
1000
0010
0100
0010
0001
0000
0001
0010
,
0100
0010
1000
0000
1000
0100
0010
0100
,
0001
0000
0000
0200
0000
0010
0000
1300
0000
2001
0000
0100
,
0000
3001
0000
1001
0000
1000
0000
0010
0000
0100
0000
0010
,
0000
1000
0000
0000
0000
0000
0000
0000
0000
0000
0000
0000
,
0000
0000
0000
0000
,
0000
0000
0001
0001
,
1000
0100
0100
0020
0000
0030
0100
1000
,
0001
1000
0000
0001
0100
0010
1000
0000
,
0010
0100
0001
0000
1000
0100
0020
0000
,
0000
0031
0001
0000
1000
0000
1000
0000
,
0001
0100
0100
0020
0000
0030
0100
0001
,
1000
0001
0000
0010
0010
0000
0000
2001
,
0000
3010
0000
0210
0000
0301
0000
1002
,
0000
0023
0000
0000
0030
0000
0000
0000
,
0M00
0000
0001
0010
1000
0010
0001
1000
,
0010
0200
0000
0310
0001
0020
0000
0130
,
0000
0001
1000
0001
0010
0100
0001
0100
,
0010
1000
0010
0100
2000
0000
0000
3001
,
0001
0000
1000
0010
0001
0010
1000
0001
,
0010
0200
0000
0310
1000
0020
0000
0130
,
0000
2000
0100
0100
0000
3002
0100
0100
,
0000
1003
0000
1100
0000
1001
0000
0202
,
0000
0303
0001
0100
1000
0100
0001
1000
,
0100
0020
0000
0130
0001
0200
0000
0310
,
0000
0001
1000
0001
0100
0010
0001
0010
,
0100
1000
0100
0010
2000
0000
0000
3001
,
0001
0000
1000
0100
0001
0100
1000
0001
,
0100
0020
0000
0130
1000
0200
0000
0310
,
0000
0000
0010
0000
1000
0000
0001
0000
0100
0000
0001
0000
1000
0001
1000
0000
,
0100
0010
0001
1000
0001
0100
2000
0000
,
3100
0000
0001
0010
0010
1000
0010
0010
,
0001
0010
0100
1000
0010
0100
0001
0000
,
1001
0000
1000
0010
0010
0001
0010
0010
,
1000
0010
0100
0001
0010
0100
1000
0000
,
1001
0000
0001
0010
0010
1000
0010
0010
,
0001
1000
0100
1000
0001
0100
2000
0002
,
3003
0000
1001
0000
0000
0000
0000
0110
,
0000
1002
0000
0013
0100
2100
0000
3001
,
0000
1002
0000
0103
0010
2010
0000
3001
,
0012
0000
0000
0000
0000
0000
1003
0000
0000
2100
0000
0000
0000
0000
0000
3001
0000
0000
0102
0000
0000
0000
1000
0000
,
0000
0013
0000
2010
0000
0001
0000
3100
0000
0102
0000
1000
,
0000
0013
0000
2010
0000
0001
0000
3100
0000
0000
0000
0000
,
1001
0000
0000
0000
;

//--------------- dance-single - ----------------
#NOTEDATA:;
#STEPSTYPE:dance-single;
#DESCRIPTION:;
#DIFFICULTY:Challenge;
#METER:15;
#RADARVALUES:0,0,0,0,0;
#CREDIT:Talkion;
#NOTES:
0000
0000
0000
0000
,
0000
0000
0000
0000
,
0000
0000
0000
0000
,
0000
0000
0000
0000
,
0000
0000
0000
0000
,
1000
0100
1000
0100
0010
0010
0000
0001
,
1000
0000
0010
0000
0100
0010
0100
0010
0000
0000
1000
0100
0000
0000
1000
0000
,
0001
0000
0100
0010
0100
0000
0001
0000
0010
0100
0010
0000
0000
0000
1000
0000
,
0010
0100
0001
0100
0010
0002
1000
0000
,
0103
0010
0010
0020
0000
1030
0001
1000
,
0100
0010
0100
0010
0100
0000
1000
0000
0001
0000
0000
0100
0010
0000
0000
0000
,
1000
0000
0010
0100
0010
0000
1000
0000
0100
0010
0100
0000
0000
0000
0001
0000
,
0100
0010
1000
0010
0200
0000
2300
0000
,
3001
0001
0100
0010
1000
1000
0100
0020
,
0000
0031
0000
0010
0100
1000
0001
0001
,
0200
0000
0000
0320
0000
0000
2030
0000
0000
0000
3100
0000
0010
0000
0001
0000
,
1001
0101
1010
1001
,
1000
1000
0100
0010
0001
0001
0100
0020
,
0000
1030
0010
0100
0020
0001
0130
0001
,
1000
0100
1000
0000
0100
0010
0002
0000
1000
0000
0000
1000
0000
0000
1003
0000
,
0001
0100
0001
0000
0100
0010
2000
0000
0001
0000
0000
0001
0000
0000
3001
0000
,
0020
0230
2300
3020
,
0230
0302
0003
00M0
,
2000
0000
0000
3100
0002
0000
0000
0103
1000
0000
0001
0000
0100
0000
2001
0000
,
0000
0000
3010
0100
0010
0000
2000
0000
0000
0000
3001
0000
0000
0000
0020
0000
,
0001
0230
1000
0310
0001
1000
0001
0100
,
0010
0000
0100
0000
0002
0000
0000
0000
1003
0000
0001
0010
0100
0010
0001
0000
,
1000
0000
0001
0100
0010
0000
0100
0000
0001
0000
1000
0000
0010
0000
1002
0000
,
0000
0000
0013
0100
0010
0000
0002
0000
0000
0000
1003
0000
0000
0000
0001
0000
,
0100
0000
0100
0000
0001
1000
0001
0000
0010
0000
0010
0000
0100
0000
0002
0000
,
0000
0103
0010
0002
0000
1003
1000
1000
,
0002
0000
0000
0103
2000
0000
0000
3100
0010
0100
0001
0000
1000
0000
2001
0000
,
0000
0000
3100
0010
0100
0000
2000
0000
0000
0000
3001
0000
0000
0000
0200
0000
,
0001
0320
1000
0130
0001
1000
0001
0010
,
0100
0000
0010
0000
0002
0000
0000
0000
1003
0000
0001
0100
0010
0100
0001
0000
,
1000
0000
0001
0010
0001
0000
1000
0010
1000
0000
0001
0000
0010
0000
2001
0000
,
0000
0000
3100
0010
0100
0000
2000
0000
0000
0000
3001
0000
0000
0000
0001
0000
,
0100
0000
0100
0000
0001
1000
0001
0010
0100
0010
0001
0000
1000
0000
0100
0000
,
0010
0010
0001
0100
2000
0000
3100
0000
,
1001
0000
0001
0010
0100
0000
0001
0000
0100
0010
0001
0000
1000
0000
0001
0100
,
0010
0010
1000
1000
0100
0000
0110
0000
,
1002
0103
0010
0100
0001
1000
0002
0013
,
0100
0010
0001
1000
0002
0103
0010
0100
,
0001
1000
0002
0013
0100
1000
0001
0100
,
0020
0031
0010
0100
0001
0010
0200
0301
,
0100
0010
0001
0100
0020
0031
0010
0100
,
0002
0000
0000
1003
0000
1001
0000
1100
0000
1001
0000
0011
,
0000
1001
0000
0101
0000
1010
0000
0011
0000
1100
0000
0101
,
0000
1010
0000
0000
0000
0000
0000
0000
0000
0000
0000
0000
,
0000
0000
0000
0000
,
0000
0000
0000
0000
2000
3010
0002
0013
,
1000
0001
0010
0200
0000
0310
0001
0001
,
1000
1000
0000
0010
0100
0001
1000
0001
,
0010
0100
1000
0100
0010
0001
2000
0000
,
3000
0010
0010
0000
2000
3100
0002
0103
,
1000
0001
0100
0020
0000
0130
0001
0001
,
1000
1000
0000
0001
0012
1003
0010
0110
,
0000
0001
0010
0120
0000
0031
0000
1002
,
0000
0203
0000
0000
0300
0000
0000
0000
,
00M0
0000
1002
0013
2001
3010
0100
0001
,
0010
0000
2001
0000
0000
0000
3100
0010
0100
0000
2000
0000
0000
0000
3010
0000
,
0000
0200
1000
0320
0001
0130
0001
1000
,
0001
0000
0010
0000
0100
0000
0010
0000
0002
0000
0000
0000
1003
0000
0001
0100
,
0010
0100
0001
0000
1000
0000
0001
0010
0200
0000
1000
0000
0310
0000
0001
0000
,
0100
0000
2001
0000
0000
0000
3010
0100
0010
0000
2000
0000
0000
0000
3001
0000
,
0000
0000
0010
0000
0100
0000
0100
0000
1000
0001
1000
0000
0010
0000
0010
0000
,
0001
2000
0000
3100
0001
2000
0000
3100
,
0100
0100
1002
0103
2001
3100
0010
0001
,
0100
0000
2001
0000
0000
0000
3010
0100
0010
0000
2000
0000
0000
0000
3100
0000
,
0000
0000
0020
0000
1000
0000
0230
0000
0001
0000
0310
0001
0010
0000
0001
0000
,
1000
0000
0001
0000
0100
0000
0010
0000
2000
0000
0000
0000
3001
0000
1000
0100
,
0010
0100
1000
0000
2001
0000
3010
0000
1002
0000
0013
0000
0100
0000
1000
0000
,
0010
0000
1002
0000
0000
0000
0103
0010
0100
0000
0002
0000
0000
0000
0013
0000
,
0000
0000
0010
0000
0100
0000
0100
0000
1000
0001
1000
0010
0100
0010
1000
0000
,
0001
0100
0010
0010
1000
0100
0002
0000
,
0103
0000
0000
0000
1001
0000
1000
0010
0100
0000
1000
0000
0100
0010
1000
0000
,
0001
0000
1000
0100
0010
0000
0010
0000
0001
0000
0001
0000
0100
0000
0000
0000
,
0110
0000
0000
0000
1001
0000
0001
0010
0100
0000
0001
0000
0100
0010
0001
0000
,
1000
0000
0001
0100
0010
0000
0010
0000
1000
0000
1000
0000
0100
0000
0000
0000
,
0110
0000
0000
0000
1001
0000
1000
0010
0100
0000
1000
0000
0100
0010
1000
0000
,
0001
0000
1000
0100
0010
0000
0010
0000
0001
0000
0100
0000
2000
0000
0002
0000
,
3003
0000
1001
0000
0000
0000
0000
0110
,
0000
0000
1002
0000
0000
0000
0013
0100
1000
0000
1001
0000
0001
0000
0100
0000
,
0010
2010
0000
3001
0010
2001
0000
3100
,
0012
0000
0000
0000
0000
0000
0103
0000
0000
2010
0000
0000
0000
0000
0000
3100
0000
0000
0011
0000
0000
0000
1001
0000
,
0000
0101
0000
1100
0000
1001
0000
1010
0000
0011
0000
1001
,
0000
0101
0000
1100
0000
1001
0000
1010
0000
0000
0000
0000
,
1001
0000
0000
0000
;
