#VERSION:0.83;
#TITLE:THATS WHAT I WANT;
#SUBTITLE:;
#ARTIST:Lil Nas X;
#TITLETRANSLIT:;
#SUBTITLETRANSLIT:;
#ARTISTTRANSLIT:;
#GENRE:;
#ORIGIN:;
#CREDIT:;
#BANNER:;
#BACKGROUND:;
#PREVIEWVID:;
#JACKET:;
#CDIMAGE:;
#DISCIMAGE:;
#LYRICSPATH:;
#CDTITLE:;
#MUSIC:THATS WHAT I WANT.ogg;
#OFFSET:0.454638;
#SAMPLESTART:38.433998;
#SAMPLELENGTH:15.000000;
#SELECTABLE:YES;
#BPMS:0.000=176.000,
184.000=88.000,
200.000=176.000;
#STOPS:;
#DELAYS:;
#WARPS:;
#TIMESIGNATURES:0.000=4=4;
#TICKCOUNTS:0.000=4;
#COMBOS:0.000=1;
#SPEEDS:0.000=1.000=0.000=0;
#SCROLLS:0.000=1.000,
107.000=0.875,
108.000=0.750,
116.000=1.000,
180.500=0.875,
181.000=0.750,
181.500=0.625,
182.000=0.500,
184.000=1.000,
198.000=1.250,
198.500=1.500,
199.000=1.750,
199.500=2.000,
200.000=1.000;
#FAKES:;
#LABELS:0.000=Song Start;
#BGCHANGES:;
#KEYSOUNDS:;
#ATTACKS:
;

//---------------dance-single - ----------------
#NOTEDATA:;
#CHARTNAME:;
#STEPSTYPE:dance-single;
#DESCRIPTION:;
#CHARTSTYLE:;
#DIFFICULTY:Hard;
#METER:12;
#RADARVALUES:0.496368,0.506709,0.163785,0.678537,0.005849,297.000000,283.000000,14.000000,58.000000,0.000000,0.000000,0.000000,0.000000,0.000000,0.496368,0.506709,0.163785,0.678537,0.005849,297.000000,283.000000,14.000000,58.000000,0.000000,0.000000,0.000000,0.000000,0.000000;
#CREDIT:;
#DISPLAYBPM:0.000000:176.000000;
#NOTES:
// measure 0
0000
0000
0000
0000
,  // measure 1
0000
0000
0000
0000
,  // measure 2
0000
0000
0000
0000
,  // measure 3
0000
0000
0000
0000
,  // measure 4
0000
0000
0000
0000
,  // measure 5
1000
0000
0010
1000
0001
0000
1000
0001
,  // measure 6
0100
0001
1000
0001
0010
0000
0010
0000
,  // measure 7
0100
0000
1000
0001
0010
0000
0001
1000
,  // measure 8
0010
0000
0100
0010
0100
0000
0100
0000
,  // measure 9
0010
0000
1000
0100
0010
0000
0001
0100
,  // measure 10
0010
0100
0001
0010
0200
0000
0310
0001
,  // measure 11
1000
0010
0200
0001
0000
0010
0310
1000
,  // measure 12
0001
0010
0200
1000
0000
0010
0310
0000
,  // measure 13
0001
1000
0010
0000
0010
0000
0100
0000
,  // measure 14
0001
0000
0010
0001
0100
0000
0100
0000
,  // measure 15
0010
1000
0001
0000
0100
0000
0010
0100
,  // measure 16
0001
0010
0100
1000
0100
0000
0100
0000
,  // measure 17
0010
0001
1000
0001
0100
0001
1000
0010
,  // measure 18
0002
0000
1003
0100
0002
0000
1003
0100
,  // measure 19
0001
0100
2000
0001
0000
3001
0001
0100
,  // measure 20
1000
0100
0002
1000
0000
1000
1003
0000
,  // measure 21
0002
0000
1003
0001
0000
0001
1000
0010
,  // measure 22
0200
0000
0310
1000
0200
0000
1300
0001
,  // measure 23
0020
0000
0130
0010
0000
0010
0001
1000
,  // measure 24
0020
0000
1030
0100
0020
0000
0031
0100
,  // measure 25
0020
0000
1030
0010
0000
0010
0100
0001
,  // measure 26
0020
0000
0130
1000
0020
0000
1030
0100
,  // measure 27
0020
0000
0031
0200
0000
1300
0100
0010
,  // measure 28
1000
1000
0002
0013
,  // measure 29
0200
0000
0010
1000
0000
1000
0010
0000
,  // measure 30
0320
0100
0031
0000
1000
0010
0001
0020
,  // measure 31
0100
0000
1000
0100
0000
0130
0001
0010
,  // measure 32
0100
1000
0001
0000
2000
0000
3001
0000
,  // measure 33
0200
0000
0010
0001
0000
0001
0010
0000
,  // measure 34
0320
0100
1030
0000
0001
0010
1000
0020
,  // measure 35
0100
0000
0001
0100
0000
0130
1000
0001
,  // measure 36
0100
0010
0100
0000
0100
0000
0100
0001
,  // measure 37
0020
0000
2030
0000
3002
0000
0103
1000
,  // measure 38
0020
0000
0032
0000
2003
0000
3100
0001
,  // measure 39
0010
1100
0010
0101
,  // measure 40
2002
0000
3003
1000
0002
0000
0013
0000
,  // measure 41
0200
0000
0010
1000
0000
1000
0010
0000
,  // measure 42
0320
0100
0031
0000
0001
0100
1000
0200
,  // measure 43
0010
0000
0001
0010
0000
0010
0301
0000
,  // measure 44
0011
1100
1010
0101
,  // measure 45
0000
0000
0000
0000
,  // measure 46
0002
0000
0023
0000
,  // measure 47
0230
0000
0000
0000
2300
0000
3001
1000
,  // measure 48
0020
0000
0230
0000
,  // measure 49
0302
0000
0000
0000
0000
0000
0000
0000
2003
0000
0010
0000
0010
0000
3010
1000
,  // measure 50
0200
0000
0302
0000
2003
0000
3010
0001
,  // measure 51
0200
0000
2300
0000
3002
0000
0013
1000
,  // measure 52
0100
0011
0100
1010
,  // measure 53
2002
0000
3003
0001
2000
0000
3010
0000
,  // measure 54
0200
0000
0010
1000
0000
1000
0010
0000
,  // measure 55
0320
0100
1030
0000
0001
0010
1000
0020
,  // measure 56
0100
0000
0001
0100
0000
0100
0031
0000
,  // measure 57
1100
1010
0101
0011
;

//---------------dance-double - ----------------
#NOTEDATA:;
#CHARTNAME:;
#STEPSTYPE:dance-double;
#DESCRIPTION:;
#CHARTSTYLE:;
#DIFFICULTY:Hard;
#METER:12;
#RADARVALUES:0.472971,0.506709,0.163785,0.655139,0.005849,283.000000,269.000000,14.000000,56.000000,0.000000,0.000000,0.000000,0.000000,0.000000,0.472971,0.506709,0.163785,0.655139,0.005849,283.000000,269.000000,14.000000,56.000000,0.000000,0.000000,0.000000,0.000000,0.000000;
#CREDIT:;
#DISPLAYBPM:0.000000:176.000000;
#NOTES:
00000000
00000000
00000000
00000000
,
00000000
00000000
00000000
00000000
,
00000000
00000000
00000000
00000000
,
00000000
00000000
00000000
00000000
,
00000000
00000000
00000000
00000000
,
00010000
00000000
10000000
01000000
00010000
00000000
00001000
00000100
,
00000001
00001000
00000100
00001000
00000001
00000000
00000001
00000000
,
00000010
00000000
00000001
00000100
00001000
00000000
00010000
00100000
,
10000000
00000000
01000000
00100000
01000000
00000000
01000000
00000000
,
10000000
00000000
00100000
01000000
00010000
00000000
00100000
01000000
,
00010000
00001000
00000010
00000100
00001000
00000000
00000001
00000100
,
00001000
00010000
00001000
00000010
00000000
00000010
00000001
00000100
,
00001000
00010000
00001000
00000010
00000000
00000010
00000001
00000000
,
00000010
00000001
00000100
00000000
00000100
00000000
00001000
00000000
,
00010000
00000000
01000000
10000000
00010000
00000000
00010000
00000000
,
10000000
00000000
01000000
00000000
01000000
00000000
00100000
00001000
,
00010000
00001000
00000100
00000001
00001000
00000000
00001000
00000000
,
00000001
00000010
00000100
00000001
00000100
00000010
00000001
00000010
,
00002000
00000000
00013000
01000000
20000000
00000000
30100000
10000000
,
01000000
00010000
00001000
00000020
00000000
00000130
00000010
00000001
,
00000100
00001000
00010000
00200000
00000000
10300000
00010000
00000000
,
00100000
00200000
00302000
00023000
,
00030200
00000010
00000001
00001300
,
00000100
00000200
00020300
00032000
,
02003000
10000000
03020000
00130000
,
00100000
00200000
00302000
00023000
,
00030020
00000000
00000001
00000000
00002030
00000000
00003100
00000010
,
00000002
00000000
00000103
00002000
00000000
00013000
01000000
10000000
,
00100000
00100000
00020000
00031000
,
00200000
00000000
01000000
01000000
00000000
00001000
00301000
00000000
,
00002000
00010000
00100000
00000000
01003000
00100000
10000000
02000000
,
00100000
00000000
00010000
00010000
03000000
01000000
00100000
00001000
,
00010000
00000000
00002000
00013000
,
00000200
00000000
00000010
00000010
00000000
00010000
00010300
00000000
,
00020000
00001000
00000010
00000000
00030100
00000010
00000001
00000200
,
00000010
00000000
00001000
00001000
00000300
00000100
00000010
00010000
,
00001000
00000000
00010000
00001000
00010000
00000000
00001000
00000100
,
00000002
00000000
00000023
00000000
00002030
00000000
00013000
01000000
,
20000000
00000000
30200000
00000000
00320000
00000000
00031000
00000100
,
00000001
00000110
00001000
00010100
,
00011000
00000000
00000000
00001000
00020000
00000000
00031000
00000000
,
02000000
00000000
00100000
00100000
00000000
00001000
03001000
00000000
,
00002000
00010000
01000000
00000000
00103000
01000000
10000000
00200000
,
01000000
00000000
00010000
00010000
00000000
01000000
01300000
00000000
,
10100000
00110000
00101000
00011000
,
00000000
00000000
00000000
00000000
,
00002000
00000000
00023000
00000000
,
00030200
00000000
00000000
00000000
00000320
00000000
00000031
00001000
,
00000020
00000000
00000230
00000000
,
00002300
00000000
00000000
00000000
00000000
00000000
00000000
00000000
00023000
00000000
00001000
00000000
00031000
00000000
00010000
00100000
,
20000000
00000000
32000000
00000000
03020000
00000000
00031000
00000010
,
00000002
00000000
00000203
00000000
00002300
00000000
00013000
00100000
,
10000000
01100000
00010000
00101000
,
00011000
00000000
00000000
00010000
00002000
00000000
00013000
00000000
,
00000020
00000000
00000100
00000100
00000000
00010000
00010030
00000000
,
00020000
00001000
00000010
00000000
00030100
00000010
00000001
00000200
,
00000010
00000000
00001000
00001000
00000000
00000010
00000310
00000000
,
00000101
00001100
00010100
00011000
;
