#TITLE:TELL ME ANSWER;
#SUBTITLE:;
#ARTIST:kinoshita feat. Kagamine Rin;
#TITLETRANSLIT:;
#SUBTITLETRANSLIT:;
#ARTISTTRANSLIT:;
#GENRE:;
#CREDIT:;
#BANNER:TELL ME ANSWER-bn.png;
#BACKGROUND:TELL ME ANSWER-bg.png;
#LYRICSPATH:;
#CDTITLE:;
#MUSIC:TELL ME ANSWER.ogg;
#OFFSET:0.000000;
#SAMPLESTART:42.470001;
#SAMPLELENGTH:15.000000;
#SELECTABLE:YES;
#BPMS:0.000000=192.000000
;
#STOPS:
;
#BGCHANGES:1.800=TELL ME ANSWER.mp4=1.000=0=0=0=StretchNoLoop==CrossFade==,
99999=-nosongbg-=1.000=0=0=0 // don't automatically add -songbackground-
;
#KEYSOUNDS:;
#ATTACKS:;

//---------------dance-single - ----------------
#NOTES:
     dance-single:
     :
     Beginner:
     4:
     0.160220,0.309012,0.109801,0.031372,0.000000,143.000000,129.000000,14.000000,4.000000,0.000000,0.000000,0.160220,0.309012,0.109801,0.031372,0.000000,143.000000,129.000000,14.000000,4.000000,0.000000,0.000000:
0000
0000
0000
0000
,
0000
0000
0000
0000
,
0000
0000
0000
0000
,
0000
0000
0000
0000
,
0000
0000
0000
0000
,
0000
0000
0000
0000
,
1000
0000
0000
0000
,
0010
0000
0000
0000
,
1000
0000
0000
0000
,
0100
0000
0000
0000
,
0010
0000
0010
0000
,
0010
0000
0000
0000
,
0001
0000
0001
0000
,
0000
0000
0000
0000
,
1000
0000
0000
0000
,
0001
0000
0000
0000
,
0010
0000
0010
0000
,
0010
0000
0000
0000
,
0100
0000
1000
0000
,
0001
0000
0000
0000
,
1000
0000
1000
0000
,
0001
0000
0001
0000
,
0100
0000
0000
0000
,
0100
0000
0000
0000
,
0010
0000
0000
0000
,
1000
0000
0001
0000
,
1001
0000
0000
0000
,
1000
0000
0010
0000
,
0110
0000
0000
0000
,
0001
0000
1000
0000
,
1001
0000
0000
0000
,
0000
0000
0001
0001
,
0001
0000
0000
0000
,
1000
0000
0100
0000
,
0010
0000
0010
0000
,
0010
0000
0010
0000
,
0010
0000
0000
0000
,
0001
0000
0000
0000
,
1000
0000
0000
0000
,
0010
0000
0000
0000
,
0100
0000
0100
0000
,
0100
0000
0000
0000
,
0001
0000
1000
0000
,
0001
0000
1000
0000
,
0100
0000
0000
0000
,
0010
0000
0001
0000
,
0001
0000
1000
0000
,
1000
0000
0001
0000
,
0001
0000
0000
0000
,
0010
0000
0100
0000
,
1000
0000
0000
0000
,
0001
0000
0000
0000
,
0100
0000
0000
0000
,
0010
0000
0000
0000
,
1000
0000
0000
0000
,
0100
0000
0000
0000
,
0010
0000
0000
0000
,
0001
0000
0000
0000
,
0100
0000
0000
0000
,
0001
0000
0000
0000
,
1000
0000
0000
0000
,
0010
0000
0000
0000
,
1000
0000
0000
0000
,
0100
0000
0000
0000
,
0010
0000
0000
0000
,
0001
0000
0001
0000
,
1001
0000
0000
0000
,
1000
0000
0100
0000
,
0110
0000
0000
0000
,
0010
0000
0001
0000
,
1001
0000
0000
0000
,
1000
0000
0100
0000
,
0010
0000
0000
0000
,
0001
0000
1001
0000
,
1000
0000
1001
0000
,
2002
0000
0000
0000
,
0000
0000
3003
0000
,
2002
3003
0000
0000
,
1000
0000
0010
0000
,
0100
0000
0010
0000
,
1000
0000
0001
0000
,
0001
0000
1000
0000
,
1000
0000
0100
0000
,
0010
0000
0010
0000
,
0001
0000
1000
0000
,
0001
0000
0000
0000
,
0010
0000
0100
0000
,
0100
0000
1000
0000
,
1000
0000
0001
0000
,
0001
0000
0000
0000
,
1001
0000
1001
0000
,
1001
0000
0000
0000
,
1000
0000
0000
0000
,
0100
0000
0000
0000
,
0010
0000
0000
0000
,
0001
0000
0000
0000
,
0100
0000
0000
0000
,
0010
0000
0000
0000
,
1000
0000
1001
0000
;

//---------------dance-single - ----------------
#NOTES:
     dance-single:
     :
     Easy:
     7:
     0.343970,0.463519,0.329404,0.078430,0.003921,307.000000,265.000000,42.000000,10.000000,0.000000,0.000000,0.343970,0.463519,0.329404,0.078430,0.003921,307.000000,265.000000,42.000000,10.000000,0.000000,0.000000:
0000
0000
0000
0000
,
0000
0000
0000
0000
,
0000
0000
0000
0000
,
0000
0000
0000
0000
,
0000
0000
0000
0000
,
0000
0000
0000
0000
,
1000
0000
0001
0000
,
0010
0100
0010
0100
,
0010
0000
0001
0000
,
0100
0001
0100
0000
,
1001
0000
0001
0000
,
1000
0000
1000
0000
,
0100
0000
0000
0000
1000
0000
0000
0001
,
0000
0001
0000
0001
0000
0000
1000
0000
,
0010
0000
0100
0001
,
0010
0000
0100
0010
,
0001
1000
0001
0000
,
1000
0000
0000
0000
0010
0000
0000
0000
0100
0000
0000
0000
0200
0300
0000
0000
,
0110
0000
1001
0000
,
1000
0100
0001
0000
,
0110
0000
0000
0000
1001
0000
0000
1000
,
0000
1000
0000
1000
0000
0000
0001
0000
,
0100
0000
0010
0100
,
0001
0000
1000
0100
,
0010
0001
1000
0000
,
0001
0100
0001
0100
,
0101
0000
0110
0000
,
1010
1000
0001
1000
,
1100
0000
0110
0000
,
0011
0001
0100
0010
,
0110
0000
1001
0000
,
1100
0000
0001
0001
,
0011
0000
0000
0000
1100
0000
0000
1000
,
0000
0001
0100
0000
,
0010
1000
0010
1000
,
0001
0010
0001
0010
,
0100
1000
0100
1000
,
0001
0000
1000
0001
,
0010
0000
0100
0010
,
0001
0000
1000
0010
,
0100
0000
0010
0000
,
1000
0000
0001
1000
,
0100
0010
0100
0010
,
0001
1000
0001
1000
,
0010
0100
0010
1000
,
0001
0000
1000
1000
,
1000
0000
0001
0001
,
0001
0000
1000
0100
,
2200
3300
0000
0000
,
1001
1001
0110
1001
,
1001
0000
1000
0000
,
0100
0000
0010
0001
,
1000
0000
0010
0100
,
0001
0000
1000
0100
,
0010
0000
0001
0000
,
1000
0010
1000
0000
,
0001
0100
0001
0000
,
0010
0000
0100
0000
,
0010
0000
0001
1000
,
0010
0000
0100
0001
,
1000
0100
1000
0001
,
0010
0000
0002
0000
,
1003
0000
2000
0000
,
3002
0003
0020
0030
,
0200
0000
2300
0000
,
0000
0000
0000
3000
,
1001
0000
0110
0000
,
1001
0001
0010
0100
,
1100
0000
0011
0000
,
0001
1000
0001
1000
,
1010
0000
0101
0000
,
1010
0000
0001
0001
,
1001
0000
0000
0000
0110
0000
0000
1000
,
0000
0000
1000
0000
1000
0000
0000
0001
,
0000
0001
0001
0000
,
1000
0000
0100
0000
,
0010
0000
0001
0000
,
1001
0000
0000
0000
,
1000
0010
0100
0001
,
1001
0000
0010
0100
,
0110
0000
1000
0001
,
1001
0000
0011
0000
,
1100
0000
0002
0003
,
1000
0010
1000
0010
,
0100
0001
0100
0001
,
0010
0100
1000
0100
,
0010
0000
0001
1000
,
1001
0000
0001
0100
,
0101
0000
1000
0100
,
1100
0000
0100
0000
,
0010
0001
0010
0001
,
1000
0000
0010
0000
,
1000
0100
1000
0100
,
0010
0000
0001
0000
,
0100
0001
0100
0001
,
1000
0000
0100
0000
,
0010
0100
1000
0001
,
0100
0000
0010
0000
,
1000
0001
1001
0000
;

//---------------dance-single - ----------------
#NOTES:
     dance-single:
     :
     Medium:
     10:
     0.554609,0.618025,0.415677,0.164702,0.000000,495.000000,442.000000,53.000000,21.000000,0.000000,0.000000,0.554609,0.618025,0.415677,0.164702,0.000000,495.000000,442.000000,53.000000,21.000000,0.000000,0.000000:
0000
0000
0000
0000
,
0000
0000
0000
0000
,
0000
0000
0000
0000
,
0000
0000
0000
0000
,
0000
0000
0000
0000
,
0000
0000
0000
0000
,
0001
0100
0001
0000
1000
0100
1000
0000
,
0010
0010
0100
0100
,
0001
0010
0001
0000
1000
0010
1000
0000
,
0100
0010
0001
0010
0100
0000
0110
0000
,
1001
0000
0000
1000
0001
0000
1000
0000
,
0010
0000
0000
0100
0010
0000
0000
0000
,
1000
0000
0000
0100
1000
0000
0000
0010
,
0000
1000
0000
0100
0000
0000
0010
0000
,
0002
0000
0003
0000
1000
0001
1000
0001
,
2000
0000
3000
0000
0100
0000
0010
0100
,
0000
1000
0001
0000
0100
0000
0010
1000
,
0000
0001
0100
0000
0010
0000
2000
3000
,
0001
0010
0000
0100
0000
1000
0000
0001
,
0000
0100
0000
0010
0000
1000
0000
0001
,
1000
0001
0000
0010
0000
0100
0000
1002
,
0000
1000
0000
1003
0000
1000
0001
0000
,
0010
0000
0100
0000
0010
0001
1000
0001
,
0100
0000
0010
0000
1000
0001
1000
0000
,
0100
0010
0001
1001
,
1000
0010
0100
0110
,
1001
0000
1000
0100
1000
0000
0010
1000
,
0010
0100
0001
0010
,
0011
0000
0001
0010
0001
0000
0100
0001
,
2000
0001
0010
3010
,
0101
0000
1000
0100
1000
0000
0010
0100
,
0010
1000
1001
0110
,
1001
0000
0001
0010
0001
0000
1000
0100
,
0000
0010
0001
1000
0002
0000
1003
0000
,
0010
0100
0010
0100
,
0010
0000
1000
0000
0001
0010
0001
0010
,
0100
1000
1001
1020
,
0130
0000
0001
0000
0010
0100
0010
0100
,
0010
0000
0001
0000
0100
0010
0100
0010
,
0100
0000
0001
0000
1000
0100
0010
0001
,
1000
0000
0000
1000
0001
0000
0000
0001
,
0100
0000
0000
0100
0020
0000
1030
0000
,
0001
0010
0001
0000
1000
0010
1000
0000
,
0100
0010
0100
0000
1100
0000
1001
0000
,
0001
0100
1000
0100
,
0001
1000
1001
0110
,
1001
0001
0011
1100
,
0011
0000
1000
0010
1000
0000
0101
0000
,
1010
0000
1000
0000
0001
0000
0010
0100
,
1000
1100
1001
1010
,
0110
0000
0100
0001
0000
0100
0000
0001
,
1000
0000
0100
1000
0000
0100
0010
0100
,
0010
0000
0001
1000
0000
0001
1000
0020
,
0000
0000
0130
0010
0000
1000
0001
0000
,
1001
0000
1000
0000
0100
0010
0001
0000
,
1000
0010
0100
0001
,
0010
0000
0001
1000
0000
0100
0000
0010
,
0100
0000
1000
0001
0100
0000
0001
0010
,
0100
0000
0010
0000
0001
1000
0001
1000
,
0010
0000
0100
0000
0001
1000
0001
1000
,
0100
0010
0010
0001
,
2000
0000
3000
0000
0020
0000
0000
1000
,
2030
0000
0000
0000
3002
0000
0000
0010
,
0023
0130
0200
1300
,
2000
0000
3002
0000
,
1000
1000
1000
1003
,
1001
0000
1000
0100
0010
0000
0100
1000
,
0001
1000
0001
0000
0100
0000
0010
0000
,
0110
0000
0100
0001
1000
0000
0100
0000
,
0010
0001
0010
0001
1000
0000
0001
0000
,
0101
0000
0100
0010
1000
0000
0100
1000
,
0001
1000
1010
0110
,
0101
0000
1000
0000
0100
0000
0010
0100
,
0000
0010
0100
0010
0100
0000
0000
1001
,
0000
0001
1000
0001
1000
0000
0000
0000
,
0002
0013
0020
0031
,
2000
0000
3010
0000
0100
0010
0100
0010
,
1000
0000
0000
0000
,
0001
0001
1000
1000
,
1001
0000
0001
0000
0010
0100
0010
0001
,
1000
0000
0010
0000
0100
0010
0100
0001
,
1000
0000
0100
1000
0100
0000
0010
0001
,
0010
0100
2000
3001
,
0000
0110
1001
0101
,
0100
0010
0100
0000
0001
1000
0001
1000
,
0001
0000
1000
0000
0100
0010
0001
0000
,
1000
0010
0110
1001
,
0110
0000
1001
0110
,
1001
0000
0011
1100
,
0011
0001
1000
0001
,
0101
1010
0101
1010
,
1000
0100
1000
0000
0010
0100
0010
0000
,
1000
0001
1000
0000
0001
0000
0010
0000
,
0001
1000
0001
0000
0010
0100
0010
0000
,
0001
0100
0001
0000
1000
0000
1001
0000
,
0001
0010
0100
0000
0010
0001
0010
0000
,
0100
0010
0001
0000
1000
0000
0010
0000
,
0100
0010
1000
0000
0010
0100
0010
0000
,
1000
0001
1000
0001
1000
0000
0000
0000
;

//---------------dance-single - ----------------
#NOTES:
     dance-single:
     :
     Hard:
     13:
     0.667771,0.696160,0.368619,0.454891,0.094115,596.000000,549.000000,47.000000,58.000000,0.000000,0.000000,0.667771,0.696160,0.368619,0.454891,0.094115,596.000000,549.000000,47.000000,58.000000,0.000000,0.000000:
// measure 0
0000
0000
0000
0000
,  // measure 1
0000
0000
0000
0000
,  // measure 2
0000
0000
0000
0000
,  // measure 3
0000
0000
0000
0000
,  // measure 4
0000
0000
0000
0000
,  // measure 5
0000
0000
0000
0000
,  // measure 6
1000
0001
0010
0100
0010
0001
1000
0010
,  // measure 7
0100
0000
0010
0000
1000
0000
0001
0000
0010
0000
0000
0100
1000
0000
0001
0000
,  // measure 8
0000
0001
0100
0010
1000
0001
0010
0100
,  // measure 9
1000
0000
0100
0000
0010
0000
0001
0000
1000
0000
0000
1000
0020
0000
0000
0000
,  // measure 10
0130
0000
0001
1000
0002
0000
0013
0010
,  // measure 11
0000
0100
0100
1000
0001
0000
0101
0000
,  // measure 12
0100
0000
0000
0000
0001
0000
1000
0000
0200
0000
0000
0000
1300
0000
0040
0030
,  // measure 13
0000
0000
0400
0300
0000
0000
0004
0003
0000
0000
1000
0000
0010
0000
1000
0000
,  // measure 14
0100
0000
0110
0010
0001
1000
0001
0100
,  // measure 15
0010
0000
0110
0000
0100
0001
1000
0100
,  // measure 16
0000
0100
1000
0001
0100
0000
0100
0010
,  // measure 17
0000
0010
1000
0001
0010
0000
2000
3000
,  // measure 18
0010
0001
0000
1000
0000
0001
0100
0010
,  // measure 19
0000
0100
0000
0001
0000
1000
0100
1000
,  // measure 20
0000
0000
0010
0000
0000
0000
0100
0000
0010
0000
1000
0000
0002
0000
0040
0030
,  // measure 21
0000
0000
4000
3000
0000
0000
0400
0303
0000
0000
0100
0000
0001
0000
1000
0000
,  // measure 22
0010
1000
0000
0001
0010
0100
1000
0100
,  // measure 23
0010
0001
0000
1000
0010
0100
0010
1000
,  // measure 24
0000
1000
0100
1000
0010
0100
0010
1000
,  // measure 25
0000
0001
1000
0001
0010
0100
0010
0100
,  // measure 26
0110
0000
0010
0001
0100
0000
0100
0001
,  // measure 27
0010
0100
2000
0000
3020
0000
0032
0000
,  // measure 28
0013
0000
0010
1000
0100
0000
0100
1000
,  // measure 29
0010
0100
0001
0100
0010
0000
0110
0000
,  // measure 30
1010
0000
1000
0100
0001
0000
0001
0100
,  // measure 31
0010
0000
0001
1000
1001
0000
0101
0000
,  // measure 32
1010
0000
0010
1000
0100
1000
0100
0020
,  // measure 33
0000
0031
1000
0001
0020
0000
0031
0000
,  // measure 34
1000
0001
0100
0001
1000
0001
0100
0001
,  // measure 35
0010
0000
0100
0000
1000
0000
0000
0000
0001
0000
1000
0001
1000
0000
0001
0000
,  // measure 36
2000
0010
0001
3100
,  // measure 37
1000
0000
0000
0100
1000
0000
0001
0000
0100
0000
0010
0000
0100
0000
0001
0000
,  // measure 38
0010
0000
0100
1000
0001
1000
0100
1000
,  // measure 39
0010
0000
0100
0001
0010
0100
1000
0100
,  // measure 40
0010
0000
0001
1000
0010
0000
1000
0001
,  // measure 41
0010
0000
0000
0000
0100
0000
1000
0000
0001
1000
0001
1000
0001
0000
0000
0000
,  // measure 42
1000
0010
0100
0000
1000
0100
0001
0000
,  // measure 43
0010
0100
0010
0000
1000
0010
0001
1000
,  // measure 44
0001
0100
0020
0000
0031
0010
1000
0001
,  // measure 45
1000
0010
0110
1010
,  // measure 46
1002
0013
0110
1100
,  // measure 47
2001
0000
3010
1000
1010
0000
0101
0000
,  // measure 48
2010
0000
0001
0000
0100
0000
3001
0010
,  // measure 49
0011
1001
0102
1000
,  // measure 50
0023
0000
0130
0200
0000
2300
0000
3001
,  // measure 51
0002
0000
0103
0020
0000
1030
0010
0100
,  // measure 52
0002
0000
1003
0200
0000
1300
0001
0020
,  // measure 53
0000
0000
0031
2000
0000
3010
1000
0001
,  // measure 54
0200
0000
0301
0000
1000
0100
0010
0000
,  // measure 55
0012
0000
0000
0000
1003
0000
0000
0000
0001
0000
1000
0001
1000
0000
0100
0000
,  // measure 56
2000
0000
3010
0200
0000
0302
0000
2003
,  // measure 57
0000
0000
0100
0000
3100
0000
0000
0000
1000
0001
1000
0001
1000
0000
0010
0000
,  // measure 58
2000
0000
0000
3000
0001
0010
0100
0001
,  // measure 59
0200
0000
0000
1300
0001
0100
1000
0100
,  // measure 60
0020
1030
0002
0013
,  // measure 61
0200
0000
0000
0000
0320
0000
0000
0031
,  // measure 62
0002
0000
0000
0000
2003
0000
0000
3010
,  // measure 63
0020
0130
0002
0013
,  // measure 64
0200
0000
2300
0000
,  // measure 65
3001
1000
0010
0100
0001
0100
0010
1000
,  // measure 66
0001
0000
0001
0010
1000
0000
1000
0010
,  // measure 67
0001
0010
0200
0000
2300
0000
3020
0000
,  // measure 68
1030
0000
0001
0100
1000
0000
1000
0100
,  // measure 69
0010
0100
0001
1000
0100
0000
0110
0000
,  // measure 70
1001
0000
1000
0010
0001
0000
0001
0010
,  // measure 71
1000
0000
0001
0100
0101
0000
1100
0000
,  // measure 72
0101
0000
0000
0000
0001
0000
0010
0000
0100
0000
0000
0100
1000
0000
0002
0000
,  // measure 73
0000
0103
0010
1000
0100
0000
0000
2100
,  // measure 74
0000
0001
0001
0001
3001
0000
0000
0000
,  // measure 75
1000
0100
1000
0100
,  // measure 76
0010
0000
0001
0000
1000
0010
1000
0010
,  // measure 77
0220
0330
0000
0000
,  // measure 78
1000
0000
0000
0010
0100
0000
0001
0000
1000
0000
0000
0100
0010
0000
0001
0000
,  // measure 79
1000
0001
0000
1000
0100
0010
1000
0010
,  // measure 80
0100
1000
0000
0001
0100
0010
0001
0010
,  // measure 81
1000
0001
0000
1000
0100
0001
0000
1000
,  // measure 82
0010
0000
0001
0000
0000
0000
1000
0000
0001
1000
0001
1000
0001
0000
0010
0000
,  // measure 83
0000
1100
0011
2001
,  // measure 84
3010
0100
0020
0000
0031
0010
1000
0001
,  // measure 85
1000
0100
0001
0000
0100
1000
0001
0100
,  // measure 86
1000
0000
0100
0010
0110
0000
0101
0000
,  // measure 87
1002
0013
0110
1100
,  // measure 88
2001
0000
3010
0100
0110
0000
1010
0000
,  // measure 89
0012
0000
0000
0000
1000
0000
0000
0000
0103
0000
0000
0001
1000
0000
0100
0000
,  // measure 90
1100
1001
1010
0101
,  // measure 91
1001
1000
0010
0100
0010
1000
0001
0010
,  // measure 92
0100
0000
0010
0000
0001
0000
1000
0000
0010
0000
0000
0100
0001
0000
1000
0000
,  // measure 93
0000
1000
0100
0010
0001
1000
0010
0100
,  // measure 94
0010
0000
1000
0000
0001
0000
0010
0000
0100
0000
0000
0100
2000
0000
0000
0000
,  // measure 95
3001
0100
0010
0100
1000
0100
0010
0100
,  // measure 96
0001
0000
1000
0000
0001
0000
0010
0000
0100
0000
0000
1000
0001
0000
0010
0000
,  // measure 97
0000
0010
0100
0010
1000
0010
0100
0010
,  // measure 98
0001
0100
0010
1000
2002
3003
0000
0000
;

//---------------dance-double - ----------------
#NOTES:
     dance-double:
     :
     Challenge:
     14:
     0.723792,0.735767,0.345090,0.470577,0.149016,646.000000,602.000000,44.000000,60.000000,0.000000,0.000000,0.723792,0.735767,0.345090,0.470577,0.149016,646.000000,602.000000,44.000000,60.000000,0.000000,0.000000:
00000000
00000000
00000000
00000000
,
00000000
00000000
00000000
00000000
,
00000000
00000000
00000000
00000000
,
00000000
00000000
00000000
00000000
,
00000000
00000000
00000000
00000000
,
00000000
00000000
00000000
00000000
,
00010000
00001000
00100000
00010000
00100000
01000000
00100000
10000000
,
00100000
00000000
01000000
00000000
00100000
00000000
00010000
00000000
00100000
00000000
00001000
00010000
00000100
00000000
00010000
00000000
,
00000000
00010000
00000010
00001000
00000010
00000100
00000010
00000001
,
00000010
00000000
00001000
00000000
00000001
00000000
00000100
00000000
00000010
00000000
00001000
00000010
00020000
00000000
00000000
00000000
,
00031000
00000000
00010000
01000000
00100000
00010000
10000000
00010000
,
00000000
00010000
10000000
00100000
00010000
00001000
00000100
00000000
,
00000001
00000000
00000000
00000000
00001000
00000000
00000100
00000000
00010000
00000000
00001000
00000000
00000010
00000000
00000004
00000003
,
00000000
00000000
00000400
00000300
00000000
00000000
00004000
00003000
00000000
00000000
00000100
00000000
00000001
00000000
00001000
00000000
,
00000010
00000000
00000010
00010000
00001000
00010000
00000100
00000010
,
00000001
00000000
00000100
00000000
00001000
00010000
00100000
10000000
,
00000000
10000000
00010000
00100000
00001000
00000000
00001000
01000000
,
00000000
01000000
00100000
00010000
00001000
00000000
00000220
00000330
,
00000001
00000010
00000000
00000010
00000100
00000010
00001000
00000010
,
00000000
00000010
00000001
00001000
00000010
00010000
00001000
01000000
,
00000000
00000000
01000000
00000000
00100000
00000000
01000000
00000000
00001000
00000000
00010000
00000000
01000000
00000000
40000000
30000000
,
00000000
00000000
00400000
00300000
00000000
00000000
00040000
00030000
00000000
00000000
00100000
00000000
10000000
00000000
00010000
00000000
,
02000000
00000000
03001000
00010000
00000100
00001000
00000001
00000100
,
00001000
00000000
00000100
00000001
00001000
00000100
00000010
00000001
,
00000000
00000001
00000010
00000100
00010000
00001000
00010000
01000000
,
00000000
01000000
10000000
00010000
10000000
00100000
00010000
00001000
,
00012000
00000000
00003010
00000100
00000210
00000000
00010300
00000010
,
00010010
00010000
00002000
00000000
00003200
00000000
00000301
00000010
,
00000021
00000000
00001030
00010000
00021000
00000000
01030000
00100000
,
00010000
10000000
00100000
00010000
00001000
00000000
00010000
00100000
,
01200000
00000000
10300000
01000000
01200000
00000000
00301000
00010000
,
00010020
00000000
00000130
00001000
00011000
00000000
00101000
00000000
,
00020100
00000000
00030010
00000100
00000102
00000000
00000013
00000100
,
00000000
00000100
00000010
00000001
00002000
00000000
00003010
00000000
,
00010000
00001000
00100000
00001000
00010000
00001000
00100000
00001000
,
00010000
00000000
01000000
00000000
10000000
00000000
00000000
00000000
01000000
00000000
10000000
01000000
00100000
00000000
01000000
00000000
,
10000000
00010000
02000000
00000000
03100000
00010000
00002000
00000000
,
00003100
00000000
00000010
00001000
00000010
00000000
00000100
00000000
00000001
00000000
00001000
00000010
00001000
00000000
00000001
00000000
,
00000100
00000000
00000100
00001000
00010000
00100000
01000000
00010000
,
10000000
00000000
10000000
01000000
00010000
00001000
00010000
00000100
,
00001000
00000000
00001000
00000001
00000100
00000000
00000100
00000010
,
00000001
00000000
00000000
00000000
00000001
00000000
00000010
00000000
00000100
00000001
00000100
00000001
00001000
00000000
00000000
00000000
,
00000100
00010000
00002000
00000000
01003000
00010000
00200000
00000000
,
10300000
00100000
02000000
00000000
03010000
00001000
00000010
00001000
,
00020000
00030010
00002010
00003200
,
00020300
00031000
00101000
00011000
,
02010000
03001000
00001100
00011000
,
00001020
00000000
00010030
00001000
00011000
00000000
00010100
00000000
,
00101000
00000000
00000000
00001000
00100000
00000000
00010000
00000000
00100000
00000000
00000000
01000000
00100000
00000000
00010000
00000000
,
00110000
00011000
00001020
00000230
,
00000302
00000000
00000103
00002000
00000000
00023000
00000000
01030000
,
00200000
00000000
01300000
20000000
00000000
30100000
01000000
00100000
,
00020000
00000000
00031000
00020000
00000000
00031000
00000010
00000200
,
00000000
00000000
00000310
00000001
00000000
00000001
00000100
00000000
,
00000010
00000000
00010010
00000000
00010000
00001000
00100000
00000000
,
00210000
00000000
00000000
00000000
01300000
00000000
00000000
00000000
10000000
00000000
01000000
00100000
01000000
00000000
00010000
00000000
,
02000000
00000000
13000000
00200000
00000000
00320000
00000000
00031000
,
00000010
00000000
00000001
00000000
00001000
00000000
00000000
00000000
00000010
00010000
00000010
00010000
00001000
00000000
00100000
00000000
,
02000000
00000000
13000000
00000000
00100000
01000000
00100000
00010000
,
00002000
00000000
00013000
00000100
00000010
00001000
00010000
01000000
,
20000000
31000000
00200000
00301000
,
00010000
00000000
00000000
00000100
00010000
00000000
00001000
00000000
00010000
00000000
00000000
00000010
00010000
00000000
00001000
00000000
,
00021000
00000000
00030100
00000000
00000020
00000000
00000031
00001000
,
00000020
00000130
00002000
00013000
,
01000000
00000000
00000000
00100000
01000000
00000000
10000000
00000000
01000000
00000000
00000000
00100000
01000000
00000000
00010000
00000000
,
00001000
00000010
00000001
00001000
00000001
00000100
00001000
00010000
,
00100000
00100000
00000000
01000000
00001000
00001000
00000000
00010000
,
00000100
00000010
00002000
00000000
00013000
01000000
00100000
00010000
,
01000000
01000000
00000000
00001000
00100000
00100000
00000000
00001000
,
00010000
00000100
00000010
00000100
00000001
00000000
00000101
00000000
,
00000110
00000010
00000000
00000001
00000100
00000100
00000000
00001000
,
00010000
00010000
00000000
00001000
01001000
00000000
01010000
00000000
,
01100000
02000000
00000000
13000000
01000000
00010000
10000000
02000000
,
00000000
03010000
00001000
00000010
00000100
00000000
00000000
00012000
,
00000000
00000000
00100000
00000000
00100000
00000000
00100000
00000000
00103000
00000000
00000000
00000000
00010000
00000000
00100000
00010000
,
10000000
00010000
10000000
00010000
,
01000000
00000000
10000000
00000000
01000000
00100000
01000000
00100000
,
10010000
00000000
00000000
00000000
,
00010000
00000000
01000000
00010000
01000000
00000000
00100000
10000000
00100000
00000000
10000000
00000000
01000000
00000000
00010000
00000000
,
00001000
00000000
00000100
00000010
00000100
00000001
00000010
00001000
,
00010000
00000000
00010000
00000100
00000010
00001000
00010000
01000000
,
00100000
00000000
01000000
00010000
00001000
00000000
00000100
00001000
,
00010000
00000000
00100000
00000000
10000000
00000000
00000000
00000000
00001000
01000000
00001000
01000000
00100000
00000000
00000000
00000000
,
01000000
00001000
01000000
00001000
00010000
00000000
00000000
00000000
00000010
00000000
00000000
00010000
00001000
00000000
00010000
00000000
,
00000100
00000000
00000010
00000000
00000001
00000000
00001000
00000000
00000001
00000000
00000100
00000001
00000100
00000000
00000010
00000000
,
00000100
00001000
00020000
00000000
01030000
10000000
00020000
00000000
,
01030000
00000000
00000000
00100000
01000000
00000000
10000000
00000000
01000000
00000000
00000000
00100000
01000000
00000000
00100000
00000000
,
00020000
00000000
00031000
00000000
00000010
00000001
00001000
00000001
,
00000200
00000000
00001300
00010000
00012000
00000000
00103000
01000000
,
00010000
00000000
00000000
00001000
00010000
00000000
00000100
00000000
00010000
00000000
00000000
00001000
00010000
00000000
00000010
00000000
,
00010010
00001010
00000110
00000101
,
00001001
00001000
00000100
00000010
00000100
00000001
00000100
00000010
,
00000100
00000000
00001000
00000000
00000100
00000000
00000010
00000000
00001000
00000000
00010000
00001000
00100000
00000000
00010000
00000000
,
00000000
00010000
01000000
00100000
01000000
10000000
01000000
00100000
,
01000000
00000000
00010000
00000000
01000000
00000000
00100000
00000000
00010000
00000000
00001000
00010000
00000010
00000000
00000000
00000000
,
00001010
00001000
00000100
00010000
00001000
01000000
00100000
01000000
,
00001000
00000000
00010000
00000000
00000010
00000000
00000100
00000000
00000010
00000000
00010000
00001000
00100000
00000000
01000000
00000000
,
00000000
01000000
00100000
01000000
00010000
00001000
00000010
00000100
,
00000010
00001000
00010000
00100000
02200000
00000000
03300000
00000000
;
