#VERSION:0.83;
#TITLE:Synchronize;
#SUBTITLE:;
#ARTIST:hyleo & Mameyudoufu;
#TITLETRANSLIT:;
#SUBTITLETRANSLIT:;
#ARTISTTRANSLIT:;
#GENRE:;
#CREDIT:;
#MUSIC:Synchronize.ogg;
#BANNER:Synchronize-bn.png;
#BACKGROUND:Synchronize-bg.png;
#CDTITLE:;
#SAMPLESTART:25.359;
#SAMPLELENGTH:15.000;
#SELECTABLE:YES;
#OFFSET:1.544;
#BPMS:0.000=155.000;
#STOPS:;
#BGCHANGES:;
#FGCHANGES:;

//--------------- dance-single - ----------------
#NOTEDATA:;
#STEPSTYPE:dance-single;
#DESCRIPTION:;
#DIFFICULTY:Hard;
#METER:13;
#RADARVALUES:0,0,0,0,0;
#CREDIT:Talkion;
#NOTES:
0000
0000
0000
0000
,
0000
0000
0000
0000
,
0000
0000
0000
0000
,
0000
0000
0000
0000
,
0000
0000
0000
0000
,
0000
0000
0000
0000
,
0110
0000
1001
0000
1000
0100
0010
0001
,
1000
0001
0100
0010
1000
0010
0100
0001
,
1000
0001
0010
0100
1000
0100
0010
0001
,
2000
0000
0000
3010
0010
0100
0001
1000
,
2100
0000
0000
3001
0000
0001
0010
0100
,
2000
0000
0000
3001
0000
0000
0100
0000
0010
0000
1000
0000
1000
0000
0001
0000
,
0020
0000
0000
0130
0000
0000
1000
0000
0001
0000
0010
0000
0001
0000
1000
0000
,
0020
0000
0000
0130
0000
0000
0001
0000
0001
0000
1000
0000
0100
0000
0010
0000
,
0011
0000
0001
0000
0100
0000
0020
0000
0000
0000
0130
0000
0001
0000
1000
0100
,
1000
0000
0000
1001
0000
0000
0101
0000
0000
0000
0001
0000
0100
0000
0010
0000
,
1000
0100
1000
0010
1000
0100
0010
0001
,
0100
0001
0010
0001
0001
0100
0010
1000
,
1001
0000
0000
0001
0010
0000
0100
0000
0000
0010
0001
0000
1000
0000
0020
0000
,
0000
0130
0000
0001
0001
1000
0100
0010
,
0001
0000
0000
1000
0010
0000
0100
0000
0000
0010
1000
0000
0001
0000
0010
0100
,
1000
0000
0001
0000
0100
0000
0001
0000
0000
1000
0100
0000
0010
0000
0100
0000
,
0000
0001
0100
2000
0000
3001
0100
0100
,
0010
0000
1000
0000
0010
0000
0100
0000
0000
0001
0010
0000
0001
0000
1000
0000
,
0000
0001
0010
0000
0001
0000
1000
0000
0010
0000
0100
0000
0010
0000
1000
0000
,
0001
0010
0100
0000
1000
0000
0001
1000
0001
0000
0100
0000
0100
0000
0000
0000
,
2010
0000
0000
0010
0000
0000
3000
0001
,
0010
0000
0000
0010
0000
0000
0100
0000
0010
0000
0001
0000
0001
0000
1000
0000
,
0020
0000
0130
0001
0000
1000
0001
0010
,
0100
0000
0000
0100
0000
0000
0100
0000
0000
0000
1000
0000
0010
0000
0100
0000
,
0000
1000
0100
0002
0000
1003
0100
0010
,
0001
0000
0000
0001
0000
0000
0001
0000
0000
0000
1000
0000
0010
0000
0100
0000
,
0000
0001
0010
0100
0010
0001
0000
0001
,
1000
0001
0100
0010
0010
0100
0001
1000
,
2100
0000
0000
3001
0000
0000
1000
0000
0001
0000
0100
0000
0001
0000
0100
0000
,
0020
0000
0000
1030
0000
0000
0010
0000
0100
0000
0101
0000
0000
1001
0000
0000
,
1200
0000
0000
0310
0000
0000
0100
0000
1000
0000
0001
0000
1000
0000
0001
0000
,
0101
0000
0000
1001
0000
0000
0011
0000
0000
0000
1100
0000
0000
1001
0000
0000
,
1010
1000
0100
0020
0000
0130
1000
0001
,
0010
0001
1000
0001
0100
0010
0100
0001
,
1000
0100
1000
0000
0001
0100
0001
0000
1000
0100
1000
0000
0001
0100
0001
0000
,
2000
0000
0000
3001
0001
0010
0100
1000
,
1001
0000
0000
0001
0100
0000
0010
0000
0000
0100
0001
0000
0000
1000
0001
0010
,
0100
1000
0010
0200
0000
0301
0100
0010
,
1020
0000
0000
0001
0000
0000
2030
0000
0000
0000
3001
0000
0010
0000
0100
0000
,
1200
0000
0000
0001
0000
0000
2300
0000
0000
0000
3001
0000
0100
0010
1000
0000
,
0001
0000
0000
1000
0100
0000
0010
0000
0000
0100
1000
0000
0001
0000
0100
0000
,
1000
0000
0100
0000
0001
0000
0020
0000
0000
0000
0031
0000
0000
1000
0100
0000
,
1200
0000
0000
0001
0000
0000
2300
0000
0000
0000
3001
0000
0100
0000
0010
0000
,
1010
1000
0001
0020
0000
0100
0031
0000
,
0100
0000
1000
0000
0100
0000
0002
0000
0000
0000
1003
0000
1000
0000
0001
0010
,
0100
1000
0001
0200
0000
0310
0100
0001
,
0021
0000
0000
1000
0000
0000
0032
0000
0000
0000
1003
0000
0010
0000
0100
0000
,
0201
0000
0000
1000
0000
0000
0302
0000
0000
0000
1003
0000
0100
0010
0000
0000
,
0100
0001
0100
2000
0000
3001
0100
0100
,
0010
0000
1000
0000
0100
0010
0001
0000
0000
1000
0000
0010
0100
0000
0010
0000
,
0000
1000
0100
0000
1000
0000
0001
0000
0100
0000
0010
0000
0100
0000
0001
0000
,
1000
0100
0010
0000
0001
0000
1000
0001
1000
0000
0010
0000
0010
0000
0000
0000
,
0101
0000
0100
0001
1000
0010
0100
0001
,
1000
0001
0010
0100
1000
0100
0010
0001
,
1000
0001
0100
0010
1000
0010
0100
0001
,
1000
0000
0001
0000
0010
0000
0100
0000
1000
0001
0000
0000
0100
0000
0100
0000
,
0100
0000
1001
0000
0001
0010
0100
1000
,
0001
1000
0010
0100
0001
0100
0010
1000
,
0001
1000
0100
0010
0001
0010
0100
1000
,
1001
0000
0000
0001
0000
0000
0001
0000
0100
0000
0010
1000
0000
0010
1000
0000
,
0200
0301
0000
0000
;

//--------------- dance-single - ----------------
#NOTEDATA:;
#STEPSTYPE:dance-single;
#DESCRIPTION:;
#DIFFICULTY:Challenge;
#METER:15;
#RADARVALUES:0,0,0,0,0;
#CREDIT:Talkion;
#NOTES:
0000
0000
0000
0000
,
0000
0000
0000
0000
,
0000
0000
0000
0000
,
0000
0000
0000
0000
,
0000
0000
0000
0000
,
0000
0000
0000
0000
,
0110
0000
0000
0000
1001
0000
1000
0000
0001
0100
0001
0000
0100
0010
1000
0000
,
0001
0000
0010
0100
0000
0100
1000
0000
0100
0010
0001
0000
1000
0100
1000
0000
,
0001
0000
0100
0010
0000
0010
1000
0000
0001
0010
0100
0010
0001
0000
1000
0000
,
0002
0000
0000
0103
0100
0010
1010
1000
,
1001
0000
0000
0001
0000
0000
0010
0000
0000
0100
1000
0000
0001
0100
0010
0100
,
0002
0000
0000
1003
0000
0000
0001
0000
0020
0000
0100
0000
0130
0000
1000
0000
,
0002
0000
0000
0103
0000
0000
0002
0000
0023
0000
0230
0000
0320
0000
2030
0000
,
3020
0000
0000
0230
0000
0000
1300
0000
1000
0000
0001
0000
0100
0000
0010
0000
,
1010
0000
2000
0000
3200
0000
2300
0000
0000
0000
3020
0000
0130
0000
1000
0100
,
0001
0000
0000
0011
0000
0000
1100
0000
0000
0100
1000
0000
1001
0000
0001
0000
,
1000
0010
0100
000M
0100
0000
1000
0000
0100
0000
0010
0000
0001
1000
0010
0000
,
1000
0010
0100
000M
0100
0000
1000
0001
1000
0100
0010
0000
0011
0000
0001
0000
,
1001
0000
0000
1000
0010
0000
0100
0000
0010
1000
0100
0000
1000
0000
0002
0000
,
0000
0000
0013
0000
0000
0100
1000
0000
1000
0000
0001
0000
0100
0000
0010
0000
,
1000
0000
0000
0001
0010
0000
0100
0000
0010
0001
0100
0000
0001
0000
1000
0010
,
0100
0000
0001
0000
0010
0000
0001
0000
1000
0100
0010
000M
0010
0000
1000
0000
,
0010
0000
0001
0010
1000
0000
0200
0000
0000
0310
0001
0000
1000
0000
1000
0000
,
0010
0000
0100
0000
0010
0000
2000
0000
0000
3001
0010
0M00
0010
0000
1000
0000
,
0001
0100
0010
M000
0010
0000
0001
0000
0010
0000
0100
0000
1000
0001
0100
0000
,
0001
0100
0010
M000
0010
0000
0001
1000
0100
0010
0100
1000
0001
0000
0000
0000
,
1002
0000
0000
0100
0000
0000
0003
1000
,
0100
0000
0000
0100
0000
0000
1000
0000
0010
0000
0100
0000
0100
0000
0001
0000
,
0020
0000
0000
0000
0130
0000
1000
0000
0000
0000
0001
0000
0100
0000
0010
0100
,
0001
0000
0000
0001
0000
0000
0001
0000
0000
0000
1000
0000
0100
0000
0010
0000
,
0100
0001
0100
0020
0000
0031
1000
0010
,
0100
0000
0000
0100
0000
0000
0100
0000
0001
0000
0010
0000
0001
0000
1000
0000
,
0100
0010
0100
0000
1000
0000
0010
0000
0100
0000
0001
0000
0000
0000
0001
0000
,
0100
0010
0100
0000
0001
0000
0010
0000
0010
0000
0100
1000
0001
0000
1000
0000
,
2010
0000
0000
3001
0000
0000
0010
0000
0001
0010
0001
0000
1000
0010
1000
0000
,
0001
0000
0000
0001
0000
0000
0010
0000
0100
0000
1100
0000
0000
1001
0000
0000
,
0102
0000
0000
1003
0000
0000
0100
0000
1000
0100
1000
0000
0001
0100
0001
0000
,
1001
0000
0000
1100
0000
0000
0011
0000
0001
0000
1001
0000
0000
1010
0000
0000
,
0101
0002
0023
0032
0000
0103
0010
1000
,
0001
1000
0100
1000
0001
0100
0100
0100
,
0010
0100
0001
1000
0100
0010
0100
1000
0001
1000
0010
0100
0010
1000
0001
0010
,
0200
0000
0000
0000
0000
0000
1300
0001
1000
0100
0010
0000
0011
0000
0001
0000
,
1001
0000
0000
1000
0010
0000
0100
0000
0010
1000
0100
0000
1000
0001
0010
0100
,
1000
0000
0001
0100
0010
0000
0200
0000
0000
0000
0301
0000
1000
0100
0010
000M
,
1020
0000
0000
1000
0000
0000
0230
0000
0000
0000
0301
0000
1000
0010
0100
000M
,
1200
0000
0000
1000
0000
0000
0320
0000
0000
0000
0031
0000
1000
0001
0010
0M00
,
1020
0000
0000
0100
0000
0000
0032
0000
0000
0000
0013
0000
1000
0010
0100
0000
,
2000
0000
3200
0000
0302
0000
0023
0000
0000
0000
0130
0000
0000
0010
0001
0000
,
1002
0000
0000
0100
0000
0000
2003
0000
0000
0000
3100
0000
0010
0100
1000
0000
,
1001
0000
0001
0000
0100
0000
0010
0100
0010
1000
0001
0010
0100
0000
0000
0000
,
0010
0000
1000
0010
0001
0000
0200
0000
0000
0310
1000
0000
1000
0000
0001
0010
,
0100
0000
1000
0000
0100
0010
0002
0000
0000
0000
1003
0000
0001
0100
0010
M000
,
0021
0000
0000
0001
0000
0000
0230
0000
0000
0000
1300
0000
0001
1000
0100
00M0
,
0201
0000
0000
0010
0000
0000
2300
0000
0000
0000
3100
0000
0010
1000
0000
0000
,
0100
0000
0001
0100
1000
0000
0020
0000
0000
0130
0001
0000
1000
0000
1000
0000
,
0100
0000
0010
0000
0100
1000
0010
0000
0100
0010
0000
0100
0001
0000
1000
0000
,
0001
0010
0100
M000
0100
0000
0001
0000
0100
0000
0010
0000
1000
0001
0010
0000
,
0001
0010
0100
M000
0100
0000
0001
1000
0001
0100
0010
0000
1010
0000
1000
0000
,
1001
0000
0000
0000
0001
0000
1000
0000
0001
0010
0001
0000
0010
0100
1000
0000
,
0001
0000
0100
0010
0000
0010
1000
0000
0010
0100
0001
0000
1000
0010
1000
0000
,
0001
0000
0010
0100
0000
0100
1000
0000
0001
0100
0010
0100
0001
0000
1000
0000
,
0001
0000
0010
0100
1000
0000
0100
0010
0001
1000
0000
0000
1010
0000
0110
0000
,
0101
0000
0000
0000
1001
0000
0001
0000
1000
0100
1000
0000
0100
0010
0001
0000
,
1000
0000
0010
0100
0000
0100
0001
0000
0100
0010
1000
0000
0001
0100
0001
0000
,
1000
0000
0100
0010
0000
0010
0001
0000
1000
0010
0100
0010
1000
0000
0001
0000
,
1001
0000
0000
1000
0000
0000
0100
0000
0010
0000
0001
1000
0000
0001
1000
0000
,
0001
0100
0010
0100
1000
0000
0000
0000
0000
0000
0000
0000
0000
0000
0000
0000
;
