#TITLE:Swimsuit;
#SUBTITLE:;
#ARTIST:LamazeP;
#TITLETRANSLIT:;
#SUBTITLETRANSLIT:;
#ARTISTTRANSLIT:;
#GENRE:;
#CREDIT:;
#BANNER:Swimsuit.png;
#BACKGROUND:Swimsuit-bg.png;
#LYRICSPATH:;
#CDTITLE:;
#MUSIC:Swimsuit.ogg;
#OFFSET:0.000000;
#SAMPLESTART:55.037037;
#SAMPLELENGTH:24.950001;
#SELECTABLE:YES;
#BPMS:0.000000=135.000000
;
#STOPS:
;
#BGCHANGES:;
#KEYSOUNDS:;
#ATTACKS:;

//---------------dance-single - ----------------
#NOTES:
     dance-single:
     :
     Hard:
     11:
     0.459321,0.498657,0.184688,0.671592,0.222465,383.000000,361.000000,22.000000,80.000000,0.000000,0.000000,0.459321,0.498657,0.184688,0.671592,0.222465,383.000000,361.000000,22.000000,80.000000,0.000000,0.000000:
0000
0000
0000
0000
,
0000
0000
0000
0000
,
0000
0000
0000
0000
,
0000
0000
0000
0000
,
0000
0000
0000
0000
,
1002
0100
1000
0023
,
0230
0000
1000
0000
0310
0001
0100
0010
,
2000
0100
0001
3020
,
0032
0023
0230
0302
,
2003
0010
0001
3200
,
0320
0000
0001
0000
0130
1000
0010
0100
,
0002
0010
1000
0100
,
2003
0000
3100
0010
0001
1000
0010
0000
,
1001
0000
1000
0000
0100
1000
0000
0100
0000
0000
0010
0000
0001
0000
1000
0000
,
0020
0000
0000
0230
0000
0000
2300
0000
0000
0000
3100
0000
0010
0100
0000
0000
,
0001
0000
1000
0000
0100
0000
0010
0100
0000
0000
1000
0000
0001
0000
0100
0000
,
0010
0000
1000
0001
0000
1000
0200
0000
0000
0000
0010
0000
0310
0000
0000
0000
,
1001
0000
0001
0000
0100
0001
0000
0100
0000
0000
0010
0000
1000
0000
0001
0000
,
0020
0000
0000
0230
0000
0000
0302
0000
0000
0000
0103
0000
0010
0100
0000
0000
,
1000
0000
0001
0000
0100
0000
0010
0100
0000
0000
0001
0000
1000
0000
0100
0000
,
0001
0000
0100
0010
0000
0100
2000
0000
0000
0000
0001
0000
3001
0000
0100
0000
,
2000
0000
0000
0000
0100
0000
0000
0000
3100
0000
0001
0000
1000
0000
0100
0020
,
0000
0000
0130
0000
0001
0100
1000
0001
,
0200
0000
0010
0000
0310
0100
1000
0200
,
0000
0302
0000
2003
0000
0001
3001
0010
,
2000
0000
0000
0000
0010
0000
0000
0000
3010
0000
0001
0000
1000
0000
0010
0200
,
0000
0000
0310
0000
0100
0001
1000
0100
,
0010
0000
0001
0010
0000
0000
0001
0000
0100
0000
0010
1000
0000
0000
0010
0100
,
0010
1000
0001
0010
1000
0010
0010
0001
,
2000
0000
3020
0000
,
0230
0000
0302
1003
,
1002
0000
0000
0000
0013
0000
0100
0000
1000
0000
0000
0010
0000
0000
0100
0000
,
0101
0011
1010
1100
,
1002
0000
0000
0000
0013
0000
0100
0000
1000
0000
0000
0001
0000
0000
0100
0000
,
2000
0000
3100
0010
1000
0001
0001
0010
,
0200
0000
0000
0010
0000
0000
1300
0000
0001
0000
0100
0000
1000
0000
0000
0000
,
0200
0000
0000
0010
0000
0000
0301
0000
1000
0000
0100
0000
0001
0000
0000
0000
,
0200
0000
0000
0000
1000
0000
0000
0000
0310
0000
0000
0001
0000
0000
1000
0000
,
1001
0000
0110
0000
0010
0100
0100
0010
,
2001
0000
0000
0000
3100
0000
0010
0000
0001
0000
0000
1000
0000
0000
0010
0000
,
1010
1100
0101
0011
,
1002
0000
0000
0000
0103
0000
0010
0000
1000
0000
0000
0100
0000
0000
0010
0000
,
0002
0000
0013
0100
1000
0001
0001
0100
,
0020
0000
0000
0100
0000
0000
1030
0000
0001
0000
0010
0000
1000
0000
0000
0000
,
0020
0000
0000
0100
0000
0000
0031
0000
1000
0000
0010
0000
0001
0000
0000
0000
,
0010
0000
1000
0000
0001
0000
0010
0200
0000
0000
1300
0000
0001
0000
0100
0000
,
0020
0000
0001
0000
0100
0000
1030
0001
,
0010
0000
0001
0000
1000
0000
0010
0200
0000
0000
0301
0000
1000
0000
0100
0000
,
0020
1000
0100
0001
,
0230
0000
0310
0100
0001
0100
1000
0001
,
0200
1000
0010
0001
,
0320
0000
0000
0000
1030
0000
0001
0000
0010
0000
0100
0000
1000
0000
0001
1000
,
0001
0000
0000
0000
0110
0000
0000
0000
1001
0000
0000
1001
0000
0000
1001
0000
,
0002
0000
0000
0010
0000
0000
1003
0000
0000
1000
0001
0000
0100
0000
0010
0000
,
2000
0000
0000
0010
0000
0000
3001
0000
1000
0000
0100
0000
0001
0000
0100
0000
,
2000
0000
0000
0100
0000
0000
3001
0000
0000
0001
1000
0000
0010
0000
0100
0000
,
0002
0000
0000
0100
0000
0000
1003
0000
0001
0000
0010
0000
0100
0010
0100
0000
,
0020
0000
0000
0100
0000
0000
0031
0000
0000
0001
1000
0000
0001
0000
0100
0000
,
0020
0000
0000
0100
0000
0000
1030
0000
0010
0000
0001
0000
0010
0000
1000
0000
,
0020
0000
0000
0100
0000
0000
1030
0000
0000
1000
0001
0000
1000
0000
0100
0000
,
0020
0000
0000
0100
0000
0000
0031
0000
1000
0000
0010
0000
0100
0000
0000
0000
,
1001
0000
0002
0000
0000
0203
0000
0000
2300
0000
0000
3200
0000
0000
0302
0000
,
0000
0000
2003
0000
0000
3200
0000
0000
0302
0000
0000
0203
0000
0000
2300
0000
,
0000
0000
3002
0000
0000
0023
0000
0000
2030
0000
0000
3020
0000
0000
0032
0000
,
0000
0000
2003
0000
0000
3020
0000
0000
0032
0000
0000
0023
0000
0000
2030
0000
,
0000
0000
0000
0000
,
3000
0000
0000
0000
;

//---------------dance-double - ----------------
#NOTES:
     dance-double:
     :
     Hard:
     11:
     0.456922,0.498657,0.201477,0.671592,0.218267,381.000000,357.000000,24.000000,80.000000,0.000000,0.000000,0.456922,0.498657,0.201477,0.671592,0.218267,381.000000,357.000000,24.000000,80.000000,0.000000,0.000000:
00000000
00000000
00000000
00000000
,
00000000
00000000
00000000
00000000
,
00000000
00000000
00000000
00000000
,
00000000
00000000
00000000
00000000
,
00000000
00000000
00000000
00000000
,
20000000
01000000
00010000
30200000
,
00320000
00000000
00001000
00000000
00030100
00000010
00000001
00000000
,
00002000
00000100
00000001
00003020
,
00000230
00002300
00023000
02030000
,
23000000
00100000
00010000
32000000
,
03020000
00000000
00001000
00000000
00030010
00000100
00000001
00000000
,
00002000
00000010
00000001
00000100
,
00003002
00000000
00000103
00000010
00001000
00000100
00010000
00000000
,
00011000
00000000
00001000
00000000
01000000
00010000
00000000
01000000
00000000
00000000
00100000
00000000
10000000
00000000
00010000
00000000
,
00200000
00000000
00000000
02300000
00000000
00000000
03020000
00000000
00000000
00000000
00031000
00000000
00010000
00001000
00000000
00000000
,
00000010
00000000
00000100
00000000
00001000
00000000
00000001
00000100
00000000
00000000
00000010
00000000
00001000
00000000
00000001
00000000
,
00000010
00000000
00000100
00001000
00000000
00000100
00020000
00000000
00000000
00000000
00001000
00000000
00031000
00000000
00000000
00000000
,
00011000
00000000
00010000
00000000
00000100
00001000
00000000
00000100
00000000
00000000
00000010
00000000
00000001
00000000
00001000
00000000
,
00000020
00000000
00000000
00000230
00000000
00000000
00002300
00000000
00000000
00000000
00013000
00000000
00001000
00010000
00000000
00000000
,
00100000
00000000
01000000
00000000
00010000
00000000
10000000
01000000
00000000
00000000
00100000
00000000
01000000
00000000
00010000
00000000
,
00001000
00000000
00100000
00001000
00000000
00010000
00002000
00000000
00000000
00000000
00010000
00000000
00013000
00000000
00000000
00000000
,
00210000
00000000
00000000
00000000
10000000
00000000
00000000
00000000
10300000
00000000
00010000
00000000
00100000
00000000
01000000
00200000
,
00000000
00000000
01300000
00000000
00010000
00000010
00010000
00001000
,
00001020
00000000
00000001
00000000
00000031
00001000
00000010
00000200
,
00000000
00002300
00000000
00023000
00000000
00001000
00031000
00000000
,
00001200
00000000
00000000
00000000
00000001
00000000
00000000
00000000
00000301
00000000
00001000
00000000
00000100
00000000
00000010
00000200
,
00000000
00000000
00010300
00000000
00001000
00100000
00010000
10000000
,
00100000
00000000
01000000
00100000
00000000
00000000
01000000
00000000
00001000
00000000
00010000
00001000
00000000
00000000
00010000
00000100
,
00010000
00000100
00000010
00000100
00000001
00000100
00000100
00001000
,
00000002
00000000
00000203
00000000
,
00000320
00000000
00020030
00031000
,
00021000
00000000
00000000
00000000
00130000
00000000
10000000
00000000
00010000
00000000
00000000
00100000
00000000
00000000
01000000
00000000
,
01100000
00101000
00011000
00010010
,
00000210
00000000
00000000
00000000
00000301
00000000
00001000
00000000
00000100
00000000
00000000
00000010
00000000
00000000
00000001
00000000
,
00002000
00000000
00003010
00000100
00001000
00010000
00010000
00001000
,
00200000
00000000
00000000
00010000
00000000
00000000
01300000
00000000
10000000
00000000
01000000
00000000
00010000
00000000
00000000
00000000
,
00000020
00000000
00000000
00001000
00000000
00000000
00000130
00000000
00000001
00000000
00000100
00000000
00001000
00000000
00000000
00000000
,
00020000
00000000
00000000
00000000
00031000
00000000
01000000
00000000
00010000
00000000
00000000
10000000
00000000
00000000
01000000
00000000
,
01100000
00000000
00101000
00000000
00001000
00100000
00100000
00001000
,
00012000
00000000
00000000
00000000
00003010
00000000
00000001
00000000
00001000
00000000
00000000
00000010
00000000
00000000
00000100
00000000
,
00000110
00010010
00011000
00101000
,
02100000
00000000
00000000
00000000
13000000
00000000
00010000
00000000
01000000
00000000
00000000
00100000
00000000
00000000
10000000
00000000
,
00020000
00000000
00130000
01000000
00010000
00001000
00001000
00010000
,
00000200
00000000
00000000
00001000
00000000
00000000
00000310
00000000
00000001
00000000
00000010
00000000
00001000
00000000
00000000
00000000
,
02000000
00000000
00000000
00010000
00000000
00000000
03100000
00000000
10000000
00000000
00100000
00000000
00010000
00000000
00000000
00000000
,
00001000
00000000
00010000
00000000
00000100
00000000
00000010
00000002
00000000
00000000
00001003
00000000
00000010
00000000
00000100
00000000
,
00002000
00000000
00000100
00000000
00010000
00000000
00103000
00010000
,
10000000
00000000
00010000
00000000
01000000
00000000
00100000
20000000
00000000
00000000
30010000
00000000
00100000
00000000
01000000
00000000
,
00020000
01000000
00001000
00000010
,
00032000
00000000
00003010
00000001
00001000
00000010
00000100
00001000
,
00020000
00100000
00001000
00000100
,
00032000
00000000
00000000
00000000
01003000
00000000
00010000
00000000
10000000
00000000
01000000
00000000
00010000
00000000
00001000
00010000
,
00001000
00000000
00000000
00000000
00101000
00000000
00000000
00000000
00011000
00000000
00000000
00011000
00000000
00000000
00011000
00000000
,
00020000
00000000
00000000
00001000
00000000
00000000
00030100
00000000
00000000
00000100
00000010
00000000
00000001
00000000
00001000
00000000
,
00000020
00000000
00000000
00000100
00000000
00000000
00001030
00000000
00000001
00000000
00000010
00000000
00001000
00000000
00010000
00000000
,
00002000
00000000
00000000
00010000
00000000
00000000
01003000
00000000
00000000
01000000
00100000
00000000
10000000
00000000
00010000
00000000
,
00200000
00000000
00000000
01000000
00000000
00000000
00310000
00000000
10000000
00000000
00100000
00000000
00010000
00000000
00001000
00000000
,
00020000
00000000
00000000
00001000
00000000
00000000
00030010
00000000
00000000
00000010
00000100
00000000
00000001
00000000
00001000
00000000
,
00000200
00000000
00000000
00000010
00000000
00000000
00001300
00000000
00000001
00000000
00000100
00000000
00001000
00000000
00010000
00000000
,
00002000
00000000
00000000
00010000
00000000
00000000
00103000
00000000
00000000
00100000
00010000
00000000
10000000
00000000
00100000
00000000
,
02000000
00000000
00000000
00010000
00000000
00000000
03001000
00000000
00010000
00000000
00000100
00000000
00000010
00000000
00000000
00000000
,
00001001
00000000
00000002
00000000
00000000
00000203
00000000
00000000
00002300
00000000
00000000
00023000
00000000
00000000
00230000
00000000
,
00000000
00000000
20300000
00000000
00000000
32000000
00000000
00000000
03020000
00000000
00000000
00032000
00000000
00000000
00003020
00000000
,
00000000
00000000
00000032
00000000
00000000
00000203
00000000
00000000
00002300
00000000
00000000
00023000
00000000
00000000
00230000
00000000
,
00000000
00000000
20300000
00000000
00000000
32000000
00000000
00000000
03020000
00000000
00000000
00032000
00000000
00000000
00003020
00000000
,
00000000
00000000
00000000
00000000
,
00000030
00000000
00000000
00000000
;

//---------------dance-single - ----------------
#NOTES:
     dance-single:
     :
     Medium:
     9:
     0.298618,0.354684,0.067159,0.528878,0.100739,249.000000,241.000000,8.000000,63.000000,0.000000,0.000000,0.298618,0.354684,0.067159,0.528878,0.100739,249.000000,241.000000,8.000000,63.000000,0.000000,0.000000:
0000
0000
0000
0000
,
0000
0000
0000
0000
,
0000
0000
0000
0000
,
0000
0000
0000
0000
,
0000
0000
0000
0000
,
2000
0001
0000
3002
,
0023
0100
0000
0130
,
2000
0001
0000
3002
,
0203
0320
2030
3002
,
0023
0100
0000
0230
,
2300
0001
3002
0003
,
0200
0010
0000
0010
,
0302
0000
1000
0000
1003
0100
1000
0000
,
1001
0000
0000
0000
0001
0000
0000
0001
0000
0000
0100
0000
0010
0000
0000
0000
,
1000
0000
0000
0001
0000
0000
0020
0000
0000
0000
0000
0000
0031
0000
0000
0000
,
1000
0000
0000
0000
0100
0000
0000
0100
0000
0000
0010
0000
0001
0000
0000
0000
,
0100
0000
0000
0010
0000
0000
0200
0000
0000
0000
0010
0000
0310
0000
0000
0000
,
1001
0000
0000
0000
1000
0000
0000
1000
0000
0000
0100
0000
0010
0000
0000
0000
,
0001
0000
0000
1000
0000
0000
0020
0000
0000
0000
0000
0000
1030
0000
0000
0000
,
0001
0000
0000
0000
0100
0000
0000
0100
0000
0000
0010
0000
1000
0000
0000
0000
,
0100
0000
0000
0010
0000
0000
0200
0000
0000
0000
0010
0000
0310
0000
0000
0000
,
2000
0000
0000
0000
0000
0000
0000
0000
3010
0000
0000
0000
0001
0000
0000
1000
,
0000
0000
1001
0000
0001
1000
0010
0000
,
0002
0000
0000
0000
0013
0000
1000
0001
,
0000
0010
0000
0100
0000
0010
0010
0000
,
2000
0000
0000
0000
0000
0000
0000
0000
3010
0000
0000
0000
0001
0000
0000
1000
,
0000
0000
1001
0000
0001
0100
0010
0000
,
1000
0000
0000
1000
0000
0000
0000
0000
0001
0000
0000
0001
0000
0000
0000
0000
,
1000
0000
0100
0010
0001
1000
0001
0000
,
2000
0000
3020
0000
,
0230
0000
0302
0003
,
2002
0000
0000
0000
3003
0000
0000
0000
1000
0000
0000
0100
0000
0000
0010
0000
,
0002
0203
0320
2030
,
3002
0000
0000
0000
1003
0000
0000
0000
0001
0000
0000
0010
0000
0000
0100
0000
,
0002
0000
0000
0000
0103
0010
0100
0000
,
1000
0000
0000
0001
0000
0000
0100
0000
1000
0000
0000
0000
0100
0000
0000
0000
,
0001
0000
0000
1000
0000
0000
0100
0000
0001
0000
0000
0000
0100
0000
0000
0000
,
0020
0000
0000
0000
0030
0000
0000
0000
0001
0000
0000
0100
0000
0000
0010
0000
,
2000
3002
0023
0130
,
2002
0000
0000
0000
3003
0000
0000
0000
0001
0000
0000
0100
0000
0000
0010
0000
,
2000
3200
0320
0032
,
2003
0000
0000
0000
3001
0000
0000
0000
0100
0000
0000
0001
0000
0000
0010
0000
,
0200
0000
0000
0000
1300
0001
1000
0000
,
0001
0000
0000
1000
0000
0000
0100
0000
0001
0000
0000
0000
0100
0000
0000
0000
,
1000
0000
0000
0001
0000
0000
0100
0000
1000
0000
0000
0000
0100
0000
0000
0000
,
0001
0000
0000
0000
1000
0000
0000
1000
0000
0000
0100
0000
0010
0000
0000
0000
,
0002
0010
1000
0100
,
1003
0000
0000
0000
0001
0000
0000
0001
0000
0000
0100
0000
0010
0000
0000
0000
,
2000
0010
0001
0100
,
3002
0000
0003
0000
1000
0100
0010
0000
,
0002
0010
1000
0100
,
2003
0000
3000
0000
0001
0010
0100
0000
,
1001
0000
0000
0000
1001
0000
0000
0000
0001
0000
0000
1000
0000
0000
0001
0000
,
0200
0010
0301
1000
,
0200
0000
0010
0000
1300
0001
0100
0000
,
0002
0100
1003
0001
,
2000
0000
0100
0000
3001
0010
0100
0000
,
2000
0100
3010
0100
,
0002
0000
0100
0000
0013
0100
1000
0000
,
0002
0100
1000
0010
,
2003
0000
0100
0000
3001
0100
0010
1000
,
0002
0000
0000
0000
,
0023
0000
0000
0000
,
0230
0000
0000
0000
,
2300
0000
0000
0000
,
3000
0000
0000
0000
;

//---------------dance-double - ----------------
#NOTES:
     dance-double:
     :
     Medium:
     9:
     0.304615,0.354684,0.075554,0.554063,0.100739,254.000000,245.000000,9.000000,66.000000,0.000000,0.000000,0.304615,0.354684,0.075554,0.554063,0.100739,254.000000,245.000000,9.000000,66.000000,0.000000,0.000000:
00000000
00000000
00000000
00000000
,
00000000
00000000
00000000
00000000
,
00000000
00000000
00000000
00000000
,
00000000
00000000
00000000
00000000
,
00000000
00000000
00000000
00000000
,
20000000
00010000
00000000
30020000
,
00230000
00001000
00000000
00301000
,
00020000
00000010
00000000
00030020
,
00000230
00000302
00002003
00003200
,
00020300
00001000
00000000
00032000
,
00203000
00010000
00320000
00030000
,
20000000
00100000
00000000
00100000
,
30020000
00000000
00100000
00000000
10030000
01000000
10000000
00000000
,
10010000
00000000
00000000
00000000
00010000
00000000
00000000
00010000
00000000
00000000
00100000
00000000
00001000
00000000
00000000
00000000
,
00010000
00000000
00000000
00001000
00000000
00000000
00000020
00000000
00000000
00000000
00000000
00000000
00000031
00000000
00000000
00000000
,
00001000
00000000
00000000
00000000
00000010
00000000
00000000
00000010
00000000
00000000
00000100
00000000
00001000
00000000
00000000
00000000
,
00010000
00000000
00000000
00001000
00000000
00000000
00200000
00000000
00000000
00000000
00010000
00000000
00310000
00000000
00000000
00000000
,
10010000
00000000
00000000
00000000
10000000
00000000
00000000
10000000
00000000
00000000
00100000
00000000
01000000
00000000
00000000
00000000
,
00100000
00000000
00000000
00010000
00000000
00000000
00002000
00000000
00000000
00000000
00000000
00000000
00103000
00000000
00000000
00000000
,
00001000
00000000
00000000
00000000
00010000
00000000
00000000
00010000
00000000
00000000
00000100
00000000
00001000
00000000
00000000
00000000
,
00000001
00000000
00000000
00001000
00000000
00000000
00000020
00000000
00000000
00000000
00000100
00000000
00000130
00000000
00000000
00000000
,
00002000
00000000
00000000
00000000
00000000
00000000
00000000
00000000
00013000
00000000
00000000
00000000
00100000
00000000
00000000
01000000
,
00000000
00000000
10010000
00000000
10000000
01000000
00100000
00000000
,
20000000
00000000
00000000
00000000
30100000
00000000
00010000
20000000
,
00000000
30200000
00000000
00320000
00000000
00001000
00031000
00000000
,
00000200
00000000
00000000
00000000
00000000
00000000
00000000
00000000
00000301
00000000
00000000
00000000
00001000
00000000
00000000
00000100
,
00000000
00000000
00001001
00000000
00000001
00000100
00000010
00000000
,
00010000
00000000
00000000
00010000
00000000
00000000
00000000
00000000
00001000
00000000
00000000
00001000
00000000
00000000
00000000
00000000
,
00100000
00000000
00010000
10000000
00010000
01000000
00100000
00000000
,
20000000
00000000
32000000
00000000
,
03200000
00000000
00302000
00003000
,
00022000
00000000
00000000
00000000
00033000
00000000
00000000
00000000
00010000
00000000
00000000
00000100
00000000
00000000
00000010
00000000
,
00000002
00000203
00000320
00020030
,
00032000
00000000
00000000
00000000
00013000
00000000
00000000
00000000
00001000
00000000
00000000
00100000
00000000
00000000
01000000
00000000
,
20000000
00000000
00000000
00000000
30100000
01000000
00010000
00000000
,
10000000
00000000
00000000
01000000
00000000
00000000
00100000
00000000
00001000
00000000
00000000
00000000
00001000
00000000
00000000
00000000
,
00010000
00000000
00000000
00000100
00000000
00000000
00000010
00000000
00000001
00000000
00000000
00000000
00000001
00000000
00000000
00000000
,
00002000
00000000
00000000
00000000
00003001
00000000
00000000
00000000
00001000
00000000
00000000
00000010
00000000
00000000
00000100
00000000
,
00002000
00000000
00023000
00000000
00230000
01000000
01300000
00000000
,
20020000
00000000
00000000
00000000
30030000
00000000
00000000
00000000
10000000
00000000
00000000
01000000
00000000
00000000
00100000
00000000
,
00002000
00023000
00030020
00000230
,
00000302
00000000
00000000
00000000
00001003
00000000
00000000
00000000
00000100
00000000
00000000
00010000
00000000
00000000
00001000
00000000
,
00200000
00000000
00000000
00000000
00310000
10000000
00100000
00000000
,
10000000
00000000
00000000
00100000
00000000
00000000
01000000
00000000
00001000
00000000
00000000
00000000
00001000
00000000
00000000
00000000
,
00010000
00000000
00000000
00000010
00000000
00000000
00000100
00000000
00000001
00000000
00000000
00000000
00000001
00000000
00000000
00000000
,
00001000
00000000
00000100
00000000
00000010
00000000
00000000
00000010
00000000
00000000
00000001
00000000
00001000
00000000
00000000
00000000
,
00000020
00000100
00010000
00001000
,
00010030
00000000
00001000
00000000
00100000
00000000
00000000
00100000
00000000
00000000
00010000
00000000
10000000
00000000
00000000
00000000
,
00020000
01000000
10000000
00100000
,
20030000
00000000
30000000
00000000
00010000
00100000
00001000
00000000
,
00020000
00000100
00001000
00000010
,
00032000
00000000
00003000
00000000
00100000
00001000
00010000
00000000
,
00011000
00000000
00000000
00000000
00011000
00000000
00000000
00000000
00010000
00000000
00000000
00000100
00000000
00000000
00000010
00000000
,
00000002
00001000
00000103
00001000
,
00020000
00000000
00000010
00000000
00031000
00100000
00010000
00000000
,
20000000
00010000
31000000
00010000
,
00002000
00000000
00100000
00000000
00013000
00000010
00001000
00000000
,
00000002
00001000
00000013
00001000
,
00020000
00000000
00000100
00000000
00031000
01000000
00010000
00000000
,
20000000
00100000
00010000
01000000
,
30020000
00000000
00130000
00001000
00010000
00000100
00001000
00000000
,
00001002
00000000
00000000
00000000
,
00000203
00000000
00000000
00000000
,
00000320
00000000
00000000
00000000
,
00002030
00000000
00000000
00000000
,
00003000
00000000
00000000
00000000
;

//---------------dance-single - ----------------
#NOTES:
     dance-single:
     :
     Easy:
     6:
     0.227861,0.327401,0.050369,0.352586,0.000000,190.000000,184.000000,6.000000,42.000000,0.000000,0.000000,0.227861,0.327401,0.050369,0.352586,0.000000,190.000000,184.000000,6.000000,42.000000,0.000000,0.000000:
0000
0000
0000
0000
,
0000
0000
0000
0000
,
0000
0000
0000
0000
,
0000
0000
0000
0000
,
0000
0000
0000
0000
,
0002
0000
0000
0203
,
0320
0000
0000
0030
,
2000
0000
0000
3200
,
0310
0001
1000
0010
,
0200
0000
0000
0302
,
2003
0000
3200
0300
,
0020
0000
0000
0000
,
0200
0000
0000
0330
,
0000
0000
1000
0000
0001
0000
0100
0010
,
0100
0010
0001
0010
,
0000
1000
0001
0010
,
0100
0100
0010
0000
,
1001
0000
1000
0000
0100
0010
0100
0000
,
0010
0100
0001
0100
,
0000
1000
0001
0100
,
0010
0010
0100
0000
,
1002
0000
0000
1003
,
0100
0000
0010
0001
,
0200
0000
0000
0310
,
1000
0000
1000
0000
0001
1000
0001
0000
,
0020
0000
0000
0130
,
1000
0000
0001
0100
,
0010
0001
0010
1000
,
0100
0010
0100
1000
,
0002
0000
2003
0000
,
3002
0000
1003
0000
,
2002
3003
0001
0100
,
1000
0100
0001
1000
,
0200
0000
0310
0001
,
2000
0000
3010
0010
,
0100
0001
0010
0010
,
0100
1000
0010
0010
,
0200
0000
0310
1000
,
0001
0000
0001
0000
1000
0001
1000
0000
,
2002
3003
1000
0100
,
0001
0100
1000
0001
,
0200
0000
0310
1000
,
0002
0000
0013
0010
,
0100
1000
0010
0010
,
0100
0001
0010
0010
,
0200
0000
0310
0010
,
0002
0100
1000
0103
,
0020
0000
0130
0100
,
0002
0010
1000
0010
,
1003
0010
0100
0001
,
2000
0010
0001
0010
,
3001
0000
0010
0000
0100
0000
1000
0001
,
1000
0001
1001
1001
,
0002
0000
0103
0010
,
2000
0000
0001
3001
,
2000
0000
3100
0010
,
0001
0001
1000
1000
,
0020
0000
0130
0001
,
2000
0000
3001
0001
,
0020
0000
0130
1000
,
0002
0000
0000
0000
0103
0010
0100
0000
,
0020
0000
0000
0000
,
0230
0000
0000
0000
,
0302
0000
0000
0000
,
2003
0000
0000
0000
,
3000
0000
0000
0000
;

//---------------dance-double - ----------------
#NOTES:
     dance-double:
     :
     Easy:
     6:
     0.229061,0.327401,0.058764,0.352586,0.000000,191.000000,184.000000,7.000000,42.000000,0.000000,0.000000,0.229061,0.327401,0.058764,0.352586,0.000000,191.000000,184.000000,7.000000,42.000000,0.000000,0.000000:
00000000
00000000
00000000
00000000
,
00000000
00000000
00000000
00000000
,
00000000
00000000
00000000
00000000
,
00000000
00000000
00000000
00000000
,
00000000
00000000
00000000
00000000
,
20000000
00000000
00000000
32000000
,
03200000
00000000
00000000
00300000
,
00002000
00000000
00000000
00023000
,
00030010
00000100
00000001
00001000
,
00000200
00000000
00000000
00000320
,
00000032
00000000
00002003
00003000
,
00000020
00000000
00000000
00000000
,
00000200
00000000
00000000
00000330
,
00000000
00000000
00000001
00000000
00001000
00000001
00001000
00000000
,
00000010
00000100
00001000
00010000
,
00000000
00100000
01000000
00010000
,
10000000
10000000
01000000
00000000
,
10010000
00000000
10000000
00000000
00010000
10000000
00010000
00000000
,
00100000
01000000
00010000
00001000
,
00000000
00000010
00000100
00001000
,
00000001
00000001
00000100
00000000
,
00001002
00000000
00000000
00000103
,
00000010
00000000
00000100
00001000
,
00020000
00000000
00000000
00130000
,
01000000
00000000
00010000
00000000
10000000
00010000
10000000
00000000
,
02000000
00000000
00000000
03010000
,
00001000
00000000
00000010
00000100
,
00001000
00001000
00000001
00000001
,
00000100
00000010
00000100
00001000
,
00020000
00000000
00032000
00000000
,
00023000
00000000
00031000
00000000
,
00022000
00033000
00001000
00010000
,
00100000
10000000
00100000
00010000
,
00200000
00000000
10300000
00010000
,
00200000
00000000
00301000
00001000
,
00010000
00000100
00000010
00000010
,
00000100
00001000
00000001
00000001
,
00000200
00000000
00000310
00000100
,
00001000
00000000
00001000
00000000
00010000
00001000
00010000
00000000
,
00022000
00033000
00010000
00001000
,
00000010
00000001
00000010
00001000
,
00000020
00000000
00000031
00001000
,
00000020
00000000
00010030
00010000
,
00001000
01000000
00100000
00100000
,
01000000
00010000
10000000
10000000
,
02000000
00000000
03100000
00001000
,
00020000
00000010
00001000
00030010
,
00000200
00000000
00000310
00010000
,
00002000
00100000
00010000
00100000
,
00013000
00000100
00000010
00000100
,
00020000
00000010
00001000
00000010
,
00031000
00000000
00100000
00000000
00010000
00000000
10000000
00010000
,
10000000
00010000
10010000
10010000
,
20000000
00000000
31000000
00100000
,
00002000
00000000
00013000
00010000
,
00000200
00000000
00000310
00000001
,
00001000
00000010
00000100
00001000
,
00020000
00000000
00031000
00100000
,
00020000
00000000
10030000
10000000
,
00200000
00000000
01300000
00001000
,
00020000
00000000
00000000
00000000
00030010
00000100
00000010
00000000
,
00001002
00000000
00000000
00000000
,
00000023
00000000
00000000
00000000
,
00000230
00000000
00000000
00000000
,
00002300
00000000
00000000
00000000
,
00003000
00000000
00000000
00000000
;

//---------------dance-single - ----------------
#NOTES:
     dance-single:
     :
     Beginner:
     3:
     0.147510,0.214909,0.033580,0.176293,0.000000,123.000000,119.000000,4.000000,21.000000,0.000000,0.000000,0.147510,0.214909,0.033580,0.176293,0.000000,123.000000,119.000000,4.000000,21.000000,0.000000,0.000000:
// measure 0
0000
0000
0000
0000
,  // measure 1
0000
0000
0000
0000
,  // measure 2
0000
0000
0000
0000
,  // measure 3
0000
0000
0000
0000
,  // measure 4
0000
0000
0000
0000
,  // measure 5
0002
0000
0000
0003
,  // measure 6
2000
0000
0000
3000
,  // measure 7
0020
0000
0000
0030
,  // measure 8
0100
0000
0010
0000
,  // measure 9
2000
0000
0000
3000
,  // measure 10
0002
0000
0003
0000
,  // measure 11
0020
0000
0000
0030
,  // measure 12
0200
0000
0000
0300
,  // measure 13
0000
1000
0001
0000
,  // measure 14
0100
0010
0100
0100
,  // measure 15
0000
0010
1000
0000
,  // measure 16
0001
1000
0001
0000
,  // measure 17
0000
1000
0100
0000
,  // measure 18
0010
0001
1000
1000
,  // measure 19
0000
0001
0100
0000
,  // measure 20
0010
0100
0010
0000
,  // measure 21
1001
0000
0000
0001
,  // measure 22
1000
0000
0100
0010
,  // measure 23
0002
0000
0003
0000
,  // measure 24
1000
0000
1000
0000
,  // measure 25
0020
0000
0030
0100
,  // measure 26
0001
0000
1000
0100
,  // measure 27
0010
0000
0100
0000
,  // measure 28
1000
0001
1000
0000
,  // measure 29
0002
0000
0003
0000
,  // measure 30
2000
0000
3000
0000
,  // measure 31
1001
0000
0001
0100
,  // measure 32
0010
0000
0100
0000
,  // measure 33
0001
0000
1000
0100
,  // measure 34
0010
0000
0100
0000
,  // measure 35
0001
0000
0100
0100
,  // measure 36
0010
0000
0001
0001
,  // measure 37
1000
0000
0010
0000
,  // measure 38
0100
0001
1000
0000
,  // measure 39
1001
0000
0001
1000
,  // measure 40
0100
0000
0001
0000
,  // measure 41
0100
0000
1000
0001
,  // measure 42
0100
0000
0010
0000
,  // measure 43
0001
0000
0010
0010
,  // measure 44
0100
0000
0001
0001
,  // measure 45
2000
0000
3000
0000
,  // measure 46
0001
0001
1000
0000
,  // measure 47
0002
0000
0003
0000
,  // measure 48
1000
1000
0001
0000
,  // measure 49
0100
0000
0010
0000
,  // measure 50
1000
0000
0001
0001
,  // measure 51
1000
0000
0100
0010
,  // measure 52
0002
0000
0000
0003
,  // measure 53
2000
0000
0000
3000
,  // measure 54
0002
0000
0000
0003
,  // measure 55
0200
0000
0000
0300
,  // measure 56
0010
0010
0100
0000
,  // measure 57
0002
0000
0000
0003
,  // measure 58
2000
0000
3000
0000
,  // measure 59
0200
0000
0000
0300
,  // measure 60
0020
0000
0000
0030
,  // measure 61
1001
0000
0000
0000
,  // measure 62
1000
0000
0000
0000
,  // measure 63
0001
0000
0000
0000
,  // measure 64
1000
0000
0000
0000
;
