#TITLE:Sweet Memories;
#SUBTITLE:;
#ARTIST:Seiko Matsuda;
#TITLETRANSLIT:;
#SUBTITLETRANSLIT:;
#ARTISTTRANSLIT:;
#CREDIT:Nezemarth;
#BANNER:Sweet Memories.png;
#BACKGROUND:Sweet Memories-bg.png;
#LYRICSPATH:;
#CDTITLE:;
#MUSIC:Sweet Memories.ogg;
#OFFSET:-2.692;
#SAMPLESTART:87.005;
#SAMPLELENGTH:12.000;
#SELECTABLE:YES;
#BPMS:0.000=67.578;
#STOPS:;
#BGCHANGES:;

//---------------dance-single - ----------------
#NOTES:
     dance-single:
     :
     Hard:
     9:
     0.304,0.367,0.037,0.103,0.573: // measure 1
0000
0000
0000
0000
,  // measure 2
0000
0000
0000
0000
,  // measure 3
0000
0000
0000
0000
,  // measure 4
0000
0000
0000
0000
,  // measure 5
0000
0000
0000
1000
0000
0010
0100
0000
0000
0001
0000
0000
,  // measure 6
2000
0000
0000
0000
0000
0000
0010
0000
0000
3001
0100
0010
,  // measure 7
1000
0000
0000
0001
0000
0010
0100
0000
0000
1000
0000
0000
,  // measure 8
0002
0000
0000
0000
0000
0000
0010
0000
0000
1003
0010
1000
,  // measure 9
0100
0000
0010
0000
0000
0001
1000
0000
0000
0001
0100
0001
,  // measure 10
0010
0000
0100
0000
0000
1000
0001
0000
0001
1000
0010
0100
,  // measure 11
1000
0100
0001
1000
0000
0100
0001
0000
0001
0100
0010
0001
,  // measure 12
1000
0010
0001
0010
0000
1000
0100
0000
0010
0000
0001
1000
,  // measure 13
0100
0000
0000
0010
0001
0100
0020
0030
0000
0001
0010
0200
,  // measure 14
0000
0300
0100
0001
0000
0000
2000
0000
0000
3100
0100
0100
,  // measure 15
0002
0000
0000
0023
0000
0000
1030
0000
0000
0001
0010
0100
,  // measure 16
0001
0000
0100
0000
1000
0010
0100
0000
0000
1000
0100
0001
,  // measure 17
0010
0000
1000
0000
0000
0010
0100
0000
0100
1000
0010
0100
,  // measure 18
1000
0000
0100
0000
0000
0001
1000
0000
1000
0100
0001
1000
,  // measure 19
0010
0001
0100
1000
0000
1000
0100
0000
0100
0010
1000
0100
,  // measure 20
0001
0100
0010
0001
0000
1000
0010
0000
0100
0000
1000
0100
,  // measure 21
0001
0000
0000
1000
0100
0010
1000
0000
0000
0010
0001
1000
,  // measure 22
0010
0000
0010
0100
0000
0000
2000
0000
0000
3100
0100
0100
,  // measure 23
0002
0000
0000
0023
0000
0000
2030
0000
0000
3010
0001
1000
,  // measure 24
0010
0000
0010
0000
0100
1000
0100
0010
0001
0010
1000
0001
,  // measure 25
0010
0000
0100
0000
1000
0000
1001
0000
0000
0000
1000
0010
1000
0000
0001
0000
0100
0000
0010
0000
1000
0000
0001
0000
,  // measure 26
0010
0000
0100
0000
1000
0000
1001
0000
0000
0000
0001
0010
0001
0000
0100
0000
1000
0000
0100
0000
0010
0000
1000
0000
,  // measure 27
0001
0010
0100
1001
0000
0000
0001
1000
0100
0100
0001
0010
,  // measure 28
0020
0000
0000
0000
0000
0000
0000
0000
1030
0000
0001
1000
0001
0000
0100
0000
1000
0000
0100
0000
0001
0000
1000
0000
,  // measure 29
0100
0000
0010
0000
0001
0000
1001
0000
0000
0000
1000
0100
1000
0000
0001
0000
0010
0000
0100
0000
1000
0000
0001
0000
,  // measure 30
0100
0000
0010
0000
1000
0000
1001
0000
0000
0000
0001
0100
0001
0000
0010
0000
0100
0000
1000
0000
0000
0000
0001
0000
,  // measure 31
0100
0000
1000
0000
0100
0000
0010
0000
0000
0000
1000
0100
0010
0000
0001
0000
1000
0000
0010
0000
0000
0000
0100
0000
,  // measure 32
0001
0000
1000
0000
0100
0000
0010
0000
0000
0000
0001
0100
0010
0000
0000
0000
0000
0000
1000
0000
0000
0000
0000
0000
,  // measure 33
0200
0000
0000
0301
0100
1000
0100
0001
0100
1000
0100
0001
,  // measure 34
0100
1000
0100
0001
0100
1000
0000
0000
0000
0000
0000
0000
,  // measure 35
0010
0001
0010
1000
0010
0001
0010
1000
0010
0001
0010
1000
,  // measure 36
0010
0001
0010
1000
0010
0001
0000
0000
0000
0000
0000
0000
,  // measure 37
0020
1000
0100
0001
,  // measure 38
0030
0000
0000
0000
;

//---------------dance-single - ----------------
#NOTES:
     dance-single:
     :
     Medium:
     6:
     0.176,0.231,0.000,0.169,0.187:
0000
0000
0000
0000
,
0000
0000
0000
0000
,
0000
0000
0000
0000
,
0000
0000
0000
0000
,
0000
0000
0000
1000
0000
0010
0100
0000
0000
0001
0000
0000
,
2000
0000
0100
3001
,
1000
0000
0000
0100
0000
0010
0001
0000
0000
1000
0000
0000
,
0020
0000
0100
0001
,
1030
0000
1000
0000
0000
0000
0100
0000
0000
0010
0000
0000
,
0001
0000
0001
0000
0000
0000
0100
0000
0000
0010
0000
0000
,
1000
0000
0100
0000
0000
0000
0010
0000
0000
0001
0000
0000
,
0100
0000
0010
0000
0000
0000
1000
0000
0100
0000
0010
0000
,
0001
0000
0000
1000
0000
0010
0100
0000
0000
0001
0000
0000
,
0010
0100
2000
3020
,
0032
0000
0000
0203
0000
0000
2300
0000
0000
3001
0000
0001
,
0100
0000
1000
0000
0100
0000
0010
0000
0000
1000
0000
1000
,
0100
0000
0010
0000
0000
0000
0001
0000
0000
0100
0000
0100
,
0010
0000
1000
0000
0000
0000
0100
0000
0000
0010
0000
0010
,
0001
0000
1000
0000
0000
0000
0010
0000
0000
0100
0000
0100
,
0001
0000
0000
1000
0000
0000
0100
0000
0010
0000
0001
1000
,
0001
0000
0000
0100
0000
0100
0010
0000
0000
1000
0000
1000
,
0100
0010
0002
0203
,
2300
0000
0000
3020
0000
0000
0032
0000
0000
1003
0000
0010
,
0100
0000
0001
0000
0010
0100
0010
0000
0000
0001
0100
0001
,
0100
0000
0200
0000
0000
0000
0300
0000
0000
0010
1000
0010
,
1000
0000
2000
0000
0000
0000
3000
0000
0000
0100
0010
0100
,
0010
0000
0020
0000
0000
0000
0031
0000
0001
0100
0000
0100
,
0020
0000
0000
0000
1030
0001
0010
0000
0000
0100
1000
0100
,
0010
0000
0020
0000
0000
0000
0030
0000
0000
0001
0100
0010
,
0100
0000
0001
0000
1000
0100
0020
0000
0000
0030
0000
0001
,
0100
0000
0000
1000
0000
0000
0100
0000
0000
0001
0000
1000
,
0100
0001
0100
1000
,
0001
0200
0000
0000
,
2300
0000
0000
0000
,
3020
0000
0000
0000
,
0032
0000
0000
0000
,
2003
0000
0000
0000
,
3000
0000
0000
0000
;

//---------------dance-single - ----------------
#NOTES:
     dance-single:
     :
     Easy:
     4:
     0.111,0.163,0.000,0.125,0.011:
0000
0000
0000
0000
,
0000
0000
0000
0000
,
0000
0000
0000
0000
,
0000
0000
0000
0000
,
0000
1000
0001
0010
,
0001
0000
1000
0000
,
0001
1000
0010
1000
,
0001
0000
0010
0100
,
1000
0000
0000
0010
,
0100
0000
0000
0001
,
0010
0000
0000
0100
,
0010
0000
0000
0000
,
0001
0100
0010
1000
,
0100
0000
0020
0230
,
2300
3002
0203
0310
,
0100
0001
1000
0100
,
0010
0000
0000
0001
,
0100
0000
0000
0010
,
1000
0000
0000
0100
,
0010
0000
0000
0000
,
0001
0010
0100
1000
,
0010
0100
2000
3200
,
0320
2030
3002
0013
,
0100
1000
0100
0010
,
0001
0000
0001
0000
0000
0000
0000
0000
0000
0100
0000
0000
,
0010
0000
0010
0000
0000
0000
0000
0000
0000
1000
0000
0000
,
0100
0000
0100
0000
0000
0000
0010
0000
0000
0001
0000
0000
,
0200
0000
0310
1000
,
0001
0010
0001
1000
,
0010
0100
0002
0000
,
1003
0100
0001
0000
,
0001
0100
1000
0010
,
0200
0000
0000
0000
,
0302
0000
0000
0000
,
2003
0000
0000
0000
,
3200
0000
0000
0000
,
0320
0000
0000
0000
,
0030
0000
0000
0000
;

//---------------dance-single - ----------------
#NOTES:
     dance-single:
     :
     Beginner:
     1:
     0.000,0.000,0.000,0.000,0.000:
0000
0000
0000
0000
;
