#VERSION:0.83;
#TITLE:Svesim Kaledas kartu;
#SUBTITLE:;
#ARTIST:Katazina ir Iruna;
#TITLETRANSLIT:;
#SUBTITLETRANSLIT:;
#ARTISTTRANSLIT:;
#GENRE:;
#CREDIT:;
#MUSIC:Svesim Kaledas kartu.ogg;
#BANNER:Svesim Kaledas kartu.png;
#BACKGROUND:Svesim Kaledas kartu-bg.png;
#CDTITLE:;
#SAMPLESTART:48.306;
#SAMPLELENGTH:15.000;
#SELECTABLE:YES;
#OFFSET:-0.025;
#BPMS:0.000=128.000
,168.000=64.000
,188.000=128.000
;
#STOPS:;
#BGCHANGES:;
#FGCHANGES:;

//--------------- dance-single - ----------------
#NOTEDATA:;
#STEPSTYPE:dance-single;
#DESCRIPTION:;
#DIFFICULTY:Beginner;
#METER:2;
#RADARVALUES:0,0,0,0,0;
#NOTES:
0000
0000
0000
0000
,
0000
0000
0000
0000
,
1000
0000
0000
0000
,
0000
0000
0000
0000
,
1000
0000
0000
0000
,
0000
0000
0000
0000
,
0001
0000
0000
0000
,
0000
0000
0000
0000
,
0001
0000
0000
0000
,
0000
0000
0000
0000
,
0010
0000
0000
0000
,
0000
0000
0000
0000
,
0010
0000
0000
0000
,
0000
0000
0000
0000
,
0100
0000
0000
0000
,
0000
0000
0000
0000
,
0100
0000
0100
0000
,
0100
0000
0100
0000
,
0110
0000
0000
0000
,
1001
0000
0000
0000
,
0110
0000
0000
0000
,
1001
0000
0000
0000
,
0100
0000
0100
0000
,
0010
0000
0010
0000
,
1001
0000
0000
0000
,
1001
0000
0000
0000
,
0110
0000
0000
0000
,
1001
0000
0000
0000
,
0110
0000
0000
0000
,
1001
0000
0000
0000
,
0100
0000
0100
0000
,
0010
0000
0010
0000
,
1001
0000
0000
0000
,
1001
0000
0000
0000
,
0001
0000
0000
0000
,
0000
0000
0000
0000
,
0001
0000
0000
0000
,
0000
0000
0000
0000
,
1000
0000
0000
0000
,
1000
1000
1000
0000
,
1000
0000
0000
0000
,
1000
0000
0000
0000
,
0010
0000
0000
0000
,
0010
0010
0010
0000
,
0100
0100
0100
0000
,
0001
0000
0001
0000
,
1000
0000
0000
0000
,
0110
0000
0000
0000
,
1001
0000
0000
0000
,
0110
0000
0000
0000
,
1001
0000
0000
0000
,
0100
0000
0100
0000
,
0010
0000
0010
0000
,
1001
0000
0000
0000
,
1001
0000
0000
0000
,
0110
0000
0000
0000
,
1001
0000
0000
0000
,
0110
0000
0000
0000
,
1001
0000
0000
0000
,
0100
0000
0100
0000
,
0010
0000
0010
0000
,
1001
0000
0000
0000
,
1001
0000
0000
0000
,
1001
0000
0000
0000
,
2002
0000
0000
0000
,
3003
0000
0000
0000
;

//--------------- dance-single - ----------------
#NOTEDATA:;
#STEPSTYPE:dance-single;
#DESCRIPTION:;
#DIFFICULTY:Easy;
#METER:6;
#RADARVALUES:0,0,0,0,0;
#NOTES:
0000
0000
0000
0000
,
0000
0000
0000
0000
,
1000
0000
0000
0000
,
1000
0000
0000
0000
,
1000
0000
1000
0000
,
1000
0000
1000
0000
,
0001
0000
0000
0000
,
0001
0000
0000
0000
,
0001
0000
0001
0000
,
0001
0000
0001
0000
,
0100
0000
0000
0000
,
0100
0000
0000
0000
,
0100
0000
0100
0000
,
0100
0000
0100
0000
,
0010
0000
0000
0000
,
0010
0000
0000
0000
,
0010
0000
0010
0000
,
0010
0010
0010
0010
,
0110
0000
1001
0000
,
0110
0010
0010
0010
,
0110
0000
1001
0000
,
0110
0100
0100
0100
,
0100
0100
0100
0000
,
0001
0001
0001
0000
,
1000
0000
1000
0000
,
1000
0010
0100
0001
,
0110
0000
1001
0000
,
0110
0010
0010
0010
,
0110
0000
1001
0000
,
0110
0100
0100
0100
,
0100
0100
0100
0000
,
1000
1000
1000
0000
,
0100
0000
0010
0000
,
1001
1001
1001
1001
,
1001
0000
0000
0000
,
0110
0000
0000
0000
,
1001
0000
0000
0000
,
0110
0000
0000
0000
,
1001
0000
1001
0000
,
0110
0110
0110
0000
,
1001
0000
1001
0000
,
1001
0000
0000
0000
,
2000
0000
0000
0000
0000
0000
0000
3000
,
2000
0000
0000
3000
0002
0000
0000
0003
,
0020
0000
0000
0030
0200
0000
0000
0300
,
1001
1001
1001
0000
0110
0110
0110
0000
,
1001
1001
1001
0000
,
0110
0110
1001
0000
,
0000
0000
1001
1001
,
0100
0000
0100
0000
,
0110
0000
1000
0001
,
1001
0110
1001
0000
,
1001
0110
1001
0000
,
0110
0000
0100
1000
,
0110
0110
0110
0000
,
1001
1001
1001
0000
,
1000
1000
1000
1000
,
0110
1001
0110
0000
,
0001
0001
0001
0001
,
0110
1001
0110
0000
,
1000
1000
1000
0000
,
0001
0000
1000
0000
,
0010
0000
0100
0000
,
1000
0000
0001
0000
,
0020
0000
0000
0000
,
0030
0000
0000
0000
;

//--------------- dance-single - ----------------
#NOTEDATA:;
#STEPSTYPE:dance-single;
#DESCRIPTION:;
#DIFFICULTY:Medium;
#METER:8;
#RADARVALUES:0,0,0,0,0;
#NOTES:
0000
0000
0000
0000
,
0000
0000
0000
0000
0000
0000
1000
0001
,
0100
0000
0000
0010
0000
0100
0001
0000
,
0010
0000
0000
0100
0000
1000
0010
0100
,
0001
0000
0000
0010
0000
0000
0001
0000
,
0100
0000
0000
0010
0000
0100
0000
0010
,
1000
0000
0000
0100
0000
0010
0100
1000
,
0001
0000
0000
0100
0000
0010
0100
0001
,
0010
0000
0000
0100
0000
0000
0010
0100
,
1000
0000
0000
0010
0000
0000
0100
0100
,
0001
0010
0100
1000
0000
0000
0100
0000
,
1000
0010
0100
0001
0000
0010
0100
0000
,
1000
0000
0000
1000
0000
0000
0001
0001
,
0100
0000
0000
0100
0000
0000
0010
0010
,
1000
0000
0010
0100
0001
0100
0010
0000
,
1000
0000
0100
0010
0001
0010
0100
0000
,
1000
0010
0100
0001
,
0010
0100
1000
0010
0100
0001
0010
0000
,
0100
0000
0000
1000
1000
0000
0000
0001
,
0001
0000
0000
0100
0010
0100
0001
0010
,
0010
0000
0000
0001
0001
0000
0000
1000
,
1000
0000
0000
0010
0100
0010
1000
0100
,
0010
0001
1000
0000
,
0010
0000
1000
0000
0001
0001
0000
0000
,
1001
0000
0000
1000
1001
0000
0000
0001
,
1001
0001
1000
0010
,
0100
0000
0000
0001
0001
0000
0000
1000
,
1000
0000
0000
0100
0010
0100
1000
0010
,
0010
0000
0000
1000
1000
0000
0000
0001
,
0001
0000
0000
0010
0100
0010
0001
0100
,
0010
1000
0001
0000
,
0010
0000
0001
0000
1000
1000
0000
0000
,
1001
0000
0000
0001
1001
0000
0000
1000
,
1001
0110
1001
0110
,
1000
0001
0000
0010
0000
0000
0100
0010
,
0001
1000
0000
0010
0000
0000
0100
0010
,
1000
0001
0000
0010
0000
0000
0100
0010
,
0001
1000
0000
0010
0100
0000
0001
0100
,
0010
0000
1000
0100
0010
0001
0000
0000
,
0100
0000
0001
0000
1000
0000
0100
0010
,
0001
0100
0000
0010
0100
0000
0001
1000
,
0200
0000
0000
0300
,
0010
0000
0000
0000
0001
0000
0000
0000
0010
0000
0100
1000
0000
0000
0000
0000
,
0010
0000
0000
1000
1000
0000
0000
0001
0001
0000
0000
0010
0100
0010
0001
0100
,
0100
0000
0000
0001
0001
0000
0000
1000
1000
0000
0000
0100
1000
0000
0010
0000
,
0100
0001
1000
0000
0100
1000
0001
0000
,
0010
0000
0000
0001
0001
0000
0000
1000
2000
0000
0000
0000
0000
0000
3000
0000
,
0100
0000
0000
1000
1000
0000
0000
0001
,
0001
0000
0000
0100
0010
0100
0001
0010
,
0010
0000
0000
0001
0001
0000
0000
1000
,
1000
0000
0000
0010
0100
0010
1000
0100
,
0010
0001
1000
0000
,
0010
0000
1000
0000
0001
0001
0000
0000
,
1001
0000
0000
1000
1001
0000
0000
0001
,
1001
0001
1000
0010
,
0100
0000
0000
0001
0001
0000
0000
1000
,
1000
0000
0000
0100
0010
0100
1000
0010
,
0010
0000
0000
1000
1000
0000
0000
0001
,
0001
0000
0000
0010
0100
0010
0001
0100
,
0010
1000
0001
0000
,
0010
0000
0001
0000
1000
1000
0000
0000
,
1001
0000
0000
0001
1001
0000
0000
1000
,
1001
0000
0000
0001
1001
0000
0000
1000
,
1001
0000
0000
0001
1001
0000
0000
0100
,
0220
0000
0000
0000
,
0330
0000
0000
0000
;

//--------------- dance-single - ----------------
#NOTEDATA:;
#STEPSTYPE:dance-single;
#DESCRIPTION:;
#DIFFICULTY:Hard;
#METER:13;
#RADARVALUES:0,0,0,0,0;
#NOTES:
0000
0000
0000
0000
,
0000
0000
0000
0000
0000
0000
0010
1000
,
0100
0000
0010
0000
0001
0000
0200
0000
0000
2300
0000
0000
3100
0000
0010
0000
,
2000
0000
0000
3100
0010
0000
0200
0000
0000
2300
0000
0000
3001
0000
0100
0000
,
0020
0000
0000
2030
0000
0000
3100
0000
0010
0100
0000
0000
1000
0000
0010
0000
,
0200
0000
0301
1000
0000
0000
0100
0000
0010
0002
0000
0000
0103
0000
0010
0000
,
0200
0000
0301
0010
0000
0000
2000
0000
0000
3020
0000
0000
0031
0000
0100
0000
,
0020
0000
0000
2030
0000
0000
3100
0000
1000
0010
0000
0000
0100
0000
1000
0000
,
0200
0000
0000
0302
0000
0000
0023
0000
0000
0230
0000
0000
0301
0000
0100
0000
,
2000
0000
3010
0100
0000
0000
0002
0000
0000
0023
0000
0000
0130
0000
0001
0000
,
0100
0000
1000
0000
0010
0000
0002
0000
0000
0023
0000
0000
0130
0000
0001
0000
,
0020
0000
0000
0130
0001
0000
0200
0000
0000
2300
0000
0000
3010
0000
0100
0000
,
2000
0000
0000
3200
0000
0000
0310
0000
1000
0200
0000
0000
0310
0000
0100
0000
,
2000
0000
3001
0100
0000
0000
1000
0000
0100
0002
0000
0000
0013
0000
0100
0000
,
2000
0000
0000
3001
0010
0000
0100
0000
1000
0010
1000
0000
0010
0000
0100
0000
,
0002
0000
0000
1003
0010
0000
0100
0000
0001
0010
0001
0000
0100
0000
0010
0000
,
2000
0000
0000
3002
0000
0000
0013
0000
0100
0010
0000
0000
0001
0000
0100
0000
,
0010
0100
0001
0000
0010
0100
1000
0000
0010
0100
0010
0000
1000
0000
0000
0000
,
0002
0000
0000
0023
0000
0000
0031
0000
0200
0000
0000
2300
0000
0000
3100
0000
,
0020
0000
0000
1030
0100
0000
0010
0000
0001
0000
0100
0000
0010
0000
0010
0000
,
2000
0000
0000
3200
0000
0000
1300
0000
0020
0000
0000
0032
0000
0000
0013
0000
,
0200
0000
0000
0301
0010
0000
0100
0000
1000
0000
0100
0000
0010
0000
0010
0000
,
0001
1000
0100
0000
,
0010
0001
1000
0000
,
0020
0000
0000
2030
0000
0000
3100
0000
0002
0000
0000
0203
0000
0000
0310
0000
,
0001
0100
0010
1000
,
0200
0000
0000
0310
0001
0000
0100
0000
0020
0000
0000
0130
0001
0000
0010
0000
,
0200
0000
0000
0310
0001
0000
1000
0000
0010
0000
0100
0000
0001
0000
0010
0000
,
0200
0000
0000
1300
0010
0000
0100
0000
0020
0000
0000
1030
0100
0000
0010
0000
,
0200
0000
0000
1300
0010
0000
0100
0000
0001
0000
0010
0000
0100
0000
1000
0000
,
0010
1000
0001
0000
,
0010
0100
0010
0100
1000
0000
0010
0000
,
0200
0000
0310
1000
0000
0000
0100
0000
0020
0000
0031
0100
0000
0000
0010
0000
,
0100
0000
0000
0100
0000
0000
0100
0000
0001
1000
0001
0000
0010
0000
0100
0000
,
1000
0000
0010
0000
0000
0000
0100
0000
0000
0000
0000
1000
0100
0000
0010
0000
,
1000
0100
0000
0010
0000
0000
0100
1000
,
0001
0000
0010
0000
0000
0000
0100
0000
0000
0000
0000
0001
0100
0000
0010
0000
,
0001
0100
0000
0010
0000
0000
0100
0010
,
1000
0000
0100
0010
0001
0001
0000
0000
,
0100
0010
0100
0010
1000
0000
0010
0100
,
0001
1000
0000
0100
0010
0000
0001
0100
,
0001
0000
0000
0001
0000
0000
0001
0000
0010
0100
0010
0000
0001
0000
0100
0000
,
0010
1000
0100
0010
0001
0100
0010
1000
0100
1000
0010
0002
0000
0013
1000
0001
,
0010
0000
0000
0010
0000
0000
0100
0000
1000
0000
0000
1000
0000
0000
0010
0000
0020
0000
0000
0000
0000
0000
0130
0000
0001
0000
0010
0000
1000
0000
0010
0000
,
0001
0000
0000
0001
0000
0000
0100
0000
0010
0000
0000
0010
0000
0000
1000
0000
0200
0000
0000
0000
0000
0000
1300
0000
0001
0000
0010
0000
0100
0000
0001
0000
,
0100
1000
0001
0000
0100
0010
1000
0000
,
0100
0000
0000
0100
0000
0000
0010
0000
0001
0000
0000
0001
0000
0000
0100
0000
0010
0000
0000
0000
0000
0000
0000
0000
0000
0000
0000
0000
0100
0000
0000
0000
,
0001
0000
0000
0010
0000
0000
0001
0000
0100
0000
0000
1000
0000
0000
0100
0000
,
0010
0000
0000
0100
0001
0010
0100
0100
,
1000
0000
0000
0010
0000
0000
1000
0000
0100
0000
0000
0001
0000
0000
0100
0000
,
0010
0000
0000
0100
1000
0010
0100
0100
,
0001
1000
0010
0000
,
0100
0001
1000
0000
,
0100
0000
0000
0100
0000
0000
1000
0000
0010
0000
0000
0010
0000
0000
0100
0000
,
0001
0000
0000
0001
0000
0000
0010
0000
0100
0010
0100
0000
1000
0000
0010
0000
,
0100
0000
0010
1000
0000
0000
1100
0000
0100
0000
0010
0001
0000
0000
0101
0000
,
0100
0000
0010
1000
0100
0000
0001
0000
1000
0000
0010
0000
0001
0000
0100
0000
,
0010
0000
0100
0001
0000
0000
0011
0000
0010
0000
0100
1000
0000
0000
1010
0000
,
0010
0000
0100
0001
0010
0000
1000
0000
0001
0000
0100
0000
1000
0000
0001
0000
,
0100
0010
0100
0000
0001
0000
0010
0000
,
0100
0000
1000
0000
0010
0100
0010
0000
,
1000
0000
0001
0010
0000
0000
0110
0000
0100
0000
0000
1000
0000
0000
1001
0000
,
0001
0000
1000
0010
0000
0000
0110
0000
0100
0000
0000
0001
0000
0000
1001
0000
,
1000
0000
0001
0010
0000
0000
0110
0000
0100
0000
0000
1000
0000
0000
0001
0000
,
2002
0000
0000
0000
,
3003
0000
0000
0000
;
