#VERSION:0.83;
#TITLE:Supermodel;
#SUBTITLE:;
#ARTIST:MÃ¥neskin;
#TITLETRANSLIT:;
#SUBTITLETRANSLIT:;
#ARTISTTRANSLIT:;
#GENRE:;
#ORIGIN:;
#CREDIT:;
#BANNER:Supermodel-banner.png;
#BACKGROUND:Supermodel-bg.png;
#PREVIEWVID:;
#JACKET:Supermodel-jacket.png;
#CDIMAGE:;
#DISCIMAGE:;
#LYRICSPATH:Supermodel.lrc;
#CDTITLE:;
#MUSIC:Supermodel.ogg;
#OFFSET:0.005000;
#SAMPLESTART:103.048950;
#SAMPLELENGTH:16.080000;
#SELECTABLE:YES;
#BPMS:0.000=121.000;
#STOPS:144.000=1.488;
#DELAYS:;
#WARPS:;
#TIMESIGNATURES:0.000=4=4;
#TICKCOUNTS:0.000=4;
#COMBOS:0.000=1;
#SPEEDS:0.000=1.000=0.000=0;
#SCROLLS:0.000=1.000;
#FAKES:;
#LABELS:0.000=Song Start;
#BGCHANGES:0.000=Supermodel.avi=1.000=0=0=0=StretchNoLoop====,
99999=-nosongbg-=1.000=0=0=0 // don't automatically add -songbackground-
;
#KEYSOUNDS:;
#ATTACKS:
;

//---------------dance-single - ----------------
#NOTEDATA:;
#CHARTNAME:;
#STEPSTYPE:dance-single;
#DESCRIPTION:;
#CHARTSTYLE:;
#DIFFICULTY:Hard;
#METER:13;
#RADARVALUES:0.587509,0.614597,0.280402,0.311558,0.393342,528.000000,492.000000,36.000000,40.000000,0.000000,0.000000,0.000000,0.000000,0.000000,0.587509,0.614597,0.280402,0.311558,0.393342,528.000000,492.000000,36.000000,40.000000,0.000000,0.000000,0.000000,0.000000,0.000000;
#CREDIT:Ben Speirs;
#NOTES:
0000
0000
0000
0000
,
0000
0000
0000
0000
,
0000
0000
0000
0000
,
0000
0000
0000
0000
,
0000
0001
0100
0001
1000
1000
0001
0001
,
1000
0100
0010
0002
0000
2003
0000
3020
,
0000
1030
0100
0001
1000
0010
0001
1000
,
0002
0000
0103
0000
0001
0100
1000
0100
,
0001
1000
0100
1000
0010
0010
0100
0001
,
1000
0100
0010
0001
0000
0011
0000
2001
,
0000
3001
0100
0010
0100
0100
0001
0010
,
0100
1000
0001
1000
0000
1010
0000
1002
,
0000
0103
0010
1000
0001
0001
1000
1000
,
0001
0010
0100
1000
0000
1100
0000
2001
,
0000
3001
0100
1000
0001
0010
1000
0001
,
2000
0000
0000
0000
3001
0000
0000
0000
1000
0100
0010
0000
0001
0000
1000
0000
,
0010
0000
0000
0010
0100
0000
0000
0000
0001
0100
0001
0000
1000
0000
0001
0000
,
0010
0000
0000
0010
0100
0000
0000
0000
1000
0100
1000
0000
0100
0000
0010
0000
,
0001
0000
1000
0000
0020
0000
0000
0000
1030
0000
0001
0000
0100
0000
0010
0100
,
0010
0000
1000
0000
0002
0000
0000
0000
1003
0000
0100
0000
0010
0001
0000
1000
,
0001
0000
1000
0000
0020
0000
0000
0000
1030
0000
0001
0000
0100
0010
0100
0000
,
0002
0000
0000
0000
2003
0000
0000
0000
3100
0000
0000
0100
0020
0000
0000
0000
,
0031
0000
1000
0000
0020
0000
0030
0010
,
0200
0000
0000
0000
0301
0000
1000
0001
1000
0001
0100
0000
0010
1000
0001
0000
,
1000
0000
1020
0000
0130
0030
0001
0000
1000
0100
0010
0000
0001
0000
1000
0000
,
0001
0000
0201
0000
0310
0000
1000
0000
0001
0010
0100
0000
1002
0000
0000
0000
,
1003
0000
1020
0000
0130
0030
0001
0000
1000
0100
0010
0000
0001
0000
0100
0000
,
0020
0000
0000
0000
0130
0000
0001
0010
0100
1000
0001
0000
0101
0000
0000
0000
,
1000
0000
0001
0010
0001
0000
1000
0000
0010
0100
0001
0000
1000
0000
0001
0000
,
0010
0000
0100
1000
0100
0000
0010
0000
0001
1000
0010
0000
2001
0000
0000
0000
,
3133
0000
1000
0001
1000
0000
0010
0000
1000
0100
0010
0000
0001
0000
1000
0000
,
0010
0000
0100
0001
1000
0001
1000
0000
0000
0000
0000
0000
0000
0000
0000
0000
,
1010
0000
0001
0010
0001
1000
0001
0100
0001
0000
0010
0000
0100
0000
1000
0000
,
0001
0000
1000
0010
1000
0001
1000
0100
1000
0000
0001
0000
0100
0000
0210
0000
,
0310
0000
1030
0001
0100
0001
1000
0001
0100
0000
0010
0000
1000
0000
0001
0000
,
0010
0000
0001
1000
0100
1000
0001
1000
0100
0000
0010
0000
0001
1000
0001
1000
,
0000
0000
0002
0100
,
0133
0000
0000
0000
1010
0000
0010
0000
0100
0000
0001
0000
1000
0100
1000
0000
,
0001
0000
1000
0000
0010
0100
0010
0000
1000
0000
0100
0000
0010
0000
0001
0000
,
0100
0000
0102
0000
0000
0000
1003
0000
0010
0000
0100
0001
0000
0100
0001
0000
,
0010
0000
0100
1000
0000
0100
1000
0000
0001
0000
1000
0000
0010
1000
0001
0000
,
0100
0102
0000
1003
0100
0001
1000
0010
,
0001
0000
1000
0000
0002
0000
0000
0000
0103
0000
0000
0000
0001
0000
1000
0010
,
0000
0100
0001
0000
0011
0000
0011
0000
1001
0000
0000
0000
0000
0000
1010
0000
,
1001
0000
0101
0101
1001
0000
0000
1100
,
0001
1000
0000
0000
1010
0000
0000
0001
0010
0000
0001
1000
0001
1000
0010
0000
,
0100
0000
0001
0000
0010
0000
0000
0010
0100
0000
1000
0001
1000
0001
0100
0000
,
0010
1000
0000
0001
1000
0000
0000
1000
0100
0000
0010
0001
0010
0001
1000
0000
,
0001
0100
0010
0000
2000
0000
0001
0000
3002
0000
0010
0000
0023
0000
0100
0000
,
0130
1000
0001
1000
0301
0000
0000
0000
1000
0000
0000
0000
0020
0000
0000
0000
,
0030
0000
0010
0000
0200
0000
0000
0000
0301
0000
1000
0001
1000
0001
0100
0000
,
0001
0010
0100
1000
0001
0000
0102
0000
1003
0000
0010
0000
0100
0001
1000
0000
,
0100
0000
0010
0000
0001
0000
0012
0000
0013
0000
0100
1000
0001
1000
0010
0000
,
2010
0030
0000
0000
3001
0000
0201
0000
0310
0000
1000
0000
0001
0010
0100
0000
,
1000
0000
0010
0000
0210
0000
0000
0000
0301
0000
0000
0000
1000
0010
0100
0002
,
0000
0000
2003
0000
3010
0000
1000
0001
1000
0000
0010
0000
1000
0100
0010
0000
,
0001
0100
0010
0000
1000
0000
0001
0010
0001
0000
1000
0100
0010
0001
1000
0000
,
2010
0000
0000
0000
3001
0000
0100
0010
0100
0000
0001
0000
1000
0100
0010
0000
,
0001
0100
0010
0000
1000
0000
0001
1000
3001
1000
0010
0000
0000
0000
0000
0000
,
0000
0000
0000
0000
1001
0000
1000
0010
0100
0010
1000
0010
0100
0000
0001
0000
,
1000
0000
0100
0000
0010
0000
0001
0010
0100
0010
0001
0010
0100
0000
1000
0000
,
0001
1000
0010
0000
0100
0000
0001
0100
0001
1000
0001
0010
0001
0000
0010
0000
,
0100
0000
1000
0000
0001
0000
1000
0100
1000
0001
1000
0010
1000
0000
0010
0000
,
0110
1001
0000
0000
0000
0000
0000
0000
;

//---------------dance-single - ----------------
#NOTEDATA:;
#CHARTNAME:;
#STEPSTYPE:dance-single;
#DESCRIPTION:;
#CHARTSTYLE:;
#DIFFICULTY:Medium;
#METER:9;
#RADARVALUES:0.362743,0.393342,0.062312,0.303769,0.035050,326.000000,318.000000,8.000000,39.000000,0.000000,0.000000,0.000000,0.000000,0.000000,0.362743,0.393342,0.062312,0.303769,0.035050,326.000000,318.000000,8.000000,39.000000,0.000000,0.000000,0.000000,0.000000,0.000000;
#CREDIT:Ben Speirs;
#NOTES:
0000
0000
0000
0000
,
0000
0000
0000
0000
,
0000
0000
0000
0000
,
0000
0000
0000
0000
,
0000
1000
0100
0000
0010
0000
0010
0000
,
0001
1000
0001
0100
0000
0100
0000
0010
,
0000
1000
0001
1000
0020
0000
0230
0000
,
0302
0000
0003
0000
1000
0001
1000
0000
,
0101
0000
1000
0000
0010
0010
1000
0000
,
0001
0010
0001
0020
0000
0230
0000
1300
,
0001
0000
1000
0000
0010
0010
0100
0000
,
0001
0100
0001
2000
0000
3200
0000
0310
,
0001
0000
1000
0000
0001
0100
0001
0100
,
0010
1000
0010
2000
0000
3002
0000
0023
,
0000
0031
0100
0001
2300
0000
3200
0000
,
0320
0000
0030
0000
0001
1000
0001
0000
,
1000
0000
0000
1000
0010
0000
0000
0000
0000
0000
0100
0000
0001
0000
0000
0000
,
1000
0000
0000
1000
0100
0000
0000
0000
0000
0000
0010
0000
0001
0000
1000
0000
,
0001
0000
0000
0001
0100
0000
0000
0000
0000
0000
0100
0000
0010
0000
0000
0000
,
1000
0000
0000
1000
0010
0000
0000
0000
0000
0000
1000
0000
0010
0000
0100
0000
,
0001
0000
0000
0001
1000
0000
0000
0000
0001
0000
0010
0000
0100
0000
1000
0000
,
0020
0230
0302
2003
,
3001
0000
0000
0000
0002
0000
0000
0013
,
0200
0000
0000
1300
0002
0000
1003
0000
,
1000
0010
0000
0100
0001
0100
0001
1000
,
0000
0001
0000
1000
0100
0010
0001
0000
,
0000
1000
0000
0001
0100
0001
1000
0000
,
0020
0230
0302
1003
,
0001
0100
0000
0010
1000
0010
1000
0001
,
0000
1000
0000
0001
0010
0100
1000
0000
,
0000
0001
0000
1000
0010
1000
0001
0000
,
0100
0100
0010
0010
0000
0000
0000
0000
,
1000
0001
1000
0100
1000
1000
0000
0000
,
0001
0100
0001
1000
0001
0001
0000
0101
,
0000
1000
0010
1000
0001
0001
0000
0000
,
0000
0001
0010
0001
1000
1000
0000
1001
,
0000
0000
1000
0100
,
0010
0000
1002
0000
0103
0000
0001
0100
,
0010
0000
1000
0010
0100
0002
0000
2003
,
0000
0000
3010
0000
0000
0000
1000
0000
0100
0000
0000
0100
0000
0000
0010
0000
,
0001
0000
0000
0001
0000
0000
1000
0000
0000
0000
0010
0000
0000
0000
0100
0000
,
0000
1002
0000
0103
0010
1000
0002
0000
,
0023
0000
0000
0000
0230
0000
0000
0000
1300
0000
0000
0000
0001
0000
0000
1000
,
0000
0010
0100
0100
0100
0000
0000
0010
,
0010
0000
1000
1000
1000
0000
0000
0001
,
0001
0000
1100
0000
0001
0000
1000
0001
,
0100
0000
0101
0000
1000
0000
0001
1000
,
0010
0000
1000
0001
0010
0000
0001
1000
,
0001
1000
0020
0000
0230
0000
0302
0000
,
2003
3001
0000
0002
,
0000
0013
0200
0000
0000
1300
0002
0000
,
1003
0000
0001
0100
0001
0100
0010
0010
,
1000
0001
0000
1000
0100
1000
0001
0001
,
0100
0000
0001
1000
0000
0001
0010
0100
,
1000
0000
0010
0000
0200
0000
0000
0000
0310
0000
1000
0000
0010
0000
0000
0100
,
3000
0001
1000
0010
1000
0010
0100
0100
,
0001
1000
0000
0001
0010
0001
1000
1000
,
0010
0000
1000
0001
0000
1000
0100
0010
,
0001
0100
0010
0010
0100
0100
0000
0000
,
0000
0000
0001
0100
0001
1000
0001
0001
,
0000
0000
1000
0100
1000
0001
1000
1000
,
0000
1010
0000
0001
0010
0001
1000
0010
,
1000
0001
0200
0000
0310
0000
1000
0100
,
0010
0001
0000
0000
0000
0000
0000
0000
;

//---------------dance-single - ----------------
#NOTEDATA:;
#CHARTNAME:;
#STEPSTYPE:dance-single;
#DESCRIPTION:;
#CHARTSTYLE:;
#DIFFICULTY:Beginner;
#METER:2;
#RADARVALUES:0.106820,0.147211,0.038945,0.000000,0.000000,96.000000,91.000000,5.000000,0.000000,0.000000,0.000000,0.000000,0.000000,0.000000,0.106820,0.147211,0.038945,0.000000,0.000000,96.000000,91.000000,5.000000,0.000000,0.000000,0.000000,0.000000,0.000000,0.000000;
#CREDIT:Ben Speirs;
#NOTES:
0000
0000
0000
0000
,
0000
0000
0000
0000
,
0000
0000
0000
0000
,
0000
0000
0000
0000
,
0001
0000
0000
0000
,
1000
0000
0000
0000
,
0010
0000
0010
0000
,
0010
0000
0000
0000
,
1000
0000
1000
0000
,
1000
0000
0000
0000
,
0001
0000
0001
0000
,
0001
0000
0000
0000
,
0100
0000
0100
0000
,
0100
0000
0000
0000
,
0010
0000
0010
0000
,
0010
0000
0000
0000
,
1000
1000
0000
0000
,
1000
0000
0000
0000
,
0001
0001
0000
0000
,
0001
0000
0000
0000
,
0100
0100
0000
0000
,
0100
0000
0100
0000
,
0100
0000
0000
0000
,
0010
0000
0000
0000
,
1001
0000
0000
0000
,
1000
0000
1000
1000
,
1000
0000
0000
0000
,
0010
0000
0010
0000
,
0010
0000
0000
0000
,
0100
0000
0100
0100
,
0100
0000
0000
0000
,
0001
0001
0000
0000
,
1001
0000
0000
0000
,
0001
0000
0001
0000
,
0001
0000
0000
0000
,
0100
0000
0100
0100
,
0000
0000
0000
0000
,
0000
0001
0000
0001
,
0000
0001
0000
0000
,
0000
1000
0000
1000
,
0000
1000
0000
0000
,
0000
0010
0000
0010
,
0000
0010
0000
0000
,
0000
0100
0100
0000
,
0000
0010
0010
0000
,
0000
1001
0000
0000
,
0000
1000
0000
0000
,
0000
0001
0000
0001
,
0000
0001
0000
0000
,
0000
0100
0000
0000
,
0000
0010
0000
0000
,
0000
1001
0000
0000
,
0000
0001
0000
0001
,
0001
0001
0000
0000
,
0000
0100
0000
0100
,
0000
0100
0000
0000
,
0000
0010
0000
0010
,
0010
0010
0000
0000
,
0000
1000
1000
0000
,
0000
1001
0000
0000
,
0000
1000
0000
1000
,
0000
1000
0000
0000
,
0000
0100
0000
0100
,
0100
0000
0000
0000
;

//---------------dance-single - ----------------
#NOTEDATA:;
#CHARTNAME:;
#STEPSTYPE:dance-single;
#DESCRIPTION:;
#CHARTSTYLE:;
#DIFFICULTY:Easy;
#METER:5;
#RADARVALUES:0.210302,0.220817,0.054523,0.077890,0.000000,189.000000,182.000000,7.000000,10.000000,0.000000,0.000000,0.000000,0.000000,0.000000,0.210302,0.220817,0.054523,0.077890,0.000000,189.000000,182.000000,7.000000,10.000000,0.000000,0.000000,0.000000,0.000000,0.000000;
#CREDIT:Ben Speirs;
#NOTES:
0000
0000
0000
0000
,
0000
0000
0000
0000
,
0000
0000
0000
0000
,
0000
0000
0000
0000
,
1000
0001
0000
0100
,
0001
1000
0000
0100
,
0010
0010
0001
0001
,
2000
3000
3000
0000
,
0001
0100
0010
0010
,
1000
0100
0010
0000
,
0001
0001
0010
0100
,
1000
1000
0010
0000
,
1000
0010
0100
0100
,
0001
1000
0100
0000
,
1000
0100
0010
0001
,
0200
0300
0000
0000
,
0010
0010
0000
1000
,
0001
1000
0000
0001
,
0010
0010
0000
0001
,
0100
0001
0000
0100
,
0010
0010
1000
0001
,
2000
3200
0320
0032
,
1003
0000
0001
0000
,
1000
0000
0010
0100
,
0000
1001
0001
0100
,
0000
0001
1000
0100
,
0000
1000
0001
0100
,
0010
0010
1000
0010
,
0000
1001
1000
0010
,
0000
1000
0010
0100
,
0000
0010
0010
0100
,
0001
1000
0000
0000
,
0001
0100
0001
0000
,
1000
0100
1000
0000
,
0001
0010
0001
0000
,
1000
0010
1000
0001
,
0000
0000
0010
0010
,
0010
1001
0001
0000
,
1000
0010
0010
0100
,
0001
1000
0000
0001
,
0000
1000
0100
0010
,
0001
1000
0000
0001
,
0000
0100
0100
0010
,
1000
0001
0001
0000
,
1000
0010
0010
0000
,
0100
1001
0000
0001
,
1000
0100
0000
1000
,
0001
0100
0100
0010
,
0000
2000
3020
0230
,
0302
1003
0000
0001
,
0000
0010
0000
0010
,
0100
0000
1001
1000
,
0100
0000
1000
0010
,
0100
0000
0010
0010
,
0100
0001
1000
0001
,
1000
0000
1001
0001
,
0010
0000
0001
0100
,
0010
0000
1000
1000
,
0010
0100
0100
0000
,
0000
0001
0100
0010
,
0000
1000
0100
0010
,
0000
0001
1000
0010
,
0000
1000
0001
0100
,
1001
0000
0000
0000
;

//---------------dance-double - ----------------
#NOTEDATA:;
#CHARTNAME:;
#STEPSTYPE:dance-double;
#DESCRIPTION:;
#CHARTSTYLE:;
#DIFFICULTY:Hard;
#METER:13;
#RADARVALUES:0.583059,0.590013,0.257035,0.249246,0.397236,524.000000,491.000000,33.000000,32.000000,0.000000,0.000000,0.000000,0.000000,0.000000,0.583059,0.590013,0.257035,0.249246,0.397236,524.000000,491.000000,33.000000,32.000000,0.000000,0.000000,0.000000,0.000000,0.000000;
#CREDIT:Ben Speirs;
#NOTES:
00000000
00000000
00000000
00000000
,
00000000
00000000
00000000
00000000
,
00000000
00000000
00000000
00000000
,
00000000
00000000
00000000
00000000
,
00000000
00010000
00001000
00010000
00000100
00000100
00000010
00000010
,
00000001
00001000
00000001
00000200
00000000
00000320
00000000
00002030
,
00000000
00003001
00000010
00001000
00010000
01000000
10000000
00100000
,
00020000
00000000
00031000
00000000
00010000
00001000
00100000
00001000
,
00010000
00000100
00000010
00000100
00010000
00010000
00001000
00100000
,
00010000
00010000
01000000
00100000
10000000
00010000
00000000
20010000
,
00000000
30100000
01000000
00010000
00100000
00100000
00010000
01000000
,
00001000
00001000
00010000
00000100
00001000
00000001
00000000
00000102
,
00000000
00001003
00000100
00010000
00001000
00001000
00100000
00010000
,
01000000
01000000
00100000
10000000
00010000
01000000
00000000
01020000
,
00000000
10030000
01000000
00010000
00001000
00000100
00000001
00000010
,
00002000
00000000
00000000
00000000
00013000
00000000
00000000
00000000
00001000
00100000
00001000
00000000
00010000
00000000
00000100
00000000
,
00001000
00000000
00000000
00001000
00000010
00000000
00000000
00000000
00001000
00000001
00001000
00000000
00000001
00000000
00000100
00000000
,
00000010
00000000
00000000
00000010
00001000
00000000
00000000
00000000
00000100
00001000
00000100
00000000
00010000
00000000
00001000
00000000
,
00100000
00000000
00000000
00100000
00010000
00000000
00000000
00000000
10000000
00000000
01000000
00000000
00010000
00000000
01000000
00100000
,
01000000
00000000
00000000
01000000
10000000
00000000
00000000
00000000
00010000
01000000
00010000
00000000
10000000
00000000
00100000
00000000
,
01000000
00000000
00000000
01000000
00010000
00000000
00000000
00000000
00100000
00000000
00010000
00000000
01000000
00010000
01000000
00000000
,
00001000
00000000
00000000
00001000
00010000
00000000
00000000
00010000
00000100
00000000
00000000
00000100
00000020
00000000
00000000
00000000
,
00000032
00000000
00000003
00000000
00002000
00000000
00000000
00003001
,
00000200
00000000
00000000
00000000
00001300
00000000
00010000
00001000
00010000
00000100
00010000
00000000
00001000
00100000
00001000
00100000
,
00010000
00000000
01020000
00000000
10030000
00000000
00010000
00000000
01000000
00100000
10000000
00000000
00010000
00000000
00100000
00000000
,
01000000
00000000
02100000
00000000
03100000
00000000
00010000
00000000
01000000
00001000
00010000
00000000
00021000
00000000
00000000
00000000
,
00030100
00000000
00001200
00000000
00001300
00000000
00000010
00000000
00000100
00000001
00001000
00000000
00000010
00000000
00000100
00000000
,
00000102
00000000
00000000
00000000
00001003
00000000
00000001
00000010
00000100
00001000
00000010
00000000
00001001
00000000
00000000
00000000
,
00001000
00000000
00001200
00000000
00010300
00000000
00001000
00000000
00100000
00010000
01000000
00000000
00100000
00000000
10000000
00000000
,
00010000
00000000
02010000
00000000
03100000
00000000
10000000
00000000
00010000
00100000
00001000
00000000
00012000
00000000
00000000
00000000
,
00013000
00000000
00010200
00000000
00001300
00000000
00000010
00000000
00000100
00000001
00001000
00000000
00000001
00000000
00000010
00000000
,
00000100
00010000
00000100
00010000
00001000
00010000
00001000
00000000
00000000
00000000
00000000
00000000
00000000
00000000
00000000
00000000
,
00101000
00000000
00001000
00100000
00010000
00100000
00001000
00100000
00010000
00000000
00100000
00000000
00001000
00000000
00010000
00000000
,
00000010
00000000
00010000
00000010
00001000
00000010
00010000
00000010
00001000
00000000
00000010
00000000
00010000
00000000
00022000
00000000
,
00033000
00003000
00010000
00000100
00001000
00000100
00010000
00000100
00001000
00000000
00000100
00000000
00010000
00000000
00001000
00000000
,
01000000
00000000
00001000
01000000
00010000
01000000
00001000
01000000
00010000
00000000
01000000
00000000
00001000
00010000
00001000
00010000
,
00000000
00000000
00002000
00100000
,
00013000
00000000
00000000
00000000
00011000
00000000
00010000
00000000
00100000
00000000
10000000
00000000
00010000
10000000
00010000
00000000
,
10000000
00000000
00100000
00000000
01000000
00000000
01000000
00000000
00010000
00000000
00100000
00001000
00100000
00001000
00010000
00000000
,
00000100
00000000
00020100
00000000
00000000
00000000
00030010
00000000
00000100
00000000
00000010
00001000
00000000
00001000
00000100
00000000
,
00010000
00000000
00001000
00100000
00000000
00100000
00010000
00000000
10000000
00000000
10100000
00000000
00000000
00000000
01100000
00000000
,
00000000
10020000
00000000
10030000
01000000
00010000
00001000
00000010
,
00000001
00000000
00000100
00000000
00002000
00000000
00000000
00000000
00013000
00000000
00000000
00000000
00001000
00000000
00010000
00001000
,
00000000
00100000
00001000
00000000
00011000
00000000
00011000
00000000
00010100
00000000
00000000
00000000
00000000
00000000
00011000
00000000
,
00101000
00000000
01001000
01001000
00011000
00000000
00000000
00010010
,
00010000
00001000
00000000
00000000
00010100
00000000
00000000
00000100
00001000
00000000
00000010
00000100
00000010
00000100
00000010
00000000
,
00001000
00000000
00000001
00000000
00000010
00000000
00000000
00000010
00000100
00000000
00010000
00001000
00010000
00001000
00010000
00000000
,
00001000
00000000
00100000
00000000
00010000
00000000
00000000
00010000
10000000
00000000
00010000
01000000
00010000
01000000
00100000
00000000
,
10000000
01000000
10000000
00000000
00010000
00000000
00000000
00010000
01000000
00000000
00000000
01000000
00001000
00000000
00010000
00000000
,
00001000
00100000
00010000
00000000
01000000
00000000
00000000
00000000
00000000
00000000
00000000
00000000
00020000
00000000
00000000
00000000
,
00000000
00000000
10030000
00000000
00200000
00000000
00000000
00000000
00310000
00000000
00001000
00010000
00001000
00100000
00001000
00000000
,
00010000
00000100
00010000
00000100
00001000
00000000
00000001
00000100
00000010
00000000
00001000
00000000
00000100
00010000
00000100
00000000
,
00010000
00000000
00001000
00000000
00100000
00000000
00010000
00100000
01000000
00000000
10000000
00000000
00100000
01000000
00100000
00000000
,
10020000
00000000
00000000
00000000
01030000
00000000
00100000
10000000
01000000
00000000
00100000
00000000
00010000
01000000
00010000
00000000
,
00100000
00000000
00001000
00000000
00020000
00000000
00000000
00000000
00030100
00000000
00001000
00000000
00000001
00000100
00000001
00000100
,
00000000
00000010
00001000
00000000
00000100
00000000
00010000
00001000
00010000
00000000
00001000
00000000
00100000
00010000
01000000
00000000
,
00010000
10000000
00010000
00000000
01000000
00000000
00100000
10000000
00100000
00000000
01000000
00000000
00010000
00100000
00001000
00000000
,
00020000
00000000
00000000
00000000
00030100
00000000
00001000
00000010
00000100
00000000
00000001
00000000
00001000
00000100
00001000
00000000
,
00000001
00000000
00000100
00000000
00000001
00001000
00000001
00001000
00000001
00001000
00000010
00000000
00000000
00000000
00000000
00000000
,
00000000
00000000
00000000
00000000
00001001
00000000
00000001
00000100
00000010
00000100
00000001
00000100
00000010
00000000
00001000
00000000
,
00000100
00000000
00010000
00000000
00001000
00000000
00100000
00001000
00010000
00001000
00100000
00001000
00010000
00000000
00001000
00000000
,
00100000
00000000
01000000
00000000
10000000
00000000
00010000
01000000
00100000
01000000
00010000
01000000
00100000
00000000
10000000
00000000
,
01000000
00000000
00100000
00000000
00010000
00000000
01000000
00001000
00010000
00001000
01000000
00001000
00010000
00000000
00000100
00000000
,
00010000
00011000
00000000
00000000
00000000
00000000
00000000
00000000
;

//---------------dance-double - ----------------
#NOTEDATA:;
#CHARTNAME:;
#STEPSTYPE:dance-double;
#DESCRIPTION:;
#CHARTSTYLE:;
#DIFFICULTY:Medium;
#METER:9;
#RADARVALUES:0.360517,0.368758,0.085678,0.381659,0.027261,324.000000,313.000000,11.000000,49.000000,0.000000,0.000000,0.000000,0.000000,0.000000,0.360517,0.368758,0.085678,0.381659,0.027261,324.000000,313.000000,11.000000,49.000000,0.000000,0.000000,0.000000,0.000000,0.000000;
#CREDIT:Ben Speirs;
#NOTES:
00000000
00000000
00000000
00000000
,
00000000
00000000
00000000
00000000
,
00000000
00000000
00000000
00000000
,
00000000
00000000
00000000
00000000
,
00000000
00001000
00010000
00000000
00001000
00000000
00100000
00000000
,
00001000
00010000
00001000
00020000
00000000
00030200
00000000
00002300
,
00000000
00003001
00000100
00000001
00002000
00000000
00003200
00000000
,
00020300
00000000
00031000
00000000
00000000
00010000
00001000
00000000
,
00011000
00000000
00101000
00000000
00100000
00010000
01000000
00000000
,
00010000
10000000
00010000
20000000
00000000
30200000
00000000
01300000
,
00020000
00000000
00130000
00000000
00001000
00010000
00001000
00000000
,
00010000
00000100
00010000
00000200
00000000
00000320
00000000
00000031
,
00002000
00000000
00003010
00000000
00000100
00000001
00000100
00000000
,
00000001
00001000
00000001
00002000
00000000
00003200
00000000
00020300
,
00000000
00031000
00100000
00001000
00010000
00000100
00010000
00001000
,
00020000
00000000
00031000
00000000
00100000
00010000
01000000
00000000
,
00010000
00000000
00000000
00010000
10000000
00000000
00000000
00000000
00000000
00000000
10000000
00000000
00100000
00000000
00000000
00000000
,
01000000
00000000
00000000
01000000
00010000
00000000
00000000
00000000
00000000
00000000
00010000
00000000
00100000
00000000
00000000
00000000
,
00001000
00000000
00000000
00001000
00010000
00000000
00000000
00000000
00000000
00000000
00010000
00000000
00000100
00000000
00000000
00000000
,
00001000
00000000
00000000
00001000
00000010
00000000
00000000
00000000
00000000
00000000
00001000
00000000
00000001
00000000
00000000
00000000
,
00001000
00000000
00000000
00001000
00000001
00000000
00000000
00000000
00001000
00000000
00000001
00000000
00000100
00000000
00000010
00000000
,
00002000
00003200
00020300
00032000
,
00103000
00000000
00000000
00000000
00002000
00000000
00000000
00013000
,
00020000
00000000
00000000
00000000
00000000
00000000
00030100
00000000
00000200
00000000
00000000
00000000
00000310
00000300
00000000
00000000
,
00000001
00001000
00000000
00000001
00000100
00000001
00001000
00000100
,
00000000
00010100
00000000
00010000
00001000
00010000
00200000
00000000
,
10300000
00010000
00000000
10000000
01000000
10000000
00010000
01000000
,
00200000
00000000
10300000
00010000
02000000
00000000
03100000
00000000
,
10000000
00010000
00000000
10000000
00100000
10000000
00010000
00100000
,
00000000
00101000
00000000
00001000
00010000
00001000
00000200
00000000
,
00000301
00001000
00000000
00000001
00000010
00000001
00001000
00000010
,
00000100
00000100
00000010
00000010
00000000
00000000
00000000
00000000
,
00000001
00001000
00000001
00001000
00000100
00000100
00000000
00000000
,
00010000
00000100
00010000
00000100
00010000
00020000
00000000
00031000
,
00000000
00100000
00010000
00100000
00010000
00010000
00000000
00000000
,
00000000
10000000
00100000
10000000
00100000
00200000
00000000
01300000
,
00000000
00000000
10000000
01000000
,
00010000
00000000
00011000
00000000
00011000
00000000
00000000
00010000
,
00000100
00000000
00001100
00000000
00001100
00000000
00000000
00000001
,
00000100
00000000
00000001
00001000
00000100
00000000
00001000
00000001
,
00000100
00000000
00000001
00000100
00000000
00001000
00000000
00010000
,
00000000
00200000
00000000
00000000
10300000
00000000
00010000
01000000
,
00010000
10000000
02000000
00000000
03100000
00000000
01000000
00010000
,
00100000
00000000
00001000
00001000
00010000
00000000
00000000
00010000
,
00000100
00000000
00010000
00010000
00001000
00000000
00000000
00001000
,
00100000
00000000
00021000
00000000
00030100
00000000
00000000
00010000
,
00000100
00000010
00000002
00000000
00001003
00000000
00000000
00000001
,
00000100
00000010
00002000
00000000
00003100
00000000
00010000
00001000
,
00010000
00002000
02003000
03320000
,
03230000
30301000
00000000
00020000
,
00000000
00031000
00002000
00000000
00000000
00103000
00200000
00000000
,
01300000
00300000
00000000
00000000
10000000
00000000
00010000
00000000
00000000
00000000
10000000
00000000
01000000
00000000
10000000
00000000
,
00010000
01000000
00000000
01010000
00000000
01000000
00001000
00010000
,
00000200
00000000
00001300
00000010
00000000
00001000
00000001
00001000
,
00000010
00000100
00000002
00000000
00000013
00000100
00002000
00000000
,
00003001
00000000
00000001
00001000
00000000
00000001
00000010
00000001
,
00001000
00000010
00000000
00001010
00000000
00000010
00010000
00001000
,
00200000
00000000
00310000
01000000
00000000
00010000
10000000
00010000
,
01000000
00100000
20000000
00000000
31000000
01000000
00000000
00000000
,
00330000
00000000
10000000
00010000
10000000
01000000
10000000
10000000
,
00000000
00000000
00010000
10000000
00010000
01000000
00010000
00020000
,
00000000
00230000
00000000
00301000
00010000
00001000
00100000
00001000
,
00010000
00000100
00002000
00000000
00003010
00000000
00000100
00000001
,
00001000
00000001
00000000
00000000
00000000
00000000
00000000
00000000
;

//---------------dance-double - ----------------
#NOTEDATA:;
#CHARTNAME:;
#STEPSTYPE:dance-double;
#DESCRIPTION:;
#CHARTSTYLE:;
#DIFFICULTY:Easy;
#METER:5;
#RADARVALUES:0.205851,0.220817,0.038945,0.202513,0.000000,185.000000,180.000000,5.000000,26.000000,0.000000,0.000000,0.000000,0.000000,0.000000,0.205851,0.220817,0.038945,0.202513,0.000000,185.000000,180.000000,5.000000,26.000000,0.000000,0.000000,0.000000,0.000000,0.000000;
#CREDIT:Ben Speirs;
#NOTES:
// measure 0
00000000
00000000
00000000
00000000
,  // measure 1
00000000
00000000
00000000
00000000
,  // measure 2
00000000
00000000
00000000
00000000
,  // measure 3
00000000
00000000
00000000
00000000
,  // measure 4
00010000
00000000
00001000
00000000
,  // measure 5
00100000
00000000
00100000
00000000
,  // measure 6
00001000
00010000
00010000
00000100
,  // measure 7
00002000
00003000
00000000
00000001
,  // measure 8
00000100
00000100
00000010
00000000
,  // measure 9
00001000
00001000
00000100
00000000
,  // measure 10
00010000
00010000
00001000
00000000
,  // measure 11
00100000
00100000
00010000
00000000
,  // measure 12
10000000
00100000
01000000
00000000
,  // measure 13
00010000
00100000
00001000
00000000
,  // measure 14
00010000
00010000
00000100
00000100
,  // measure 15
00002000
00003000
00000001
00000100
,  // measure 16
00000010
00000020
00000030
00001000
,  // measure 17
00000200
00000300
00010000
00001000
,  // measure 18
00020000
00030000
00001000
00100000
,  // measure 19
00200000
00300000
00010000
00100000
,  // measure 20
01000000
01000000
10000000
00010000
,  // measure 21
02000000
03002000
00023000
00032000
,  // measure 22
00013000
00000000
00000200
00000300
,  // measure 23
00000020
00000030
00000001
00001000
,  // measure 24
00000000
00001001
00000001
00000100
,  // measure 25
00000000
00000001
00001000
00000100
,  // measure 26
00000000
00010000
00010000
00001000
,  // measure 27
00100000
00010000
01000000
01000000
,  // measure 28
00000000
10010000
10000000
00100000
,  // measure 29
00000000
10000000
00010000
01000000
,  // measure 30
00000000
00010000
00100000
00100000
,  // measure 31
00001000
00010000
00000000
00000000
,  // measure 32
00010000
00000100
00020000
00030000
,  // measure 33
00001000
00100000
00002000
00003000
,  // measure 34
00010000
00000010
00020000
00030000
,  // measure 35
00001000
01000000
00002000
00003000
,  // measure 36
00000000
00000000
00010000
00010000
,  // measure 37
00010000
00001000
00100000
00000000
,  // measure 38
00100000
00010000
01000000
00000000
,  // measure 39
01000000
00100000
10000000
00100000
,  // measure 40
10000000
00010000
00100000
00010000
,  // measure 41
00100000
00001000
00000000
00010000
,  // measure 42
00000100
00000020
00000030
00000001
,  // measure 43
00001000
00000010
00000010
00000000
,  // measure 44
00000100
00000001
00000001
00000000
,  // measure 45
00001000
00000100
00000000
00010000
,  // measure 46
00001000
00010000
00000000
00000100
,  // measure 47
00000100
00000010
00000000
00000001
,  // measure 48
00001000
00000200
00020300
00032000
,  // measure 49
00023000
00031000
00000000
00200000
,  // measure 50
00300000
02000000
03000000
10000000
,  // measure 51
00010000
00000000
10010000
10000000
,  // measure 52
00100000
00000000
10000000
00010000
,  // measure 53
00100000
00000000
00001000
00001000
,  // measure 54
00010000
00000100
00001000
00000010
,  // measure 55
00000010
00000000
00001001
00000001
,  // measure 56
00000100
00000000
00000001
00001000
,  // measure 57
00000010
00000000
00001000
00000100
,  // measure 58
00000100
00010000
00001000
00000000
,  // measure 59
00000000
00001000
00100000
00002000
,  // measure 60
00003000
00010000
00000100
00020000
,  // measure 61
00030000
00001000
01000000
00002000
,  // measure 62
00003000
00010000
00000010
00010000
,  // measure 63
00011000
00000000
00000000
00000000
;
