#TITLE:Sunflower;
#SUBTITLE:(feat. Steve Lacy);
#ARTIST:Vampire Weekend;
#TITLETRANSLIT:;
#SUBTITLETRANSLIT:;
#ARTISTTRANSLIT:;
#GENRE:;
#CREDIT:;
#BANNER:Sunflower.png;
#BACKGROUND:Sunflower-bg.png;
#LYRICSPATH:;
#CDTITLE:;
#MUSIC:Sunflower.ogg;
#OFFSET:0.000000;
#SAMPLESTART:49.022999;
#SAMPLELENGTH:15.000000;
#SELECTABLE:YES;
#BPMS:0.000000=100.000000
,173.000000=77.500000
;
#STOPS:
;
#BGCHANGES:;
#KEYSOUNDS:;
#ATTACKS:;

//---------------dance-single - ----------------
#NOTES:
     dance-single:
     :
     Beginner:
     3:
     0.102635,0.156885,0.058648,0.102635,0.000000,98.000000,90.000000,8.000000,14.000000,0.000000,0.000000,0.102635,0.156885,0.058648,0.102635,0.000000,98.000000,90.000000,8.000000,14.000000,0.000000,0.000000:
// measure 0
0000
0000
0000
0000
,  // measure 1
0000
0000
0000
0000
,  // measure 2
0000
0000
0000
0000
,  // measure 3
0000
0000
0000
0000
,  // measure 4
0000
0001
0000
0001
,  // measure 5
0000
1000
0000
1000
,  // measure 6
0000
0010
0000
0010
,  // measure 7
0000
0200
0000
0300
,  // measure 8
0000
0000
1001
0000
,  // measure 9
0000
0000
0110
0000
,  // measure 10
0000
0000
1001
0000
,  // measure 11
0000
0000
0110
0000
,  // measure 12
0000
0002
0003
0000
,  // measure 13
1000
1000
0000
0000
,  // measure 14
0001
0001
0000
0000
,  // measure 15
0010
0010
0000
0100
,  // measure 16
0000
0000
0110
0000
,  // measure 17
1000
1000
0000
0001
,  // measure 18
0000
0001
0000
0100
,  // measure 19
0000
0100
0000
0000
,  // measure 20
0000
0020
0000
0030
,  // measure 21
0000
2000
0000
3000
,  // measure 22
0000
0002
0000
0003
,  // measure 23
0000
0020
0000
0030
,  // measure 24
0000
0100
0000
0010
,  // measure 25
0000
0001
0000
1000
,  // measure 26
0000
0010
0000
1000
,  // measure 27
0000
0100
0000
0020
,  // measure 28
0000
0030
0000
0001
,  // measure 29
0000
1000
0000
0010
,  // measure 30
0000
0100
0000
0010
,  // measure 31
0000
2000
0000
3000
,  // measure 32
0000
0002
0003
0000
,  // measure 33
1000
0000
0100
0000
,  // measure 34
0010
0000
0001
0000
,  // measure 35
1000
1000
0000
0001
,  // measure 36
0001
0000
0110
0000
,  // measure 37
1000
1000
0000
0001
,  // measure 38
0000
0010
0000
0100
,  // measure 39
0000
0110
0000
0000
,  // measure 40
1000
2000
0000
0000
,  // measure 41
0000
3000
0000
0001
,  // measure 42
0000
0020
0000
0000
,  // measure 43
0030
0010
0000
0000
,  // measure 44
0100
0100
0000
1000
,  // measure 45
0000
0001
0001
0001
,  // measure 46
0001
0001
0000
1000
,  // measure 47
0000
0010
0010
0010
,  // measure 48
0010
0010
0000
0100
,  // measure 49
0000
0001
0001
0001
,  // measure 50
0000
1000
1000
1000
,  // measure 51
1000
2000
0000
3000
,  // measure 52
1000
0000
2002
0000
,  // measure 53
0000
0000
3003
0000
;

//---------------dance-single - ----------------
#NOTES:
     dance-single:
     :
     Easy:
     6:
     0.198986,0.235327,0.102635,0.373884,0.000000,190.000000,176.000000,14.000000,51.000000,0.000000,0.000000,0.198986,0.235327,0.102635,0.373884,0.000000,190.000000,176.000000,14.000000,51.000000,0.000000,0.000000:
// measure 0
0000
0000
0000
0000
,  // measure 1
0000
0000
0000
0000
,  // measure 2
0000
0000
0000
0000
,  // measure 3
0000
0000
0000
0000
,  // measure 4
0000
2000
3000
0002
,  // measure 5
0003
0010
0010
0200
,  // measure 6
0300
1000
0001
0001
,  // measure 7
1000
0010
0010
0100
,  // measure 8
0010
1000
1001
0002
,  // measure 9
0003
0010
0110
0200
,  // measure 10
0300
1000
1010
0020
,  // measure 11
0030
0100
0101
2000
,  // measure 12
3000
0002
0013
0100
,  // measure 13
0010
0002
0103
0010
,  // measure 14
1000
0200
1300
0001
,  // measure 15
0100
0020
1030
0001
,  // measure 16
1000
0001
0110
0001
,  // measure 17
0010
0100
1001
0001
,  // measure 18
0100
0010
1100
0001
,  // measure 19
0010
0100
1010
0001
,  // measure 20
0001
2001
0010
0010
,  // measure 21
3010
1000
0100
0010
,  // measure 22
0001
1002
0010
0010
,  // measure 23
0013
2000
3002
0013
,  // measure 24
0000
0200
0310
0002
,  // measure 25
1003
0010
1000
0001
,  // measure 26
0100
0020
0130
0002
,  // measure 27
1003
0001
0100
0020
,  // measure 28
1030
0200
0310
0002
,  // measure 29
0103
0001
0010
0200
,  // measure 30
1300
0002
1003
2000
,  // measure 31
3001
0020
0230
2300
,  // measure 32
0000
3001
0000
0002
,  // measure 33
0100
0103
0000
2000
,  // measure 34
0010
3010
0000
0200
,  // measure 35
0010
0301
1000
0000
,  // measure 36
1000
0100
0020
0001
,  // measure 37
0100
0130
0000
2000
,  // measure 38
0010
3001
0000
0002
,  // measure 39
1000
1003
0000
0010
,  // measure 40
0100
2001
0001
0001
,  // measure 41
0001
3010
0000
0100
,  // measure 42
0000
1002
1000
1000
,  // measure 43
1000
0023
0100
0100
,  // measure 44
0031
2000
3001
0002
,  // measure 45
1003
0100
0010
0001
,  // measure 46
0100
0102
1003
2000
,  // measure 47
3001
0100
0010
1000
,  // measure 48
1000
0002
0013
0200
,  // measure 49
1300
0001
0100
0001
,  // measure 50
0010
0200
1300
0020
,  // measure 51
1030
0002
2003
3002
,  // measure 52
0023
0130
2002
0000
,  // measure 53
0000
0000
3003
0000
;

//---------------dance-single - ----------------
#NOTES:
     dance-single:
     :
     Medium:
     9:
     0.366553,0.411822,0.161283,0.139290,0.109966,350.000000,328.000000,22.000000,19.000000,0.000000,0.000000,0.366553,0.411822,0.161283,0.139290,0.109966,350.000000,328.000000,22.000000,19.000000,0.000000,0.000000:
// measure 0
0000
0000
0000
0000
,  // measure 1
0000
0000
0000
0000
,  // measure 2
0000
0000
0000
0000
,  // measure 3
0000
0000
0000
0000
,  // measure 4
0000
0000
1000
1000
1000
0000
0010
0010
,  // measure 5
0010
0000
0100
0001
0100
0001
0010
0010
,  // measure 6
0020
0000
0130
1000
0010
0000
0100
0001
,  // measure 7
0010
0000
0001
1000
0001
0100
0100
0100
,  // measure 8
0100
0100
0010
0000
1001
0000
1000
0100
,  // measure 9
1000
0100
0010
0000
0101
0000
0001
0001
,  // measure 10
1000
1000
0010
0000
1001
0000
0001
0100
,  // measure 11
0001
0100
0010
0000
1100
0000
1000
1000
,  // measure 12
0001
0001
0200
0000
0310
0000
1000
0100
,  // measure 13
0010
0010
0002
0000
1003
0000
0001
0100
,  // measure 14
0010
0100
0002
0000
1003
0000
0100
0010
,  // measure 15
0001
0000
1000
0000
0100
0000
0000
0000
1001
0000
0000
0000
0001
0100
0001
0000
,  // measure 16
0100
0001
0100
0000
0001
0000
0000
0000
1010
0000
0000
0000
0001
0000
0010
0000
,  // measure 17
0100
0010
0001
0000
0110
0000
1000
0100
,  // measure 18
0010
0001
1000
0001
0101
0000
1000
1000
,  // measure 19
2000
0000
0001
0000
3001
0000
0000
0000
0110
0000
0000
0000
1000
0010
1000
0000
,  // measure 20
0010
1000
0010
0000
0200
0000
0000
0000
0010
0000
0000
0000
0001
0000
0000
0000
,  // measure 21
0310
0000
1000
0100
0010
0000
0001
0010
,  // measure 22
1000
0000
0000
0000
0020
0000
0000
0000
0001
0000
0000
0000
0130
0000
0000
0100
,  // measure 23
1000
0000
0000
1000
0002
0000
1000
0000
1000
0000
0000
0000
0103
0000
0000
0000
,  // measure 24
0000
0000
0000
0000
0001
0000
1000
0001
1000
0000
0000
0000
0100
0000
0010
0100
,  // measure 25
0010
0000
0100
0100
1000
1000
0001
0001
,  // measure 26
0100
0000
0100
0000
0010
0000
1000
0010
1000
0000
0000
0000
0001
0000
0010
0100
,  // measure 27
0010
0000
0001
0010
0100
1000
0100
0010
,  // measure 28
0002
1000
1003
0010
0100
0000
0001
0100
,  // measure 29
1000
0000
0100
0010
1000
0010
0100
0001
,  // measure 30
1000
0000
0100
0010
0001
0000
0010
1000
,  // measure 31
0010
0000
0000
0000
0001
0000
1000
0000
0001
0000
1000
0000
0001
1000
0001
0000
,  // measure 32
1000
0001
1000
0000
0220
0000
0000
0000
0330
0000
0000
0000
0001
0000
1000
0000
,  // measure 33
1000
0100
0100
0000
0011
0000
1000
0100
,  // measure 34
0001
0100
1000
0001
0001
0000
0100
0010
,  // measure 35
0001
0010
1000
0000
0101
0000
1000
1000
,  // measure 36
0001
0100
0010
0100
0101
0000
0001
1000
,  // measure 37
1000
0010
0010
0000
1100
0000
0001
0010
,  // measure 38
1000
0010
0001
1000
1001
0000
0001
0100
,  // measure 39
1000
0100
0020
0000
1030
0000
0001
0010
,  // measure 40
0100
0000
0010
0000
0012
0000
0000
0000
1000
0000
0000
0000
0103
0000
0000
0100
,  // measure 41
0010
0000
0000
0010
2000
0000
0000
0000
0001
0000
0000
0000
3100
0000
0000
0000
,  // measure 42
0010
0001
0010
0000
0002
0000
0000
0000
0010
0000
0000
0000
0100
0000
0000
0000
,  // measure 43
0013
0000
0000
0000
2100
0000
0000
0000
0001
0000
0000
0000
3010
0000
0000
0010
,  // measure 44
0100
0010
1000
0001
1100
0000
0001
1000
,  // measure 45
0101
0000
0000
0000
1000
0000
0001
0000
0010
0100
0010
0000
0001
1000
0100
0000
,  // measure 46
0010
0001
1000
0000
0001
0000
0100
0000
0110
0000
0000
0000
1000
0000
0100
0000
,  // measure 47
0011
0000
0000
0000
0001
0000
0100
0000
1000
0000
0100
0000
0001
1000
0001
1000
,  // measure 48
0200
0000
0310
0000
0001
0000
0010
0001
0010
0000
0000
0000
0100
0000
1000
0100
,  // measure 49
1000
0000
0000
0000
0001
0000
0001
0000
0100
0000
0100
0000
0010
1000
0010
1000
,  // measure 50
0010
0000
0000
0000
0100
0000
0001
1000
0010
0000
0000
0000
1000
0000
0001
0010
,  // measure 51
0100
0000
0000
0000
1000
0000
1000
0000
0001
0000
0001
0000
0010
0100
0010
0000
,  // measure 52
0001
1000
0001
1000
0001
0000
0000
0000
0220
0000
0000
0000
0000
0000
0000
0000
,  // measure 53
0000
0000
0330
0000
;

//---------------dance-single - ----------------
#NOTES:
     dance-single:
     :
     Hard:
     12:
     0.500606,0.568707,0.183276,0.212601,0.421536,478.000000,453.000000,25.000000,29.000000,0.000000,0.000000,0.500606,0.568707,0.183276,0.212601,0.421536,478.000000,453.000000,25.000000,29.000000,0.000000,0.000000:
// measure 0
0000
0000
0000
0000
,  // measure 1
0000
0000
0000
0000
,  // measure 2
0000
0000
0000
0000
,  // measure 3
0000
0000
0000
0000
,  // measure 4
0000
0000
0000
0000
1000
0000
0100
0010
0100
0000
0000
0000
1000
0000
0010
0100
,  // measure 5
0010
0000
0000
0000
0100
0000
0100
0000
0001
0000
0001
0000
0010
0001
1000
0001
,  // measure 6
0200
0000
0000
0000
0301
0000
1000
0100
0010
0000
0000
0000
0001
0000
1000
0010
,  // measure 7
0100
0000
0000
0000
0001
0000
0001
0000
1000
0000
1100
0000
0001
1000
0001
1000
,  // measure 8
0001
1000
0001
1000
0010
0000
0100
0000
1001
0000
0000
0000
1000
0000
1000
0000
,  // measure 9
0100
0000
0100
0000
0010
0000
0001
0000
1001
0000
0000
0000
1000
0010
1000
0010
,  // measure 10
1000
0010
1000
0000
0001
0000
0010
0000
1100
0000
0000
0000
1000
0000
1000
0000
,  // measure 11
0100
0000
0010
0000
0001
0000
0100
0000
1010
0000
0000
0000
0001
0010
0001
0010
,  // measure 12
0001
0010
0001
0000
0200
0000
0000
0000
0301
0000
0000
0000
0010
0000
1000
0000
,  // measure 13
0010
0001
1000
0001
0101
0000
0100
1000
,  // measure 14
0100
0001
0010
0100
0110
0000
1000
1000
,  // measure 15
1000
0000
1000
0000
0001
0200
0000
0000
0310
0000
0100
0000
0001
1000
0001
0000
,  // measure 16
0010
0001
1000
0100
1000
0000
0100
0000
0110
0000
0000
0000
0010
0000
1000
0000
,  // measure 17
0010
0001
1000
0010
0101
0000
0100
1000
,  // measure 18
0100
0001
1000
0010
1001
0000
0001
0001
,  // measure 19
0001
0000
0001
0000
1000
0020
0000
0000
0130
0000
0100
0000
0001
0010
0001
0000
,  // measure 20
1000
0010
1000
0001
0020
0000
0000
0000
0100
0000
0000
0000
0031
0000
1000
0010
,  // measure 21
0100
0000
0010
1000
0001
0020
0000
0000
0130
0000
1000
0000
0001
0000
0100
0000
,  // measure 22
1000
0000
0100
0000
0210
0000
0000
0000
0001
0000
0000
0000
0310
0000
1000
0001
,  // measure 23
0100
0000
0001
0010
0200
0000
0010
0000
0010
0000
0000
0000
1300
0000
0000
0000
,  // measure 24
0000
0000
2000
0100
3001
0000
0002
0100
,  // measure 25
1003
0000
0000
0000
0010
0000
0010
0000
0100
0000
0100
0000
0001
1000
0001
0000
,  // measure 26
0010
0100
1000
0000
0002
0000
0010
0000
1003
0000
0010
0000
2000
0000
0010
0000
,  // measure 27
3001
0000
0000
0000
0001
0100
0001
0000
1000
0001
1000
0000
0001
0010
0100
1000
,  // measure 28
0200
0010
0310
0001
0011
0000
1000
0010
,  // measure 29
1010
0000
0000
0000
0100
0000
0101
0000
0100
0000
0110
0000
1000
0001
1000
0100
,  // measure 30
0010
0000
0000
0000
0001
0000
0100
0010
1000
0000
0000
0000
0001
0000
0010
0100
,  // measure 31
1000
0000
0000
0000
0001
1000
0001
0000
0100
0010
0100
0000
0001
1000
0001
1000
,  // measure 32
0100
0010
0100
0010
0002
0000
0000
0000
0103
0000
0000
0000
0100
0001
1000
0000
,  // measure 33
1000
0001
0100
0000
0010
0000
1000
0000
1001
0000
0000
0000
0010
0001
0010
0001
,  // measure 34
0010
0001
0010
0000
0100
0000
1000
0000
0101
0000
0000
0000
1000
0001
0010
0000
,  // measure 35
0010
0001
1000
0000
0010
0000
0100
0000
0110
0000
0000
0000
0001
1000
0001
1000
,  // measure 36
0001
1000
0001
0000
0100
0000
0001
0000
1100
0000
0000
0000
0100
0010
0001
0000
,  // measure 37
0001
1000
0020
0000
0130
0000
0001
1000
0001
0000
0000
0000
1000
0100
0010
0000
,  // measure 38
0010
0001
1000
0000
0010
0000
0100
0000
0110
0000
0000
0000
0100
0001
1000
0000
,  // measure 39
1000
0001
0010
0000
0110
0000
0001
1000
0001
0000
0100
0000
0010
1000
0001
0000
,  // measure 40
0001
0010
0100
0000
0210
0000
1000
0000
1000
0000
0010
0000
0310
0000
0001
1000
,  // measure 41
0000
0010
1000
0100
1000
0002
0000
0000
0103
0000
0010
1000
0100
0000
0010
0000
,  // measure 42
0100
1000
0001
1000
0020
0000
0100
0000
0100
0000
1000
0000
1030
0000
0001
0010
,  // measure 43
0100
0000
1000
0010
0200
0000
0010
0000
0001
0000
0001
0000
0010
0000
0301
1000
,  // measure 44
0001
0000
0010
0000
0001
1000
0001
0010
0200
0000
0300
0000
1000
0001
1000
0010
,  // measure 45
0100
0000
0000
0000
0001
1000
0001
0000
0010
0100
1000
0001
0100
0010
1000
0001
,  // measure 46
0100
0001
0010
0100
1000
0100
0010
0001
1000
0000
0001
0000
1000
0010
0100
0001
,  // measure 47
1000
0000
0002
0000
1003
0010
0100
0001
1000
0100
1000
0010
0100
1000
0100
0001
,  // measure 48
2000
0000
3001
0000
0010
0001
0100
0001
0020
0000
0030
0000
0100
1000
0010
1000
,  // measure 49
0100
0000
0000
0000
0010
0100
1000
0000
0010
0100
0001
0000
0010
0001
1000
0001
,  // measure 50
0200
0000
0310
0000
1000
0001
1000
0001
0020
0000
0130
0100
1000
0001
1000
0001
,  // measure 51
0100
0000
0100
0000
0001
0000
1001
0000
1200
0000
0310
0001
0100
0001
0010
0100
,  // measure 52
1000
0010
1000
0100
0020
0000
0130
1000
2002
0000
0000
0000
0000
0000
0000
0000
,  // measure 53
0000
0000
3003
0000
;

//---------------dance-single - ----------------
#NOTES:
     dance-single:
     :
     Challenge:
     14:
     0.671315,0.627538,0.043986,0.454525,1.022682,641.000000,635.000000,6.000000,62.000000,1.000000,0.000000,0.671315,0.627538,0.043986,0.454525,1.022682,641.000000,635.000000,6.000000,62.000000,1.000000,0.000000:
// measure 0
0000
0000
0000
0000
,  // measure 1
0000
0000
0000
0000
,  // measure 2
0000
0000
0000
0000
,  // measure 3
0000
0000
0000
0000
,  // measure 4
0000
0000
0000
0000
1000
0001
1000
0100
1000
0000
0000
0000
0001
0100
0001
1000
,  // measure 5
0001
0000
0000
0000
1000
0010
1000
0000
1000
0100
1000
0000
0001
0100
0001
0100
,  // measure 6
0020
0000
0000
0000
1030
0001
0100
0001
1000
0000
0000
0000
0100
1000
0001
1000
,  // measure 7
0010
0000
0000
0000
1000
0001
1000
0001
1000
0001
0100
0100
0001
0001
1000
1000
,  // measure 8
0100
0010
0100
1000
0001
0000
0100
0001
0020
0000
0130
0100
1000
0001
1000
0010
,  // measure 9
1000
0001
1000
0100
1000
0000
0100
0010
0002
0000
1003
1000
0010
0100
0010
0100
,  // measure 10
0010
0100
0010
0100
0001
0000
0001
1000
0020
0000
1030
1000
0100
0010
0001
0010
,  // measure 11
0100
0010
0001
0010
0100
0000
1000
0001
0020
0000
0031
0001
0100
0010
0100
0010
,  // measure 12
0100
0010
0100
0010
2000
0000
0000
0000
3001
0000
0010
0100
0010
0001
1000
1000
,  // measure 13
0010
0000
0100
0000
1002
0000
0000
0000
0013
0000
0100
0010
0100
1000
0001
0001
,  // measure 14
1000
0000
0010
0000
2001
0000
3001
1000
0100
0000
0010
0010
0001
1000
0001
0100
,  // measure 15
0001
0000
0001
0010
0002
0000
1003
0001
0100
0000
0010
0010
1000
0001
0010
0100
,  // measure 16
1000
0001
1000
0001
0100
0000
0010
1000
0200
0000
0310
0001
1000
0001
0100
0100
,  // measure 17
0010
0000
0100
0000
2001
0000
3100
1000
0020
0000
1030
1000
0001
0010
0100
0100
,  // measure 18
1000
0000
0001
0000
1002
0000
0013
0001
0200
0000
0310
0010
1000
0001
1000
0100
,  // measure 19
1000
0000
1000
0010
1000
0010
0100
0001
0020
0000
0130
0100
1000
0001
1000
1000
,  // measure 20
0010
0100
0010
0100
0002
0000
1003
0100
0020
0000
0130
1000
0001
0200
0000
0310
,  // measure 21
1000
0020
0000
0130
1000
0200
0000
0301
1000
0000
0001
0010
0001
0010
0100
1000
,  // measure 22
0010
0000
0010
1000
0200
0000
0000
0310
0001
1000
0001
0100
0010
0001
0010
0100
,  // measure 23
0002
0000
1003
0001
0010
0000
0010
0000
0010
0000
0000
0000
0200
0300
0000
1000
,  // measure 24
0001
0000
0010
0000
0001
0100
0010
1000
0001
0000
0000
0000
1000
0100
0010
0001
,  // measure 25
1000
0000
0000
0000
0001
0100
0010
0100
1000
0100
0010
1000
0001
0010
0100
1000
,  // measure 26
0001
0100
0010
1000
0001
0010
0100
0010
0002
0000
1003
0001
1000
0010
0100
0010
,  // measure 27
1000
0000
0000
0000
0001
0010
0100
0010
1000
0010
0001
0100
0010
0100
1000
0100
,  // measure 28
0001
1000
1000
1000
0010
1000
0001
1000
0100
0000
0000
0000
0010
0001
1000
0001
,  // measure 29
0100
0000
0000
0000
0010
1000
0100
0000
0010
0001
0100
0000
0001
1000
0100
0001
,  // measure 30
0100
0010
0010
0010
0001
1000
0001
1000
0010
0000
0000
0000
0100
0001
1000
0001
,  // measure 31
0010
0000
0000
0000
0100
0010
0100
1000
0100
0001
0100
1000
0001
0001
1000
1000
,  // measure 32
0001
0001
1000
1000
0020
0000
0130
0010
1002
0000
0013
0010
0001
1000
0100
1000
,  // measure 33
0001
1000
0100
1000
0020
0000
0031
0010
1000
0000
0100
0100
0010
0001
0010
0001
,  // measure 34
0010
0001
0010
0001
0200
0000
1300
0100
0001
0000
1000
1000
0001
0100
0010
0100
,  // measure 35
0001
0100
0010
0100
2000
0000
3100
0001
1000
0000
0001
0001
1000
0100
1000
0100
,  // measure 36
1000
0100
1000
0100
0010
0000
0010
0001
0200
0000
0310
1000
0001
0010
0001
0100
,  // measure 37
0001
1000
0200
0310
0100
0000
0001
0100
2000
0000
3010
0010
1000
0001
1000
0001
,  // measure 38
1000
0001
1000
0001
0010
0000
1000
0010
0002
0000
1003
1000
0010
0100
0001
0010
,  // measure 39
0001
0100
0001
0010
0100
0000
0001
0100
2000
0000
3001
0001
1000
0010
1000
0010
,  // measure 40
0100
0001
1000
0001
0020
0100
0000
0130
1000
0001
2000
0010
0000
0001
0000
0100
,  // measure 41
0000
3001
0000
0001
0200
0000
1300
0200
0010
0000
0301
0001
1000
0100
0010
0001
,  // measure 42
0100
0010
0100
0010
2000
0100
0000
3100
0010
0001
0020
0100
0000
1000
0000
0100
,  // measure 43
0000
0001
0000
0031
2M00
0000
0001
0001
0010
0000
0010
3010
0100
0010
0100
1000
,  // measure 44
0100
0001
0010
0100
0001
0100
2000
0001
3020
0000
1030
1000
0010
0100
0002
1000
,  // measure 45
0013
0000
0010
0000
0010
0001
0010
0001
0020
0001
0100
0130
1000
0200
0001
0010
,  // measure 46
0310
0002
1000
0100
0103
0010
0100
1000
0200
0000
0301
0001
1000
0020
0100
0100
,  // measure 47
1030
0000
0002
0000
1003
0100
0001
1000
0010
0001
1000
0010
0001
1000
0100
0001
,  // measure 48
2000
0001
0001
0001
3100
0010
0001
2000
0100
0000
0010
3010
0100
0001
1000
0010
,  // measure 49
0100
0000
0001
0001
2000
0100
3001
0001
0020
0001
0130
0100
2000
0100
0001
3010
,  // measure 50
0200
0000
0000
0010
0000
0000
0301
0000
0000
0000
1000
0100
0010
0000
0000
0001
0000
0000
0010
0000
0000
1000
0000
0000
0020
0000
0000
0000
0000
0000
0230
0000
0000
0010
0000
0000
1300
0000
0000
0001
0000
0000
0100
0000
0000
1000
0000
0000
,  // measure 51
0100
0000
0010
0000
1000
0100
1000
0100
2000
0100
3001
0001
0100
0100
1000
1000
,  // measure 52
0001
0001
0010
0010
2000
0000
3100
0010
2002
0000
0000
0000
0000
0000
0000
0000
,  // measure 53
0000
0000
3003
0000
;
