#VERSION:0.83;
#TITLE:Streamworks (Saliva Island);
#SUBTITLE:- from Shantae and the Pirate's Curse;
#ARTIST:Jake Kaufman;
#TITLETRANSLIT:;
#SUBTITLETRANSLIT:;
#ARTISTTRANSLIT:;
#GENRE:;
#ORIGIN:;
#TAGS:;
#CREDIT:;
#BANNER:Streamworks Saliva Island-bn.png;
#BACKGROUND:Streamworks Saliva Island-bg.png;
#PREVIEWVID:;
#JACKET:Streamworks Saliva Island-jk.png;
#CDIMAGE:;
#DISCIMAGE:;
#LYRICSPATH:;
#CDTITLE:;
#MUSIC:Streamworks Saliva Island.ogg;
#OFFSET:0.005000;
#SAMPLESTART:14.767955;
#SAMPLELENGTH:15.000000;
#SELECTABLE:YES;
#BPMS:0.000000=130.000000
;
#STOPS:;
#DELAYS:;
#WARPS:;
#TIMESIGNATURES:0.000000=4=4
;
#TICKCOUNTS:0.000000=4
;
#COMBOS:0.000000=1
;
#SPEEDS:0.000000=1.000000=0.000000=0
;
#SCROLLS:0.000000=1.000000
;
#LABELS:0.000000=Song Start
;
#BGCHANGES:;
#KEYSOUNDS:;
#ATTACKS:
;

//---------------dance-single - ----------------
#NOTEDATA:;
#CHARTNAME:;
#CHARTHASH:260470945;
#STEPSTYPE:dance-single;
#BANNER:;
#DESCRIPTION:;
#CHARTSTYLE:;
#DIFFICULTY:Beginner;
#METER:3;
#METERF:3.000000;
#LASTSECONDHINT:129.225754;
#RADARVALUES:0.144152,0.207749,0.148392,0.118714,0.000000,136.000000,116.000000,20.000000,16.000000,0.000000,0.000000,0.000000,0.000000,0.000000,0.144152,0.207749,0.148392,0.118714,0.000000,136.000000,116.000000,20.000000,16.000000,0.000000,0.000000,0.000000,0.000000,0.000000;
#CREDIT:DJEmbrace;
#NOTES:
0000
0000
0000
0000
,
0000
0000
0000
0000
,
0000
0000
0000
0000
,
0002
0000
0003
0000
,
0001
0000
0000
0000
,
1000
0000
0000
0000
,
0010
0000
0010
0000
,
0200
0000
0300
0000
,
0001
0000
0000
0000
,
1000
0000
0000
0000
,
0100
0000
0100
0000
,
0020
0000
0030
0010
,
0010
0000
0001
0000
,
0010
0000
0001
0000
,
1000
0000
0010
0000
,
0100
0000
0000
0000
,
0001
0000
0100
0000
,
0001
0000
0100
0000
,
0010
0000
0010
0000
,
1001
0000
0000
0000
,
1001
0000
1000
0000
,
0100
0000
0010
0000
,
0100
0000
1000
0000
,
0001
0000
0001
0000
,
1001
0000
1000
0000
,
0010
0000
0100
0000
,
0010
0000
1000
0000
,
0100
0000
0010
0000
,
0002
0000
0003
0000
,
2000
0000
3000
0000
,
2002
0000
3003
0000
,
0020
0000
0030
0000
,
0200
0000
0300
0000
,
0020
0000
0030
0000
,
2002
0000
3003
0000
,
0200
0000
0300
0000
,
0020
0000
0030
0000
,
1001
0000
0110
0000
,
1001
0000
1000
1000
,
0000
0000
0001
0001
,
0000
0010
0010
0000
,
0100
0000
0010
0000
,
0001
0000
1000
1000
,
0000
0000
0010
0010
,
0000
0000
0100
0000
,
0001
0000
1000
0000
,
1001
0000
0001
0000
,
1001
0000
1000
0000
,
0010
0000
0110
0000
,
1001
0000
0000
0000
,
1000
0000
1001
0000
,
0001
0000
1001
0000
,
0001
0000
0010
0000
,
0110
0000
0110
0000
,
1001
0000
1000
0000
,
0010
0000
1000
0000
,
0100
0000
0010
0000
,
0001
0000
0100
0000
,
0001
0000
0010
0000
,
0100
0000
1000
0000
,
0010
0000
0100
0000
,
0010
0000
1000
0000
,
0001
0000
0010
0000
,
0100
0000
1000
0000
,
0001
0000
0100
0000
,
0010
0000
1000
0000
,
0020
0000
0030
0000
,
0200
0000
0300
0000
,
0010
0000
0100
0000
,
0110
0000
0110
0000
,
1001
0000
0000
0000
;

//---------------dance-single - ----------------
#NOTEDATA:;
#CHARTNAME:;
#CHARTHASH:4000800259;
#STEPSTYPE:dance-single;
#BANNER:;
#DESCRIPTION:;
#CHARTSTYLE:;
#DIFFICULTY:Easy;
#METER:5;
#METERF:5.000000;
#LASTSECONDHINT:129.225754;
#RADARVALUES:0.230008,0.363561,0.200329,0.267106,0.000000,217.000000,190.000000,27.000000,36.000000,0.000000,0.000000,0.000000,0.000000,0.000000,0.230008,0.363561,0.200329,0.267106,0.000000,217.000000,190.000000,27.000000,36.000000,0.000000,0.000000,0.000000,0.000000,0.000000;
#CREDIT:DJEmbrace;
#NOTES:
0000
0000
0000
0000
,
0000
0000
0000
0000
,
0000
0000
0000
0000
,
0001
0001
0100
0000
,
1001
1000
0020
0030
,
0100
0001
0020
0030
,
0100
0000
1000
0001
,
2000
0000
3001
0000
,
0010
0001
0200
0300
,
0010
1000
0200
0300
,
0010
0000
0001
1000
,
0002
0003
2000
3000
,
1001
0000
0010
0000
,
1001
0000
0010
0000
,
1000
0001
1001
0000
,
1000
0100
0010
0001
,
1001
0000
0100
0000
,
1001
0000
0100
0000
,
0001
0100
0010
1000
,
0200
0000
0300
0000
,
1000
0010
1000
0010
,
0200
0300
0001
0000
,
0010
0001
0010
0001
,
0200
0300
0020
0030
,
1000
0100
1000
0100
,
0020
0030
0001
0000
,
0100
0001
0100
0001
,
0020
0030
0200
0300
,
1000
0000
0001
0000
,
1000
1000
0001
0000
,
1001
0000
0001
0100
,
0010
1000
0010
0000
,
1000
0000
0100
0010
,
0001
0010
0100
0000
,
1001
0000
1000
0010
,
0100
0001
0100
0000
,
0001
0000
1000
0100
,
0110
0000
1001
0000
,
0001
0100
0001
0010
,
0000
0001
0100
0010
,
2000
3000
0002
0003
,
2000
3002
2003
3002
,
0003
0000
1001
0110
,
0000
0000
1001
0110
,
0000
0000
1000
0001
,
0020
0030
0200
0300
,
1001
0000
0100
0000
,
1001
0000
0100
0000
,
0001
0010
0100
0010
,
0002
0003
2000
3000
,
1001
0000
0010
0000
,
1001
0000
0010
0000
,
0001
0100
0010
1000
,
1001
0000
0110
0000
,
2002
3003
2000
3000
,
0100
0010
0001
1000
,
0020
0030
0200
0300
,
0001
0010
0100
0010
,
2002
3003
0002
0003
,
0100
0010
1000
0001
,
0020
0030
0200
0300
,
1000
0010
0100
0100
,
0001
1000
0001
1000
,
0100
0010
0100
0010
,
0002
0003
2000
3000
,
0010
0100
0010
0000
,
1000
0100
0010
0000
,
0001
0100
0010
0000
,
1000
0001
1000
0001
,
1001
1001
1001
0110
,
1001
0000
0000
0000
;

//---------------dance-single - ----------------
#NOTEDATA:;
#CHARTNAME:;
#CHARTHASH:8496;
#STEPSTYPE:dance-single;
#BANNER:;
#DESCRIPTION:;
#CHARTSTYLE:;
#DIFFICULTY:Medium;
#METER:9;
#METERF:9.000000;
#LASTSECONDHINT:129.225754;
#RADARVALUES:0.422918,0.467435,0.281945,0.185490,0.133553,399.000000,361.000000,38.000000,25.000000,0.000000,0.000000,0.000000,0.000000,0.000000,0.422918,0.467435,0.281945,0.185490,0.133553,399.000000,361.000000,38.000000,25.000000,0.000000,0.000000,0.000000,0.000000,0.000000;
#CREDIT:DJEmbrace;
#NOTES:
0000
0000
0000
0000
,
0000
0000
0000
0000
,
0000
0000
0000
0000
,
2001
0001
0001
3010
,
1001
0000
0001
0000
1000
0100
0010
0000
,
0001
0000
0001
0000
1000
0100
0010
0000
,
0001
0000
1000
0010
1000
0010
0100
0001
,
1000
1010
0110
0101
,
1001
0000
1000
0000
0001
0010
0100
0000
,
1000
0000
1000
0000
0001
0010
0100
0000
,
1000
0000
0001
0100
0001
0100
0010
1000
,
0002
0103
0020
1030
,
0001
0000
0000
0010
0000
0000
0001
0000
0200
0000
0000
0000
0310
0000
0000
0000
,
1000
0000
0000
0100
0000
0000
1000
0000
0020
0000
0000
0000
0130
0000
0000
0000
,
0001
0000
0000
0100
0000
0000
0010
0000
1010
0000
0000
0000
1001
0000
0000
0000
,
0001
0010
0100
0010
0001
1000
0001
0000
,
1000
0000
0000
0010
0000
0000
1000
0000
0100
0000
0000
0000
0010
0000
0000
0000
,
0001
0000
0000
0100
0000
0000
0001
0000
0020
0000
0000
0000
0130
0000
0000
0000
,
1000
0001
1000
0010
0100
0001
1000
0000
,
0001
0000
0000
0001
0000
0000
0001
0000
0001
0000
0000
0000
0011
0000
0000
0000
,
1100
0000
0000
0000
0100
0000
0000
0000
0010
0000
0000
0000
0001
0000
0000
1000
,
0000
0000
0010
0000
1000
0000
0010
0000
1000
0000
0000
0000
0001
0000
0000
0011
,
0000
0000
0000
0000
0010
0000
0100
0000
1000
0000
0000
0000
0001
0000
0000
0101
,
0000
2000
3020
0130
,
0101
0000
0000
0000
0100
0000
0000
0000
0010
0000
0000
0000
1000
0000
0000
0001
,
0000
0000
0010
0000
0001
0000
0010
0000
0001
0000
0000
0000
1000
0000
0000
1010
,
0000
0000
0000
0000
0010
0000
0100
0000
0001
0000
0000
0000
1000
0000
0000
1100
,
0000
0002
0023
0130
,
1000
0000
0000
0000
0001
0000
0000
0010
0000
0000
0000
0000
0001
0000
1000
0000
,
0001
0000
0000
0000
1000
0000
0000
0010
0000
0000
0000
0000
0110
0000
0000
0000
,
1001
0000
1000
0100
0010
0100
1000
0000
,
0001
0100
0010
0000
2000
0000
3001
0000
,
0010
0000
0100
0010
0001
0010
0100
0000
,
1000
0000
0010
0000
1000
0010
1000
0000
,
2001
0000
3001
0100
0010
0100
0001
0000
,
1000
0100
0010
0000
0002
0000
1003
0000
,
0020
0000
0130
0010
1000
0000
0001
0000
,
1000
0000
0000
1000
0000
0000
1000
0000
1000
0000
0000
0000
1001
0000
0000
0000
,
0001
1000
0010
0100
0002
0000
1003
0000
,
0001
1000
0100
0010
0001
1000
0001
0000
,
1000
0001
0001
0000
0010
0001
1000
0000
,
1020
0130
0201
0310
,
1000
0001
0010
0100
2000
0000
3001
0000
,
1000
0001
0100
0010
1000
0001
1000
0000
,
0001
1000
1000
0000
0010
1000
0001
0000
,
0021
0130
1200
0310
,
0001
0000
0000
0100
0000
0000
0001
0000
0010
0000
0000
0100
0000
0000
1000
0000
,
0001
0000
0000
1000
0000
0000
0010
0000
1000
0000
0000
0100
0000
0000
0010
0000
,
0001
0000
0000
0010
0000
0000
0100
0000
1100
0000
0000
0000
1001
0000
0000
0000
,
0001
0100
0010
0100
0001
1000
0001
0000
,
1000
0000
0000
0100
0000
0000
1000
0000
0010
0000
0000
0100
0000
0000
0001
0000
,
1000
0000
0000
0001
0000
0000
0010
0000
0002
0000
0000
0000
1003
0000
0000
0000
,
0001
1000
0001
0100
0010
1000
0001
0000
,
1001
0000
0000
1001
0000
0000
1001
0000
1001
0000
0000
0000
1000
0000
0000
0000
,
0011
0000
0000
0000
0010
0000
0000
0000
0100
0000
0000
0000
1000
0000
0000
0001
,
0000
0000
0100
0000
0001
0000
0100
0000
0001
0000
0000
0000
1000
0000
0000
1100
,
0000
0000
0000
0000
0100
0000
0010
0000
0001
0000
0000
0000
1000
0000
0000
1010
,
0000
0002
0203
0310
,
1010
0000
0000
0000
0010
0000
0000
0000
0100
0000
0000
0000
0001
0000
0000
1000
,
0000
0000
0100
0000
1000
0000
0100
0000
1000
0000
0000
0000
0001
0000
0000
0101
,
0000
0000
0000
0000
0100
0000
0010
0000
1000
0000
0000
0000
0001
0000
0000
0011
,
0000
0000
1000
0000
0100
0100
0010
0000
,
0001
0000
0000
0000
1000
0000
0010
0000
0100
0000
0010
0000
1000
0000
0000
0001
,
0000
0000
1000
0000
0001
0000
1000
0000
0100
0000
0000
0000
0010
0000
0000
1002
,
0000
0000
0000
0000
1003
0000
0010
0000
0100
0000
0000
0000
0010
0000
0000
2001
,
0000
0000
3001
0010
0001
0010
0100
1000
,
0001
0000
0000
0000
0100
0000
0000
0010
0000
0000
1000
0000
0010
0000
0100
0000
,
0001
0000
0000
0000
0010
0000
0000
0100
0000
0000
1000
0000
1000
0000
0000
0000
,
0001
0000
0000
1000
0000
0000
0001
0000
0010
0000
0100
0000
0010
0000
0000
0000
,
0001
0100
0010
1000
0001
0010
0100
0000
,
1001
0000
0000
0000
;

//---------------dance-single - ----------------
#NOTEDATA:;
#CHARTNAME:;
#CHARTHASH:1833257472;
#STEPSTYPE:dance-single;
#BANNER:;
#DESCRIPTION:;
#CHARTSTYLE:;
#DIFFICULTY:Hard;
#METER:12;
#METERF:12.000000;
#LASTSECONDHINT:129.225754;
#RADARVALUES:0.551171,0.519373,0.259686,0.133553,0.370980,520.000000,485.000000,35.000000,18.000000,0.000000,0.000000,0.000000,0.000000,0.000000,0.551171,0.519373,0.259686,0.133553,0.370980,520.000000,485.000000,35.000000,18.000000,0.000000,0.000000,0.000000,0.000000,0.000000;
#CREDIT:DJEmbrace;
#NOTES:
0000
0000
0000
0000
,
0000
0000
0000
0000
,
0000
0000
0000
0000
,
1000
0001
0100
0010
1000
0001
1001
0000
,
1000
0100
0010
0100
2000
0000
3001
0000
,
0010
0100
1000
0100
0010
0001
1000
0000
,
0001
0000
0100
0000
0100
0000
0001
0000
0010
0000
0100
1000
0000
0100
1000
0000
,
0001
0001
0001
0100
0100
0100
0001
0010
,
0001
0100
0010
0100
0002
0000
1003
0000
,
0010
0100
0001
0100
0010
1000
0001
0000
,
1000
0000
0100
0000
0100
0000
1000
0000
0010
0000
0100
0001
0000
0100
0001
0000
,
1000
1100
0001
0101
,
1001
0000
0000
1000
0000
0000
0010
0000
0100
0000
0010
1000
0000
0010
1000
0000
,
0001
0000
0000
1000
0000
0000
0100
0000
0010
0000
0100
1000
0000
0100
1000
0000
,
0001
0000
0000
0010
0000
0000
0100
0000
1100
0000
0000
0000
1001
0000
0000
0000
,
1000
0000
0010
0000
0100
0000
0001
1000
0000
0010
0000
0100
0000
0001
1000
0000
,
1001
0000
0000
0001
0000
0000
0010
0000
0100
0000
0010
0001
0000
0010
0001
0000
,
1000
0000
0000
0001
0000
0000
0100
0000
0020
0000
0000
0000
1030
0000
0000
0000
,
0001
0100
0010
0001
0010
1000
0001
0010
,
0011
0000
0000
0110
0000
0000
1000
0000
1100
0000
0000
0000
0001
1000
0000
0000
,
1001
0000
0000
0000
0001
0000
0000
0000
0200
0000
0000
0000
0310
0000
0000
1000
,
0000
0000
0001
0000
0010
0000
0100
0000
1000
0000
0000
0000
0001
1000
0001
1000
,
0000
0000
0000
0000
0001
0000
0100
0000
0010
0000
0000
0000
1000
0001
1000
0001
,
0000
1000
0010
0100
0001
0000
0010
0100
,
1001
0000
0000
0000
1000
0000
0000
0000
0100
0000
0000
0000
0010
0001
0000
1000
,
0000
0000
0001
0000
0100
0000
0010
0000
1000
0000
0000
0000
0001
1000
0001
2000
,
0000
0000
3000
0000
1000
0000
0001
0000
0010
0000
0100
0000
1000
0001
1000
0001
,
0000
1000
0100
0010
0001
1000
0010
0100
,
0110
0000
0000
0000
0010
1000
0010
1000
0000
0000
0001
0000
0010
0000
0100
0000
,
0110
0000
0000
0000
0010
0001
0010
0001
0000
0000
0000
0000
1000
0100
0000
0000
,
1000
0001
0001
0010
0100
0001
0100
1000
,
0001
0000
0001
0000
1000
0000
1000
0000
0001
0000
0100
0010
0100
0000
0000
0000
,
0001
1000
1000
0010
0100
1000
0100
0001
,
0000
0000
1000
0000
0001
0000
1000
0000
0001
0010
0001
0010
0001
0000
0000
0000
,
2001
0000
0010
0000
0001
0000
3100
0010
,
0001
0010
0200
0000
1000
0000
0000
0000
0320
0000
0000
0000
0031
0000
1000
0000
,
1002
0000
0100
0000
1003
0100
1000
0001
,
0011
0000
0000
1001
0000
0000
0001
0000
1001
0000
0000
0001
0100
0000
0010
0000
,
0100
0001
0000
0100
0001
0000
1000
0000
0001
0000
0010
0000
0100
0000
1000
0000
,
0001
0100
0000
0001
0100
0000
0010
0000
1000
0000
0100
0000
1000
0000
0010
0000
,
0100
0000
0001
0000
0001
0000
1000
0000
0010
0000
1000
0001
0000
1000
0001
0000
,
2001
3200
0320
0031
,
1000
0100
0000
1000
0100
0000
1000
0000
1100
0000
0000
0000
0101
0000
0000
0000
,
0010
1000
0000
0010
1000
0000
0010
0000
1010
0000
0000
0000
1001
0000
0000
0000
,
1000
0000
0001
0000
0001
0000
1000
0000
0100
0000
1000
0001
0000
1000
0001
0000
,
0200
0000
0000
0000
0320
0000
0000
0000
1030
0000
0001
1000
0001
0000
0001
1000
,
0001
0000
0000
0010
0000
0000
0100
0000
0010
0000
0001
1000
0000
0001
1000
0000
,
0001
0000
0000
0100
0000
0000
0010
0000
0100
0000
0001
1000
0000
0001
1000
0000
,
0010
0000
0000
0100
0000
0000
0001
0000
0101
0000
0000
0000
1010
0000
0000
0000
,
1000
0001
1000
0000
0001
0000
0000
1000
0000
0100
0000
0010
0001
0000
1000
0001
,
1000
0000
0000
0010
0000
0000
0100
0000
0010
0000
1000
0001
0000
1000
0001
0000
,
1000
0000
0000
0100
0000
0000
0010
0000
0110
0000
0000
0000
1001
0000
0000
0000
,
1000
0100
0010
1000
0010
0001
1000
0001
,
0101
0000
0000
0110
0000
0000
1000
0000
1010
0000
0000
0010
0100
0000
0000
0000
,
1001
0000
0000
0000
0001
0000
0000
0000
0020
0000
0000
0000
0130
0000
0000
1000
,
0000
0000
0001
0000
0100
0000
0010
0000
1000
0000
0000
0000
0100
1000
0100
1000
,
0000
0000
0000
0000
0001
0000
1000
0000
0010
0000
0000
0000
0100
0001
0100
0001
,
0000
1000
0001
0010
0200
0000
2300
0000
,
3001
0000
0000
0000
1000
0000
0000
0000
0020
0000
0000
0000
0130
0000
0000
0001
,
0000
0000
0010
0000
0100
0000
1000
0000
0001
0000
0100
0000
0010
1000
0010
1000
,
0000
0000
0000
0000
0001
0000
0010
0000
0100
0000
1000
0000
0001
0010
0001
0010
,
0000
0000
0000
0000
0100
0000
0010
0000
0001
0000
0100
0000
0010
0100
0010
0000
,
1001
0000
0000
0000
1000
0000
0100
0000
0001
0000
0100
0000
1000
0001
0000
1000
,
0000
0000
1000
0000
0010
0000
0010
0000
0100
0000
0100
0000
0001
1000
0001
0010
,
0000
0000
0000
0000
0100
0000
1000
0000
0001
0000
0100
0000
0010
1000
0010
0100
,
0000
0000
0001
0010
1000
0010
0001
1000
,
0100
0000
0000
0000
0010
0100
0010
0001
0000
0000
1000
0000
0001
0000
0100
0000
,
0010
0000
0000
0000
0100
0010
0100
0001
0000
0000
1000
0000
0100
1000
0000
0000
,
0001
0100
0000
0001
0000
0100
0001
0000
1000
0000
1000
0000
0100
0000
0100
0000
,
0010
0001
0100
1000
0100
0001
1001
0000
,
0110
0000
0000
0000
;

//---------------dance-single - ----------------
#NOTEDATA:;
#CHARTNAME:;
#CHARTHASH:1065353216;
#STEPSTYPE:dance-single;
#BANNER:;
#DESCRIPTION:;
#CHARTSTYLE:;
#DIFFICULTY:Challenge;
#METER:15;
#METERF:15.000000;
#LASTSECONDHINT:129.225754;
#RADARVALUES:0.690024,0.675184,0.259686,0.259686,0.730831,651.000000,616.000000,35.000000,35.000000,0.000000,0.000000,0.000000,0.000000,0.000000,0.690024,0.675184,0.259686,0.259686,0.730831,651.000000,616.000000,35.000000,35.000000,0.000000,0.000000,0.000000,0.000000,0.000000;
#CREDIT:DJEmbrace;
#NOTES:
0000
0000
0000
0000
,
0000
0000
0000
0000
,
0000
0000
0000
0000
,
1000
0010
0100
0010
0100
0010
0100
0000
0010
0100
0001
0000
2000
0000
0000
0000
,
3001
0010
0000
0010
0001
0000
1000
0000
0200
0000
0000
0000
0310
0000
0001
0000
,
1000
0010
0000
0010
1000
0000
0001
0000
0100
0000
0010
0000
0100
0000
0001
0000
,
1000
0000
0100
0000
0010
0001
1000
0000
0010
0000
1000
0001
0000
0001
1000
0000
,
0100
0010
0001
0010
0100
0000
1000
0001
0100
0001
1000
0000
0010
0100
0010
0000
,
1000
0100
0000
0100
1000
0000
0001
0000
0020
0000
0000
0000
0130
0000
1000
0000
,
0001
0100
0000
0100
0001
0000
1000
0000
0010
0000
0100
0000
0010
0000
1000
0000
,
0001
0000
0010
0000
0100
1000
0001
0000
0100
0000
0001
1000
0000
1000
0001
0000
,
0020
0000
0000
0000
0100
0000
0000
0000
0031
0000
1000
0001
0000
0000
1000
0001
,
0200
0000
0000
0310
0000
0000
1000
0000
0100
0000
1000
0001
0000
0001
0010
0000
,
0200
0000
0000
1300
0000
0000
0010
0000
0100
0000
0001
1000
0000
1000
0100
0000
,
0020
0000
0000
0031
0000
0000
0100
0000
0101
0000
0000
0000
1010
0000
0000
0000
,
0010
0100
0010
0000
1000
0001
0100
0001
0000
1000
0000
0010
0000
0100
0001
0000
,
0020
0000
0000
0130
0000
0000
1000
0000
0010
0000
1000
0001
0000
0000
0010
0000
,
0200
0000
0000
1300
0000
0000
0010
0000
2000
0000
0000
0000
3001
0000
0000
0000
,
1000
0100
0010
0001
0010
0000
0100
0000
1000
0000
0001
0000
0100
0000
0010
0000
,
0110
0000
0000
1001
0000
0000
1100
0000
0011
0000
0000
0010
0001
1000
0001
0000
,
1001
0000
0000
0000
0101
0000
0000
1000
0010
0000
0000
1000
0001
0000
1000
0100
,
0000
0000
1000
0000
0001
0000
1000
0000
0101
0000
0000
0000
0001
1000
0001
0020
,
0000
0000
0130
0000
1000
0000
0001
0000
0100
0000
0000
0010
0100
0001
0100
0020
,
0000
0000
1030
0001
0100
0000
0100
0000
0020
0000
0000
0000
0130
0001
1000
0001
,
0010
0000
0000
0000
0011
0000
0000
1000
0100
0000
0000
1000
0001
1000
0000
1010
,
0000
0000
1000
0000
0001
0000
1000
0000
0011
0000
0000
0000
0001
1000
0001
0200
,
0000
0000
0310
0000
1000
0000
0001
0000
0010
0000
0100
0000
0010
0001
0010
0200
,
0000
0000
1300
0001
0010
0000
0010
0000
0200
0000
0000
0000
0310
0001
1000
0001
,
0100
0000
0000
0000
0010
1000
0010
2000
0000
0000
3001
0000
0001
0000
1000
0000
,
0100
0000
0000
0000
0010
0001
0010
0002
0000
0000
0103
0000
0001
1000
0000
0000
,
1010
0001
0001
0100
1000
0100
0001
1000
,
0001
0100
0010
0000
1000
0010
0100
0000
0001
0100
0010
1000
0100
0000
0010
0000
,
0100
0000
1000
0000
1000
0000
0100
0000
0001
0000
0100
0000
1000
0001
0010
0000
,
0000
0001
0010
0001
1000
0100
1000
0001
0010
0100
0010
0001
1000
0000
0010
1000
,
0002
0100
0100
1000
1003
0010
0001
0010
,
1000
0001
1000
0000
0100
0000
0000
0000
0020
0000
0000
0000
0031
0000
0010
0001
,
2000
0100
0100
0001
3001
0010
1000
0010
,
0001
1000
0010
1000
0001
0100
0001
0000
0001
0100
0010
1000
0002
0000
0000
0000
,
1003
0100
0010
0100
1000
0000
0001
0000
0020
0000
0001
0000
0130
0000
0001
0100
,
0000
1000
0000
0001
0010
0000
1000
0000
0020
0000
0100
0000
0031
0000
1000
0000
,
1000
0000
0010
0000
0010
0000
1000
0000
0100
0000
0010
0001
0000
0001
1000
0000
,
1001
0000
0000
0000
1010
0000
0000
1000
0001
1000
0000
0001
0010
0001
0010
0001
,
1000
0010
0100
0010
1000
0000
0010
0000
0110
0000
0010
0000
0011
0000
0001
0000
,
0010
1000
0000
0001
0100
0000
1000
0000
1100
0000
0100
0000
0110
0000
0000
0000
,
0010
1000
0001
0000
0001
0000
1000
0000
0100
0000
0010
0001
0000
0001
1000
0000
,
1002
0000
0000
0000
0023
0000
0000
0000
0130
0000
1000
0001
0100
0000
0010
1000
,
0001
0000
0010
0100
0000
0100
0010
0000
0001
0000
1000
0100
0000
0001
0100
0000
,
1000
0000
0010
0100
0000
0100
0010
0000
1000
0001
0100
0010
0000
0001
0010
0000
,
1000
0000
0000
0001
0000
0000
0010
0000
0110
0000
0000
0000
1001
0000
0000
0000
,
0001
0100
0010
0000
0100
0001
1000
0100
0000
0010
0000
1000
0000
0010
0001
0000
,
1000
0000
0010
0100
0000
0100
0010
0000
1000
0000
0001
0100
0000
1000
0100
0000
,
0001
0000
0010
0100
0000
0100
0010
0000
0021
0000
0000
0000
0130
0000
0000
0000
,
1000
0001
1000
0100
0010
0000
1000
0000
0010
0000
0001
0000
0100
0000
1000
0000
,
1100
0000
0000
0110
0000
0000
0101
0000
1002
0000
0000
0013
0001
0000
0100
0000
,
0110
0000
0000
0000
1010
0000
0010
1000
0001
0000
0000
1000
0100
1000
0001
0010
,
0000
0000
0100
1000
0001
0000
1000
0000
0101
0000
0000
0100
0001
1000
0010
0200
,
0000
0000
0010
0000
0301
0000
0100
0001
1000
0000
0000
1000
0100
0010
0100
0002
,
0000
0000
0103
0010
0001
0000
1000
0000
0100
0000
0100
0000
1000
0000
0000
0000
,
0102
0000
0000
0000
1003
0000
0001
0010
0000
0100
0000
0010
0001
1000
0001
0100
,
0000
0000
0100
0000
0001
0000
1000
0001
1000
0000
1000
0000
0001
1000
0001
0010
,
0000
0010
0100
0000
0010
0000
0010
0000
0001
0000
1000
0001
0100
0010
0100
2000
,
0000
0000
3100
0010
1000
0001
1000
0000
0100
0000
0100
1000
0001
0010
0001
0100
,
0001
1000
0000
1000
0010
0000
0100
0001
1000
0000
0001
0000
1000
0100
0010
0001
,
0000
1000
0001
1000
0100
0000
1000
0000
0011
0000
0001
0000
1000
0010
0100
0002
,
0000
0000
0100
0000
1003
0000
0001
0000
0010
0000
0001
1000
0010
0100
0010
0001
,
0000
0010
0100
0010
1000
0000
1000
0000
0011
0000
0001
0000
0100
0010
1000
0001
,
0010
0000
0000
0000
0100
1000
0100
2000
0000
0000
3001
0000
0001
0000
1000
0000
,
0010
0000
0000
0000
0100
0001
0100
0002
0000
0000
0013
0000
0001
1000
0000
0000
,
0010
0100
0000
1000
0000
0100
0001
0000
0010
0000
1000
0000
0010
0000
0010
0000
,
0001
0010
0100
1000
0100
0010
0001
0000
1000
0001
0100
0000
0110
0000
0000
0000
,
1001
0000
0000
0000
;
