#VERSION:0.83;
#TITLE:Strawberry Moon;
#SUBTITLE:;
#ARTIST:TWICE;
#TITLETRANSLIT:;
#SUBTITLETRANSLIT:;
#ARTISTTRANSLIT:;
#GENRE:;
#ORIGIN:;
#CREDIT:;
#BANNER:;
#BACKGROUND:;
#PREVIEWVID:;
#JACKET:;
#CDIMAGE:;
#DISCIMAGE:;
#LYRICSPATH:;
#CDTITLE:;
#MUSIC:Strawberry Moon.ogg;
#OFFSET:-1.414000;
#SAMPLESTART:46.275002;
#SAMPLELENGTH:15.000000;
#SELECTABLE:YES;
#BPMS:0.000=107.000;
#STOPS:;
#DELAYS:;
#WARPS:;
#TIMESIGNATURES:0.000=4=4;
#TICKCOUNTS:0.000=4;
#COMBOS:0.000=1;
#SPEEDS:0.000=1.000=0.000=0;
#SCROLLS:0.000=1.000;
#FAKES:;
#LABELS:0.000=Song Start;
#BGCHANGES:;
#KEYSOUNDS:;
#ATTACKS:
;

//---------------dance-single - ----------------
#NOTEDATA:;
#CHARTNAME:;
#STEPSTYPE:dance-single;
#DESCRIPTION:;
#CHARTSTYLE:;
#DIFFICULTY:Hard;
#METER:13;
#RADARVALUES:0.507099,0.542730,0.054443,0.609763,0.604318,326.000000,321.000000,5.000000,56.000000,4.000000,0.000000,0.000000,0.000000,0.000000,0.507099,0.542730,0.054443,0.609763,0.604318,326.000000,321.000000,5.000000,56.000000,4.000000,0.000000,0.000000,0.000000,0.000000;
#CREDIT:;
#NOTES:
0000
0000
0000
0000
,
0000
0000
0000
0000
,
0000
0000
0000
0000
,
0000
0000
0000
0000
,
0000
0000
0001
0000
0020
0000
0000
0000
0031
0100
0001
0000
0010
0000
0200
0000
,
0000
0000
1300
0000
0020
0000
0000
0000
1030
0100
1000
0010
0100
0000
0010
0000
,
0200
0000
0301
1000
0100
1000
0001
0000
0010
0000
0001
0000
2000
0000
0000
0000
,
3001
0100
0010
0100
0001
0010
0100
0000
2000
0000
0000
0000
3001
0100
0010
1000
,
0010
0000
1000
0000
0002
0000
0000
0000
1003
0100
1000
0000
0100
0000
0010
0000
,
0002
0000
0000
0203
0000
0000
0310
0000
2000
0000
0000
3002
0000
0000
0013
0000
,
0001
0100
0001
2000
0000
3010
1000
0100
1000
0002
0000
0000
,
0023
0000
0000
0130
0000
0000
1000
0000
0002
0000
0000
0200
0000
0000
0303
0000
,
0001
0000
0001
0000
1000
0100
1000
0001
1000
0010
1000
0020
0000
0000
0130
0000
,
0001
0000
0001
0000
1000
0001
1000
0001
0010
0001
1000
0020
0000
0100
0130
0000
,
0001
0100
0000
0010
1000
0000
0001
0010
0200
0000
1300
0000
0002
0000
0000
0000
,
1003
0010
0100
0001
1000
0000
0001
0010
0100
0000
1000
0001
0000
0100
0001
0000
,
1000
0200
1300
0020
0130
0002
0013
0200
,
0301
0100
1000
0010
0100
0001
0002
0000
,
1003
0000
0001
1000
0010
1000
0001
1000
0000
0001
1000
0001
0010
0001
1000
0001
,
2000
0000
0000
3200
0000
0000
0320
0000
0000
0032
0000
0000
2000
0000
3003
0000
,
0001
0000
1000
0100
0000
1000
0002
0000
0010
0000
0000
1003
0001
0100
0001
1000
,
0010
0000
1000
0100
0000
0010
0200
0000
1000
0000
0000
0310
0001
1000
0010
1000
,
0001
0000
1000
0000
0100
0000
0010
0000
0001
1000
0000
0010
0000
0200
0000
0000
,
0301
0010
0100
0010
0001
0100
0010
0000
0110
0000
1000
0000
1001
0000
0000
0000
,
1000
0000
0001
0100
0000
0001
2000
0000
0100
0000
0000
3001
1000
0010
1000
0001
,
0010
0000
0100
0010
0000
0001
2000
0000
0010
0000
0000
0000
3001
0010
0100
0100
,
1000
0000
0001
0000
0100
0000
0010
0000
1000
0001
0000
0010
0000
0200
0000
0000
,
1300
0010
0000
0010
0100
0000
0100
0001
0000
0001
0010
0000
0200
0000
0000
0000
,
2300
0000
3001
0000
0100
0000
0010
M000
0020
0000
0031
0000
1000
0000
0100
00M0
,
0200
0000
0301
1000
0100
0000
1001
0000
1000
0001
0100
0001
1000
0000
1001
0000
,
0002
0000
1003
0000
0010
0000
0100
000M
0200
0000
1300
0000
0001
0000
0010
0M00
,
0020
0000
1030
0001
0010
0000
1001
0000
1000
0010
0000
0100
0010
0000
0000
0000
,
1000
0000
0001
0100
0000
0001
2000
0000
0100
0000
0000
3001
0010
0001
1000
0001
,
0100
0000
0010
1000
0000
0001
2000
0000
0100
0000
0000
3001
0010
0100
0010
0001
,
1000
0000
0001
0000
0100
0000
0010
0000
1000
0001
0000
0010
0000
0200
0000
0000
,
1300
0000
0010
0000
0001
0000
0010
0000
1000
0100
0000
0010
0200
0000
0000
0000
,
1300
0000
0001
0000
0100
0020
0000
1030
0000
0000
0100
0000
1000
0000
0002
0000
,
0003
0000
1000
0000
0100
0020
0000
0031
0000
0000
1000
0000
0010
0000
0002
0000
,
0003
0000
0010
0000
1000
0002
0000
0013
0000
0000
0100
0000
1000
0000
0002
0000
,
0003
0000
0010
0000
0001
2000
0000
3020
0000
0000
0200
0000
0000
0000
0330
0000
;

//---------------dance-single - ----------------
#NOTEDATA:;
#CHARTNAME:;
#STEPSTYPE:dance-single;
#DESCRIPTION:;
#CHARTSTYLE:;
#DIFFICULTY:Medium;
#METER:10;
#RADARVALUES:0.376435,0.434184,0.032666,0.370213,0.348436,242.000000,239.000000,3.000000,34.000000,0.000000,0.000000,0.000000,0.000000,0.000000,0.376435,0.434184,0.032666,0.370213,0.348436,242.000000,239.000000,3.000000,34.000000,0.000000,0.000000,0.000000,0.000000,0.000000;
#CREDIT:;
#NOTES:
0000
0000
0000
0000
,
0000
0000
0000
0000
,
0000
0000
0000
0000
,
0000
0000
0000
0000
,
0001
0000
0000
0010
0000
0000
0100
0000
1000
0000
0000
0001
0000
0000
0000
0000
,
1000
0000
0000
0010
0000
0000
0100
0000
0001
0000
0000
1000
0000
0000
0000
0000
,
0010
0000
1000
0010
1000
0000
0001
0000
0010
0000
0100
0000
1000
0000
0000
0000
,
0001
0000
1000
0000
0100
0010
0001
0000
2000
0000
0000
0000
3001
1000
0001
1000
,
0001
0000
0000
0100
0000
0000
0010
0000
1000
0000
0000
0100
0000
0000
0010
0000
,
0002
0000
0000
1000
0000
0000
1003
0000
0020
0000
0000
0100
0000
0000
0130
0000
,
0002
0000
0000
1003
0000
0000
0100
0000
0020
0000
0000
0130
0000
0000
1000
0000
,
0020
0000
0000
0130
0000
0000
0002
0000
2000
0000
0000
0000
3003
0000
0000
0000
,
0001
0000
0001
0000
0000
1000
0000
0000
0010
0000
0000
1000
0000
0000
0100
0000
,
0010
0000
0010
0000
0000
0001
0000
0000
1000
0000
0000
0001
0000
0000
0100
0000
,
0010
0000
0010
0000
0000
1000
0000
0000
0200
0000
0000
0000
0310
0000
0000
0000
,
0001
0000
0001
0000
0000
1000
0000
0000
0010
0100
0010
0100
0000
0001
0100
0000
,
0020
1000
0230
0001
,
0302
0010
2003
0100
,
3001
0000
0001
0000
0000
0100
0000
0000
0010
0000
0000
1000
0000
0000
1010
0000
,
2000
0000
0000
3200
0000
0000
0320
0000
0000
0032
0000
0000
2000
0000
3003
0000
,
0001
0000
0000
0010
0000
0000
0200
0000
0000
0000
1300
0000
0001
0100
0010
0000
,
1000
0000
0000
0001
0000
0000
0020
0000
0000
0000
0130
0000
1000
0001
0100
0000
,
0010
0000
1000
0000
0001
0000
0010
0000
0100
1000
0000
0100
0000
0010
0000
0000
,
0001
0000
0100
0000
0010
0100
0010
0000
1000
0000
0001
0000
1001
0000
0000
0000
,
1000
0000
0000
0010
0000
0000
0200
0000
0000
0000
0301
0000
1000
0001
0010
0000
,
0100
0000
0000
0010
0000
0000
0002
0000
0000
0000
1003
0000
0001
0100
0010
0000
,
1000
0000
0001
0000
0010
0000
0100
0000
1000
0001
0000
0100
0000
0001
0000
0000
,
1000
0000
0000
0010
0000
0000
0100
0000
0000
0001
0000
0000
0102
0000
0000
0000
,
2003
0000
3001
0010
0200
0000
1300
0010
,
0200
0301
1000
1000
0100
1000
0001
0001
,
0020
0000
0130
0010
0002
0000
1003
0010
,
0200
0000
0310
0000
1000
0000
1000
0000
0001
0100
0000
0001
0100
0000
0000
0000
,
0010
0000
0000
1000
0000
0000
0002
0000
0010
0000
0013
0000
0100
0010
0001
0000
,
1000
0000
0000
0001
0000
0000
0200
0000
0010
0000
0310
0000
1000
0001
0100
0000
,
0010
0000
1000
0000
0001
0000
0010
0000
0100
1000
0000
0100
0000
0010
0000
0000
,
0001
0000
0100
0000
0010
0000
1000
0000
0001
1000
0000
0001
2000
0000
0000
0000
,
3001
0000
0100
0000
0010
1000
0000
0010
0000
0000
0100
0000
0001
0000
1000
0000
,
0000
0000
0100
0000
0010
0001
0000
0010
0000
0000
0100
0000
1000
0000
0010
0000
,
0000
0000
0100
0000
0001
1000
0000
0001
0000
0000
0010
0000
0100
0000
1000
0000
,
0000
0000
0100
0000
0010
0001
0000
2000
0000
0000
0002
0000
0000
0000
3003
0000
;

//---------------dance-single - ----------------
#NOTEDATA:;
#CHARTNAME:;
#STEPSTYPE:dance-single;
#DESCRIPTION:;
#CHARTSTYLE:;
#DIFFICULTY:Easy;
#METER:6;
#RADARVALUES:0.231772,0.260510,0.097998,0.239550,0.000000,149.000000,140.000000,9.000000,22.000000,0.000000,0.000000,0.000000,0.000000,0.000000,0.231772,0.260510,0.097998,0.239550,0.000000,149.000000,140.000000,9.000000,22.000000,0.000000,0.000000,0.000000,0.000000,0.000000;
#CREDIT:;
#NOTES:
0000
0000
0000
0000
,
0000
0000
0000
0000
,
0000
0000
0000
0000
,
0000
0000
0000
0000
,
0001
1000
0010
0010
,
1000
0001
0010
0000
,
0001
0000
0100
0000
0010
0010
0010
0000
,
1000
0100
0020
0000
,
0031
0100
1000
0100
,
0002
0000
2003
0000
,
3100
0100
0010
0010
,
0002
1003
2002
3003
,
1001
0000
1100
0000
,
1001
0000
0101
0000
,
0001
0000
0100
0000
0010
1000
0010
0000
,
1000
0000
0100
0000
0010
0001
0010
0000
,
0002
0000
2003
0000
,
3020
0000
0230
0000
,
0301
0000
1000
0001
0100
0000
0001
1000
,
0100
0100
0010
0110
,
0001
0000
0001
0000
1000
0000
0001
0100
,
0010
0000
0010
0000
1000
0000
0001
1000
,
0100
0001
0100
1000
,
0001
0000
0100
0000
0010
0100
0110
0000
,
1000
0000
1000
0000
0001
0000
1000
0100
,
0010
0000
0010
0000
0001
0000
1000
0001
,
0100
1000
0100
0001
,
1000
0000
0010
0000
0100
0010
0110
0000
,
0002
0013
2000
3010
,
0001
0100
0001
0000
1000
0100
1000
0000
,
2000
3100
0002
0103
,
1000
0010
1000
0000
0001
0000
0011
0000
,
0010
0000
0010
0000
0100
0000
1000
0001
,
0100
0000
0100
0000
0010
0000
1000
0001
,
0010
1000
0010
0001
,
1000
0000
0010
0000
1000
0001
1000
0000
,
0200
0000
0320
0000
,
0032
0000
2003
0000
,
3002
0000
0203
0000
,
0320
0000
0000
0000
2000
0000
0000
3030
;

//---------------dance-single - ----------------
#NOTEDATA:;
#CHARTNAME:;
#STEPSTYPE:dance-single;
#DESCRIPTION:;
#CHARTSTYLE:;
#DIFFICULTY:Beginner;
#METER:3;
#RADARVALUES:0.121330,0.173129,0.000000,0.119775,0.000000,78.000000,78.000000,0.000000,11.000000,0.000000,0.000000,0.000000,0.000000,0.000000,0.121330,0.173129,0.000000,0.119775,0.000000,78.000000,78.000000,0.000000,11.000000,0.000000,0.000000,0.000000,0.000000,0.000000;
#CREDIT:;
#NOTES:
0000
0000
0000
0000
,
0000
0000
0000
0000
,
0000
0000
0000
0000
,
0000
0000
0000
0000
,
0001
0000
0001
0000
,
1000
0000
0000
0000
,
1000
0000
1000
0000
,
0001
0000
0000
0000
,
1000
0000
0001
0000
,
1000
0000
0000
0000
,
0010
0000
0010
0000
,
0100
0000
0000
0000
,
0001
0000
1000
0000
,
0001
0000
1000
0000
,
0100
0000
0010
0000
,
0100
0000
0010
0000
,
0001
0000
1000
0000
,
0010
0000
0100
0000
,
0001
0000
1000
0000
,
0001
1000
0001
0000
,
1000
1000
1000
0000
,
0001
0001
0001
0000
,
0100
0100
0010
0000
,
0010
1000
0001
0000
,
0010
0010
0010
0000
,
0100
0100
0100
0000
,
1000
0001
1000
0000
,
0010
0010
0010
0010
,
2000
3000
0002
0003
,
0020
0030
0100
0100
,
2000
3000
0002
0003
,
0200
0300
0010
0010
,
0020
0030
2000
3000
,
0002
0003
0020
0030
,
0100
0100
0010
0000
,
0010
0001
1000
0000
,
0001
0000
0000
0000
,
1000
0000
0000
0000
,
0010
0000
0000
0000
,
0200
0000
0000
0300
;

//---------------dance-double - ----------------
#NOTEDATA:;
#CHARTNAME:;
#STEPSTYPE:dance-double;
#DESCRIPTION:;
#CHARTSTYLE:;
#DIFFICULTY:Hard;
#METER:13;
#RADARVALUES:0.507099,0.542730,0.054443,0.598874,0.604318,326.000000,321.000000,5.000000,55.000000,4.000000,0.000000,0.000000,0.000000,0.000000,0.507099,0.542730,0.054443,0.598874,0.604318,326.000000,321.000000,5.000000,55.000000,4.000000,0.000000,0.000000,0.000000,0.000000;
#CREDIT:;
#NOTES:
// measure 0
00000000
00000000
00000000
00000000
,  // measure 1
00000000
00000000
00000000
00000000
,  // measure 2
00000000
00000000
00000000
00000000
,  // measure 3
00000000
00000000
00000000
00000000
,  // measure 4
00000000
00000000
10000000
00000000
02000000
00000000
00000000
00000000
03100000
00010000
10000000
00000000
00100000
00000000
02000000
00000000
,  // measure 5
00000000
00000000
03010000
00000000
00200000
00000000
00000000
00000000
00310000
00100000
00010000
00100000
00002000
00000000
00023000
00000000
,  // measure 6
00030200
00000000
00000310
00000001
00001000
00000001
00000100
00000000
00002000
00000000
00023000
00000000
02030000
00000000
00000000
00000000
,  // measure 7
03100000
00010000
10000000
00010000
01000000
00100000
10000000
00000000
02000000
00000000
00000000
00000000
03100000
00010000
00100000
00001000
,  // measure 8
00010000
00000000
00000100
00000000
00000200
00000000
00000000
00000000
00000310
00000001
00001000
00000000
00000010
00000000
00000100
00000000
,  // measure 9
00000002
00000000
00000000
00000023
00000000
00000000
00000130
00000000
00020000
00000000
00000000
00032000
00000000
00000000
01003000
00000000
,  // measure 10
00100000
10000000
01000000
00200000
00000000
00310000
00001000
00000100
00000010
00000002
00000000
00000000
,  // measure 11
00000203
00000000
00000000
00001300
00000000
00000000
00010000
00000000
00002000
00000000
00000000
00020000
00000000
00000000
00033000
00000000
,  // measure 12
00001000
00000000
00001000
00000000
00010000
00000100
00010000
00000010
00010000
00001000
00010000
00002000
00000000
00000000
00013000
00000000
,  // measure 13
00001000
00000000
00001000
00000000
00010000
00001000
00010000
00001000
00100000
00001000
00010000
00002000
00000000
00010000
00013000
00000000
,  // measure 14
00001000
00010000
00000000
00000100
00001000
00000000
00000001
00000100
00000010
00000000
00001000
00000000
00000002
00000000
00000000
00000000
,  // measure 15
00000013
00000100
00001000
00000001
00000100
00000000
00000010
00000100
00001000
00000000
00010000
00001000
00000000
00010000
00001000
00000000
,  // measure 16
00010000
00200000
01300000
00200000
10300000
02000000
03100000
02000000
,  // measure 17
03010000
01000000
10000000
00100000
00010000
00001000
00020000
00000000
,  // measure 18
00031000
00000000
00010000
00000100
00001000
00000100
00010000
00001000
00000000
00010000
00001000
01000000
00010000
01000000
00001000
00010000
,  // measure 19
00002000
00000000
00000000
00003200
00000000
00000000
00000302
00000000
00000000
00000023
00000000
00000000
00000200
00000000
00000330
00000000
,  // measure 20
00000001
00000000
00000100
00000010
00000000
00000010
00002000
00000000
00000100
00000000
00000000
00003001
00000010
00000100
00000010
00000001
,  // measure 21
00001000
00000000
00000001
00000100
00000000
00000100
00002000
00000000
00010000
00000000
00000000
00013000
00000100
00001000
00000100
00010000
,  // measure 22
00001000
00000000
01000000
00000000
00100000
00000000
10000000
00000000
01000000
00100000
00000000
00001000
00000000
00020000
00000000
00000000
,  // measure 23
00031000
00100000
00010000
00100000
00001000
00010000
00100000
00000000
01100000
00000000
10000000
00000000
10010000
00000000
00000000
00000000
,  // measure 24
10000000
00000000
00100000
01000000
00000000
01000000
00020000
00000000
00100000
00000000
00000000
10030000
01000000
00100000
01000000
10000000
,  // measure 25
00010000
00000000
10000000
00100000
00000000
00100000
00020000
00000000
00001000
00000000
00000000
00000000
00031000
00000100
00000010
00000010
,  // measure 26
00010000
00000000
00000010
00000000
00000100
00000000
00000001
00000000
00000010
00000100
00000000
00010000
00000000
00002000
00000000
00000000
,  // measure 27
00013000
00001000
00000000
00000100
00001000
00000000
00010000
00001000
00000000
00010000
01000000
00000000
00200000
00000000
00000000
00000000
,  // measure 28
00302000
00000000
00013000
00000000
00000010
00000000
00001000
00000M00
00002000
00000000
00013000
00000000
00000100
00000000
00001000
000000M0
,  // measure 29
00002000
00000000
00013000
01000000
10000000
00000000
10010000
00000000
00010000
10000000
00100000
00010000
00001000
00000000
00011000
00000000
,  // measure 30
00020000
00000000
00031000
00000000
01000000
00000000
00010000
00M00000
00020000
00000000
00031000
00000000
00100000
00000000
00010000
0M000000
,  // measure 31
00020000
00000000
00031000
00000100
00000001
00000000
00001001
00000000
00000001
00000100
00000000
00000010
00000100
00000000
00000000
00000000
,  // measure 32
00000001
00000000
00000010
00000100
00000000
00000100
00002000
00000000
00000010
00000000
00000000
00003001
00000100
00000010
00000100
00000001
,  // measure 33
00001000
00000000
00000001
00000010
00000000
00000010
00002000
00000000
00010000
00000000
00000000
01003000
00001000
00010000
00001000
01000000
,  // measure 34
00010000
00000000
00100000
00000000
01000000
00000000
10000000
00000000
00100000
01000000
00000000
00001000
00000000
00020000
00000000
00000000
,  // measure 35
00031000
00000000
00000100
00000000
00000001
00000000
00000100
00000000
00001000
00010000
00000000
00001000
00020000
00000000
00000000
00000000
,  // measure 36
00031000
00000000
00010000
00000000
00001000
00000020
00000000
00001030
00000000
00000000
00010000
00000000
01000000
00000000
00100000
00000000
,  // measure 37
00000000
00000000
00001000
00000000
00010000
00200000
00000000
00310000
00000000
00000000
00001000
00000000
00000100
00000000
00000010
00000000
,  // measure 38
00000000
00000000
00010000
00000000
00001000
00000200
00000000
00001300
00000000
00000000
00010000
00000000
00100000
00000000
01000000
00000000
,  // measure 39
00000000
00000000
00001000
00000000
00010000
01000000
00000000
00020000
00000000
00000000
00002000
00000000
00000000
00000000
00033000
00000000
;
