#VERSION:0.83;
#TITLE:Steel Edge;
#SUBTITLE:;
#ARTIST:Maozon;
#TITLETRANSLIT:;
#SUBTITLETRANSLIT:;
#ARTISTTRANSLIT:;
#GENRE:Drum & Bass;
#ORIGIN:;
#CREDIT:;
#BANNER:Steel Edge.png;
#BACKGROUND:Steel Edge-bg.png;
#PREVIEWVID:;
#JACKET:Steel Edge-jacket.png;
#CDIMAGE:;
#DISCIMAGE:;
#LYRICSPATH:;
#CDTITLE:cdtitle.png;
#MUSIC:Steel Edge.ogg;
#OFFSET:-0.037097;
#SAMPLESTART:21.732014;
#SAMPLELENGTH:10.847456;
#SELECTABLE:YES;
#BPMS:0.000=177.000,
224.000=88.500,
232.000=177.000;
#STOPS:;
#DELAYS:;
#WARPS:;
#TIMESIGNATURES:0.000=4=4;
#TICKCOUNTS:0.000=4;
#COMBOS:0.000=1;
#SPEEDS:0.000=1.000=0.000=0;
#SCROLLS:0.000=1.000;
#FAKES:;
#LABELS:0.000=Song Start,
192.000=Woah we're halfway there,
192.500=Woah oh livin' on a prayer;
#BGCHANGES:;
#KEYSOUNDS:;
#ATTACKS:
;

//---------------dance-single - ----------------
#NOTEDATA:;
#CHARTNAME:;
#STEPSTYPE:dance-single;
#DESCRIPTION:;
#CHARTSTYLE:;
#DIFFICULTY:Challenge;
#METER:15;
#RADARVALUES:0.717659,1.153480,0.463343,0.317024,0.349540,618.000000,561.000000,57.000000,39.000000,8.000000,0.000000,0.000000,0.000000,0.000000,0.717659,1.153480,0.463343,0.317024,0.349540,618.000000,561.000000,57.000000,39.000000,8.000000,0.000000,0.000000,0.000000,0.000000;
#CREDIT:;
#NOTES:
0000
0000
0000
0000
,
0000
0000
0000
0000
,
0000
0000
0000
0000
,
0000
0000
0000
0000
,
0000
0000
0000
0000
,
0000
0000
0000
0000
,
0000
0000
0000
0000
,
0000
0000
0000
0000
,
1001
0000
0001
0100
0001
0001
0010
0001
,
1001
0000
0000
0000
0001
0000
0010
0000
0001
0000
0001
0000
1000
0010
0100
0001
,
1000
0000
1000
0100
1000
1000
0010
1000
,
1001
0000
0000
0000
1000
0000
0010
0000
1000
0000
1000
0000
0100
0010
0100
0000
,
1001
0000
0001
0100
1000
0100
0001
1000
,
1001
0000
0000
0000
1000
0000
0100
0000
0001
0000
0100
0000
1000
0001
1000
0001
,
0100
0100
0010
0010
1000
1000
0001
0001
,
0020
0000
0000
0000
,
0031
0010
0010
0200
0000
0301
0100
0010
,
0001
0000
0000
0001
1000
0000
0001
0000
0100
0000
0010
1000
0010
0000
0100
0000
,
0001
0000
1000
0000
1000
0000
0200
0000
0000
0000
1300
0001
0100
0010
0100
0010
,
1000
0000
0100
0000
0010
0000
2000
0000
0000
0000
3010
0100
0010
0100
1000
0001
,
1000
0010
0010
0200
0000
1300
0100
0010
,
1000
0000
0000
1000
0001
0000
1000
0000
0100
0000
0010
0001
0010
0000
0100
0000
,
1000
0000
0001
0000
0001
0000
0200
0000
0000
0000
0301
1000
0100
0010
0100
0010
,
0001
0000
0100
0000
0010
0000
1000
0000
0000
1000
0000
0000
1000
0000
0100
0000
,
0010
0001
0001
0200
0000
1300
0100
0001
,
1000
0000
0000
1000
0100
0000
0001
0000
0100
0000
1000
0001
1000
0000
0010
0000
,
0100
0000
0001
0000
0001
0000
2000
0000
0000
0000
3001
1000
0100
0010
0100
0010
,
0001
0000
0100
0000
0010
0000
0002
0000
0000
0000
0013
0100
0010
0100
0001
1000
,
0001
0000
0000
0001
1000
0100
0010
0001
,
0011
0000
0000
0001
0000
0000
1000
0000
1010
0000
0000
1000
0000
0000
0001
0000
,
0011
0000
0000
0000
1100
0000
0000
0000
1001
0000
1000
0100
0010
0001
0100
0010
,
2000
0000
0000
0000
0000
0000
0001
0000
0000
0001
0000
0000
3001
0000
1000
0000
,
1002
0003
1000
0100
M00M
0100
0001
0010
,
0010
0000
0001
1000
0001
0000
0100
0000
0100
0000
0001
1000
0001
0000
0010
0000
,
0120
0000
0100
1000
0000
1030
0010
0001
,
0200
0000
0010
1000
0000
1300
0100
0001
,
2001
3000
0001
0100
M00M
0100
1000
0010
,
0010
0000
1000
0001
1000
0000
0100
0000
0100
0000
1000
0001
1000
0000
0010
0000
,
0210
0000
1000
0010
0000
0301
1000
0100
,
0010
0001
0010
0001
0010
0001
0010
0001
1000
0100
0010
0001
0100
0010
1000
0000
,
2010
3000
0010
1000
0MM0
1000
0100
0001
,
0001
0000
1000
0100
0010
0000
0100
0000
0100
0000
0010
0001
1000
0000
0010
0000
,
0120
0000
0100
0001
0000
0031
0010
1000
,
0200
0000
0010
0001
0000
0301
0100
1000
,
1002
0003
0010
0001
0MM0
0001
0100
1000
,
1000
0000
0001
0100
0010
0000
0100
0000
0100
0000
0010
1000
0001
0000
0010
0000
,
0210
0000
0001
0010
0000
1300
0001
0100
,
0020
0000
0000
0030
,
0110
0000
1000
0010
,
0001
0000
0010
0000
1000
0010
1000
0000
,
0001
0000
1000
0100
,
0001
0000
0100
0000
1000
0001
0100
0010
,
1001
0000
0001
0010
,
1000
0000
0010
0000
0001
0010
0001
0000
,
1000
0000
0001
0000
0100
1000
0100
0000
,
0001
0000
0010
1000
0010
0000
0001
0000
,
1001
0000
0001
0100
0101
0000
1100
0000
1010
0000
0011
0000
0010
0001
0100
0000
,
1001
0000
1000
0100
1100
0000
0101
0000
0011
0000
1010
0000
0010
1000
0100
0010
,
1001
0000
0001
0100
0101
0000
1010
0000
,
1100
0000
0011
0000
1000
0001
1000
0000
,
1001
0001
0101
0100
0110
0010
1010
1000
,
2002
0000
0000
3003
,
1000
0001
0001
2000
0000
3001
1000
0010
,
0100
0000
0000
0100
0000
0000
0100
0000
0010
0000
0000
0010
1000
0001
1000
0000
,
0100
0000
0001
0000
0001
0000
0200
0000
0000
0000
0310
0001
0010
0001
1000
0010
,
0100
0000
0010
0000
0100
0000
2000
0000
0000
0000
3100
0010
1000
0010
0100
0001
,
1000
0100
0100
0002
0000
1003
0010
0001
,
1000
0000
0000
1000
0010
0000
0100
0000
0001
0000
0010
0100
1000
0000
0001
0000
,
0100
0000
1000
0000
1000
0000
0200
0000
0000
0000
0310
1000
0010
1000
0001
0010
,
0100
1100
0000
0011
0000
1000
0100
0010
,
0001
0100
0100
2000
0000
3001
0010
1000
,
0001
0000
0000
1000
0100
0000
0001
0000
0100
0000
0010
0001
1000
0000
0001
0000
,
0100
0000
1000
0000
1000
0000
0200
0000
0000
0000
0310
1000
0010
1000
0001
0010
,
0100
0000
0010
0000
0100
0000
0002
0000
0000
0000
0103
0010
0001
0010
0100
1000
,
0001
0000
0000
1002
0000
1003
0010
0001
,
0010
0000
0000
1000
0000
0000
0100
0000
0001
0000
0000
0100
0000
0000
1000
0000
,
0001
0000
0001
0000
0000
0000
1002
0000
0000
0000
1003
0010
0100
0001
0010
0100
,
2000
0000
0000
0000
0000
0000
0001
0000
0000
0001
0000
0000
3001
0000
1000
0000
,
0001
0010
0010
2100
0000
0001
3001
2010
,
0000
0001
3001
2100
0000
3100
0001
0100
,
1000
0010
0010
0102
0000
1000
1003
0011
,
0000
1100
0000
1001
0000
0001
0100
0010
,
1000
0000
0000
1000
0010
1000
0001
0010
,
0011
0000
0000
0100
0000
0000
1000
0000
1010
0000
0000
0100
0000
0000
0001
0000
,
1001
0000
0000
0000
0110
0000
0000
0000
1001
0000
0001
0100
0010
1000
0100
0010
,
0002
1000
1000
1000
1000
1000
1000
1003
,
1001
0000
0000
0000
;

//---------------dance-single - ----------------
#NOTEDATA:;
#CHARTNAME:;
#STEPSTYPE:dance-single;
#DESCRIPTION:;
#CHARTSTYLE:;
#DIFFICULTY:Hard;
#METER:12;
#RADARVALUES:0.548115,0.873849,0.211349,0.495858,0.138190,472.000000,446.000000,26.000000,61.000000,0.000000,0.000000,0.000000,0.000000,0.000000,0.548115,0.873849,0.211349,0.495858,0.138190,472.000000,446.000000,26.000000,61.000000,0.000000,0.000000,0.000000,0.000000,0.000000;
#CREDIT:;
#NOTES:
0000
0000
0000
0000
,
0000
0000
0000
0000
,
0000
0000
0000
0000
,
0000
0000
0000
0000
,
0000
0000
0000
0000
,
0000
0000
0000
0000
,
0000
0000
0000
0000
,
0000
0000
0000
0000
,
1001
0000
0001
0100
0001
0010
0001
0000
,
0011
0000
0001
0010
0001
0100
0001
0000
,
1001
0000
1000
0100
1000
0010
1000
0000
,
1010
0000
1000
0010
1000
0100
1000
0000
,
1001
0000
0001
0100
1000
0100
0001
0000
,
1001
0000
1000
0100
0001
0100
1000
0000
,
1001
0000
1000
0010
0100
0001
0010
0100
,
2000
0000
0000
0000
,
3001
0100
0001
0200
0000
0310
1000
0000
,
0002
0000
0000
0010
0000
0000
1003
0000
2000
0000
0000
0010
0000
0000
3001
0000
,
0001
0010
0001
0020
0000
0100
0130
0000
,
1000
0010
0100
2000
0000
3100
0001
0000
,
1000
0100
1000
0200
0000
0310
0001
0000
,
2000
0000
0000
0010
0000
0000
3001
0000
0002
0000
0000
0010
0000
0000
1003
0000
,
1000
0010
1000
0020
0000
0100
0130
0000
,
0001
0000
1000
0000
0100
0000
0010
0000
0000
0010
0000
0000
0010
0000
0001
0000
,
0100
0010
0100
0020
0000
1030
0001
0000
,
2000
0000
0000
0100
0000
0000
3001
0000
0002
0000
0000
0100
0000
0000
1003
0000
,
1000
0010
0100
0002
0000
1000
1003
0000
,
0001
0010
0100
0002
0000
0103
1000
0000
,
0001
0000
0000
0002
0000
0103
0100
0010
,
1000
0000
0000
1000
0000
0000
0100
0000
0010
0000
0000
0010
0000
0000
0100
0000
,
1001
0000
1001
0000
1000
0010
0001
0010
,
2000
0000
0000
0000
0000
0000
0001
0000
0000
0001
0000
0000
3001
0000
1000
0000
,
0100
0000
1001
0000
0000
1000
0010
0100
,
0010
0000
0000
0001
0000
0000
0010
0000
1000
0000
0000
0100
0000
0000
0001
0000
,
0200
0000
0010
0310
0000
0100
0010
0001
,
0200
0000
0010
0310
0000
0100
0010
1000
,
0001
0000
1001
0000
0000
0001
0010
0100
,
0010
0000
0000
1000
0000
0000
0010
0000
0001
0000
0000
0100
0000
0000
1000
0000
,
0200
0000
0010
0310
0000
0100
0010
1000
,
0001
0010
0001
0010
0100
1000
0010
0100
,
0001
0000
0011
0000
0000
0001
1000
0100
,
0001
0000
0000
1000
0000
0000
0010
0000
0001
0000
0000
0100
0000
0000
0010
0000
,
2000
0000
0010
3010
0000
0001
0010
1000
,
0002
0000
0010
0013
0000
1000
0010
0001
,
1000
0000
1010
0000
0000
1000
0001
0100
,
1000
0000
0000
0001
0000
0000
0010
0000
1000
0000
0000
0100
0000
0000
0010
0000
,
0002
0000
1000
1003
0000
0001
0100
0010
,
2000
0000
0000
3000
,
1001
0000
0001
0010
,
1000
0000
0010
0000
0001
0010
0001
0000
,
1000
0000
0001
0100
,
1000
0000
0100
0000
0001
1000
0100
0010
,
1001
0000
1000
0010
,
0001
0000
0010
0000
1000
0010
1000
0000
,
0001
0000
1000
0000
0100
0001
0100
0000
,
1000
0000
0010
0001
0010
0000
1000
0000
,
1001
0000
0001
0001
0200
0000
2300
0000
3002
0000
0023
0000
1030
0010
1000
0000
,
1001
0000
1000
1000
0200
0000
0302
0000
2003
0000
3020
0000
0031
0010
0001
0010
,
0110
0000
0001
0010
2000
0000
3002
0000
,
0203
0000
2300
0000
3001
0100
1000
0000
,
0001
0010
0001
0010
1000
0010
1000
0100
,
0220
0000
0000
0330
,
1000
0001
0001
2000
0000
3001
0100
0010
,
1000
0000
0000
0100
0000
0000
1000
0000
0001
0000
0000
0100
0000
0000
0001
0000
,
0001
0010
0100
0020
0000
1000
1030
0000
,
0010
0100
1000
0020
0000
0031
0010
0000
,
1000
0100
1000
0200
0000
0301
0100
0000
,
2000
0000
0000
0010
0000
0000
3001
0000
0002
0000
0000
0100
0000
0000
1003
0000
,
0100
0001
0100
2000
0000
0001
3001
0000
,
0100
0100
0000
1001
0000
0010
0010
0000
,
1000
0100
1000
0200
0000
0301
0100
0000
,
2000
0000
0000
0010
0000
0000
3001
0000
0002
0000
0000
0100
0000
0000
1003
0000
,
1000
0010
0100
0020
0000
0001
0031
0000
,
0010
0100
0001
0020
0000
1030
0010
0000
,
0001
0000
0000
0002
0000
1003
0010
0001
,
0010
0000
0000
1000
0000
0000
0100
0000
0001
0000
0000
0100
0000
0000
1000
0000
,
0001
1000
0000
0020
0000
0130
0001
1000
,
1002
0000
0000
0000
0000
0000
1000
0000
0000
1000
0000
0000
1003
0000
0001
0000
,
0100
0010
0100
2000
0000
3100
0001
0020
,
0000
1030
0010
0002
0000
1003
1001
0000
,
0001
1000
0100
0002
0000
0103
1000
0020
,
0000
0032
0000
0023
0000
1000
1030
0000
,
1001
0000
0000
2000
0000
3100
0010
0010
,
0001
0000
0000
0100
0000
0000
1000
0000
0001
0000
0000
0010
0000
0000
1000
0000
,
1001
0000
1001
0000
0001
0010
1000
0010
,
0001
1000
0010
0100
0001
1000
0100
0010
,
0110
0000
0000
0000
;

//---------------dance-single - ----------------
#NOTEDATA:;
#CHARTNAME:;
#STEPSTYPE:dance-single;
#DESCRIPTION:;
#CHARTSTYLE:;
#DIFFICULTY:Medium;
#METER:9;
#RADARVALUES:0.412248,0.699079,0.292638,0.382055,0.008129,355.000000,319.000000,36.000000,47.000000,0.000000,0.000000,0.000000,0.000000,0.000000,0.412248,0.699079,0.292638,0.382055,0.008129,355.000000,319.000000,36.000000,47.000000,0.000000,0.000000,0.000000,0.000000,0.000000;
#CREDIT:;
#NOTES:
0000
0000
0000
0000
,
0000
0000
0000
0000
,
0000
0000
0000
0000
,
0000
0000
0000
0000
,
0000
0000
0000
0000
,
0000
0000
0000
0000
,
0000
0000
0000
0000
,
0000
0000
0000
0000
,
1001
0001
0010
0010
,
1001
0001
0100
0100
,
1001
1000
0010
0010
,
1001
1000
0100
0100
,
1001
0010
0100
0010
,
1001
0100
0010
0100
,
1001
1000
0010
0100
,
0002
0000
0000
0000
,
1003
0000
0000
0020
0000
1000
1030
0000
,
0001
0000
1000
0100
1000
0000
0001
0100
,
0001
0000
0000
2000
0000
0100
3100
0000
,
0010
0000
0000
0200
0000
0301
0100
0000
,
1000
0000
0000
0002
0000
1000
1003
0000
,
0010
0000
1000
0010
1000
0000
0001
0010
,
0001
0000
0000
2000
0000
0001
3001
0000
,
1000
0000
0001
0100
0000
0010
1000
0000
,
0001
0000
0000
0020
0000
0001
0031
0000
,
1000
0000
0001
0100
0001
0000
1000
0100
,
1000
0000
0000
0002
0000
0100
0103
0000
,
0010
0000
0000
0200
0000
1300
0100
0000
,
0001
0000
0001
0010
,
0001
1000
0001
0100
,
1001
0000
1001
0000
1001
0000
0001
1000
,
0200
0000
0000
0000
,
0310
0000
0110
0000
0000
0010
0110
0000
,
0001
0000
0010
0100
1000
0000
0010
0100
,
0002
0000
0000
0100
0000
0000
1003
0001
,
2000
0000
0000
0100
0000
0000
3001
1000
,
0010
0000
0110
0000
0000
0010
0110
0000
,
0001
0000
1000
0100
0010
0000
0001
0100
,
0020
0000
0000
0100
0000
0000
1030
0002
,
2000
0000
0000
3003
,
1000
0000
1100
0000
0000
0001
0011
0000
,
1000
0000
0010
0100
0001
0000
0010
0100
,
2000
0000
0000
0010
0000
0000
3001
1000
,
0002
0000
0000
0010
0000
0000
1003
0001
,
1000
0000
1010
0000
0000
0001
0101
0000
,
1000
0000
0010
1000
0100
0000
0010
0001
,
0200
0000
0010
0310
0000
0000
1000
0001
,
0200
0000
0000
0300
,
1001
0000
0001
0010
,
1000
0010
0001
1000
,
0001
0000
0001
0100
,
1000
0100
0001
1000
,
1001
0000
1000
0010
,
0001
0010
1000
0001
,
1000
0100
0001
0100
,
1000
0010
0001
0010
,
1001
0000
0000
0000
2000
0000
3200
0000
0302
0000
0203
0000
1300
0001
1000
0000
,
1010
0000
0000
0000
0002
0000
0203
0000
2300
0000
3200
0000
0301
1000
0001
0000
,
0011
0000
0002
0023
,
2030
0000
3020
0000
0031
1000
0002
0000
,
0203
2300
3200
0302
,
0023
0000
0000
0000
,
0031
0000
0000
2000
0000
0000
3001
0000
,
1000
0010
0100
0001
,
1000
0000
0000
0002
0000
0010
0013
0000
,
0100
0000
0000
0020
0000
1030
0010
0000
,
0001
0000
0000
2000
0000
0001
3001
0000
,
0100
0000
0001
0100
0010
0000
1000
0100
,
0010
0000
0000
0002
0000
1000
1003
0000
,
0001
1000
0000
0010
0000
0100
0001
0000
,
1000
0000
0000
0200
0000
1000
1300
0000
,
0001
0000
0100
0001
0010
0000
0100
1000
,
0010
0000
0000
2000
0000
0010
3010
0000
,
0100
0000
0000
0020
0000
0031
0010
0000
,
1000
0000
1000
0100
,
0010
0001
0100
0010
,
1000
0000
0000
0000
0001
0000
1000
0001
,
0020
0000
0000
0030
,
0011
0000
0000
1100
0000
0001
0000
0101
,
0000
1000
0000
1100
0000
0000
0001
1000
,
0010
0000
0000
0101
0000
0010
0000
1100
,
0000
1010
0000
0101
0000
0001
0010
0000
,
1001
0000
1000
0010
,
0100
0001
0010
0100
,
1001
0000
1001
0000
1001
0000
1000
0001
,
0200
0010
0010
0310
,
1001
0000
0000
0000
;

//---------------dance-single - ----------------
#NOTEDATA:;
#CHARTNAME:;
#STEPSTYPE:dance-single;
#DESCRIPTION:;
#CHARTSTYLE:;
#DIFFICULTY:Easy;
#METER:7;
#RADARVALUES:0.320508,0.594217,0.325153,0.146319,0.000000,276.000000,236.000000,40.000000,18.000000,0.000000,0.000000,0.000000,0.000000,0.000000,0.320508,0.594217,0.325153,0.146319,0.000000,276.000000,236.000000,40.000000,18.000000,0.000000,0.000000,0.000000,0.000000,0.000000;
#CREDIT:;
#NOTES:
0000
0000
0000
0000
,
0000
0000
0000
0000
,
0000
0000
0000
0000
,
0000
0000
0000
0000
,
0000
0000
0000
0000
,
0000
0000
0000
0000
,
0000
0000
0000
0000
,
0000
0000
0000
0000
,
0001
0001
0010
0000
,
0010
0010
0001
0000
,
1000
1000
0010
0000
,
0010
0010
1000
0000
,
0100
0100
0010
0000
,
0001
0001
1000
0000
,
0001
0100
0010
1000
,
0002
0000
0000
0000
,
1003
1010
0000
1010
,
0010
1000
0001
1000
,
0100
1100
0000
1100
,
0001
0102
0000
1003
,
0001
0011
0000
0011
,
0010
0001
1000
0001
,
0100
0101
0000
1001
,
0010
1001
0100
0000
,
1000
1010
0000
0011
,
0010
0100
1000
0010
,
0100
0101
0000
0101
,
1000
2100
0000
3001
,
1001
0000
1000
0000
,
0001
0000
1000
0000
,
0001
1000
0010
0100
,
0002
0000
0000
0000
,
0013
1000
0000
1000
,
0010
0001
1000
0100
,
0020
0000
0031
0001
,
2000
0000
3010
1000
,
0010
0001
0000
0001
,
0010
1000
0001
0100
,
0020
0000
1030
0001
,
0020
0000
0000
0000
,
0130
0001
0000
0001
,
0100
1000
0001
0100
,
0020
0000
1030
1000
,
0002
0000
0013
0001
,
0100
1000
0000
1000
,
0100
0001
1000
0100
,
0020
0000
0031
1000
,
0010
0000
0000
0000
,
1001
0000
0001
0100
,
0001
0100
0010
0100
,
0001
0000
1000
0100
,
1000
0100
0010
0100
,
1001
0000
1000
0010
,
1000
0010
0100
0010
,
1000
0001
0010
0001
,
0010
0100
0010
0001
,
1001
0000
0001
0100
0001
1000
0100
1000
,
0001
0000
1000
0010
1000
0001
0010
0001
,
1001
0000
0001
0100
,
0010
1000
0100
0010
,
0001
0001
1000
1000
,
0020
0000
0000
0030
,
1001
0000
0000
0000
,
0000
0000
0000
0000
,
0010
1001
0000
1001
,
0100
2010
0000
3001
,
1000
1100
0000
0011
,
0100
1000
0010
0100
,
0010
1001
0000
1001
,
0002
0000
2003
0000
,
3001
0101
0000
1010
,
0100
0001
0010
0100
,
0010
1001
0000
1001
,
0100
0012
0000
1003
,
1001
0000
0001
0000
,
0100
0000
0010
0000
,
1000
0000
0100
0010
,
0002
0000
0000
0000
,
0103
0000
0000
1001
0000
0000
0000
1001
,
0000
0000
0000
1001
0000
0000
0000
0000
,
0010
0000
0000
1001
0000
0000
0000
0100
,
0000
0010
0000
0100
0000
0000
0000
0000
,
1001
0000
0001
0000
,
1000
0000
0001
0000
,
1000
0001
0010
0100
,
2000
0001
0001
3001
,
1001
0000
0000
0000
;

//---------------dance-single - ----------------
#NOTEDATA:;
#CHARTNAME:;
#STEPSTYPE:dance-single;
#DESCRIPTION:;
#CHARTSTYLE:;
#DIFFICULTY:Beginner;
#METER:2;
#RADARVALUES:0.118449,0.178834,0.081288,0.097546,0.000000,102.000000,92.000000,10.000000,12.000000,0.000000,0.000000,0.000000,0.000000,0.000000,0.118449,0.178834,0.081288,0.097546,0.000000,102.000000,92.000000,10.000000,12.000000,0.000000,0.000000,0.000000,0.000000,0.000000;
#CREDIT:;
#OFFSET:-0.037097;
#BPMS:0.000000=177.000000
;
#STOPS:;
#DELAYS:;
#WARPS:;
#TIMESIGNATURES:0.000000=4=4
;
#TICKCOUNTS:0.000000=4
;
#COMBOS:0.000000=1
;
#SPEEDS:0.000000=1.000000=0.000000=0
;
#SCROLLS:0.000000=1.000000
;
#FAKES:;
#LABELS:0.000000=Song Start
,192.000000=Woah we're halfway there
,192.500000=Woah oh livin' on a prayer
;
#NOTES:
// measure 0
0000
0000
0000
0000
,  // measure 1
0000
0000
0000
0000
,  // measure 2
0000
0000
0000
0000
,  // measure 3
0000
0000
0000
0000
,  // measure 4
0000
0000
0000
0000
,  // measure 5
0000
0000
0000
0000
,  // measure 6
0000
0000
0000
0000
,  // measure 7
0000
0000
0000
0000
,  // measure 8
0001
0000
0000
0000
,  // measure 9
0001
0000
0000
0000
,  // measure 10
1000
0000
0000
0000
,  // measure 11
1000
0000
0000
0000
,  // measure 12
0010
0000
0000
0000
,  // measure 13
0100
0000
0000
0000
,  // measure 14
0001
0000
1000
0000
,  // measure 15
0001
0000
0000
0000
,  // measure 16
0002
0000
0003
0000
,  // measure 17
0010
0000
0100
0000
,  // measure 18
0020
0000
0030
0000
,  // measure 19
0001
0000
0000
0000
,  // measure 20
2000
0000
3000
0000
,  // measure 21
0010
0000
0100
0000
,  // measure 22
0020
0000
0030
0000
,  // measure 23
0010
0000
0000
0000
,  // measure 24
2000
0000
3000
0000
,  // measure 25
0100
0000
0010
0000
,  // measure 26
0200
0000
0300
0000
,  // measure 27
1000
0000
0000
0000
,  // measure 28
1001
0000
0000
0000
,  // measure 29
0000
0000
0000
0000
,  // measure 30
0001
0000
1000
0000
,  // measure 31
0001
0000
0000
0000
,  // measure 32
1000
0000
0000
0000
,  // measure 33
0010
0000
1000
0000
,  // measure 34
0100
0000
0000
0000
,  // measure 35
0010
0000
0000
0000
,  // measure 36
0001
0000
0000
0000
,  // measure 37
0010
0000
0001
0000
,  // measure 38
0100
0000
0000
0000
,  // measure 39
0020
0000
0030
0000
,  // measure 40
1000
0000
0000
0000
,  // measure 41
0100
0000
1000
0000
,  // measure 42
0010
0000
0000
0000
,  // measure 43
0100
0000
0000
0000
,  // measure 44
0001
0000
0000
0000
,  // measure 45
0100
0000
0001
0000
,  // measure 46
0010
0000
0000
0000
,  // measure 47
0100
0000
0000
0000
,  // measure 48
1001
0000
0000
0000
,  // measure 49
0000
0000
0000
0000
,  // measure 50
0001
0000
0000
0000
,  // measure 51
0000
0000
0000
0000
,  // measure 52
1001
0000
0000
0000
,  // measure 53
0000
0000
0000
0000
,  // measure 54
1000
0000
0000
0000
,  // measure 55
0000
0000
0000
0000
,  // measure 56
1001
0000
0000
0000
,  // measure 57
0001
0000
0000
0000
,  // measure 58
1001
0000
0000
0000
,  // measure 59
1000
0000
0000
0000
,  // measure 60
1001
0000
0000
0000
,  // measure 61
1000
0000
0000
0000
,  // measure 62
0001
0000
1000
0000
,  // measure 63
0001
0000
0000
0000
,  // measure 64
1001
0000
0000
0000
,  // measure 65
0000
0000
0000
0000
,  // measure 66
2000
0000
3000
0000
,  // measure 67
0001
0000
0000
0000
,  // measure 68
2000
0000
3000
0000
,  // measure 69
0010
0000
0100
0000
,  // measure 70
0002
0000
0003
0000
,  // measure 71
0010
0000
0000
0000
,  // measure 72
0002
0000
0003
0000
,  // measure 73
0100
0000
0010
0000
,  // measure 74
2000
0000
3000
0000
,  // measure 75
0001
0000
0000
0000
,  // measure 76
1001
0000
0000
0000
,  // measure 77
0100
0000
0000
0000
,  // measure 78
0010
0000
0000
0000
,  // measure 79
1001
0000
0000
0000
,  // measure 80
0001
0000
0001
0000
,  // measure 81
0001
0000
0001
0000
,  // measure 82
1000
0000
1000
0000
,  // measure 83
1000
0000
1000
0000
,  // measure 84
0100
0000
0000
0000
,  // measure 85
0010
0000
0000
0000
,  // measure 86
0001
0000
1000
0000
,  // measure 87
0001
0000
0000
0000
,  // measure 88
1001
0000
0000
0000
;
