#VERSION:0.83;
#TITLE:Standing Stone;
#SUBTITLE:;
#ARTIST:XephitE;
#TITLETRANSLIT:;
#SUBTITLETRANSLIT:;
#ARTISTTRANSLIT:;
#GENRE:Harvest;
#CREDIT:;
#MUSIC:Standing Stone.mp3;
#BANNER:Standing Stone-bn.png;
#BACKGROUND:Standing Stone-bg.png;
#CDTITLE:cdtitle.png;
#SAMPLESTART:58.190;
#SAMPLELENGTH:15.000;
#SELECTABLE:YES;
#OFFSET:-0.035;
#BPMS:0.000=132.000;
#STOPS:;
#SPEEDS:0.000=1.000=0.000=0;
#SCROLLS:0.000=1.000;
#TICKCOUNTS:0.000=4;
#TIMESIGNATURES:0.000=4=4;
#LABELS:0.000=Song Start;
#COMBOS:0.000=1;
#ORIGIN:;
#PREVIEWVID:;
#JACKET:Standing Stone-jacket.png;
#CDIMAGE:;
#DISCIMAGE:;
#BGCHANGES:;
#FGCHANGES:;

//--------------- dance-single - ----------------
#NOTEDATA:;
#STEPSTYPE:dance-single;
#DESCRIPTION:;
#DIFFICULTY:Beginner;
#METER:2;
#RADARVALUES:0,0,0,0,0;
#NOTES:
0000
0000
0000
0000
,
0000
0000
0000
0000
,
0000
0000
0000
0000
,
0000
0000
0000
0000
,
0000
0000
0000
0000
,
0000
0000
0000
0000
,
0000
0000
0000
0000
,
0000
0000
0000
0000
,
1000
0000
0000
0000
,
0001
0000
0000
0000
,
1000
0000
0000
0000
,
0001
0000
0000
0000
,
0100
0000
0000
0000
,
0010
0000
0000
0000
,
0100
0000
0000
0000
,
0010
0000
0000
0000
,
1000
0000
0000
0000
,
0001
0000
0000
0000
,
0100
0000
0000
0000
,
0010
0000
0000
0000
,
1000
0000
0000
0000
,
0010
0000
0000
0000
,
0100
0000
0000
0000
,
0010
0000
0000
0000
,
1000
0000
0000
0000
,
0001
0000
0000
0000
,
0010
0000
0000
0000
,
0100
0000
0000
0000
,
1000
0000
0000
0000
,
0010
0000
0000
0000
,
0100
0000
0000
0000
,
0001
0000
0000
0000
,
0010
0000
0000
0000
,
0100
0000
1000
0000
,
0001
0000
0000
0000
,
1000
0000
0010
0000
,
1000
0000
0000
0000
,
0100
0000
0010
0000
,
0100
0000
0000
0000
,
1000
0000
0001
0000
,
1000
0000
0000
0000
,
0001
0000
0000
0000
,
0010
0000
0000
0000
,
0100
0000
0000
0000
,
1000
0000
0000
0000
,
0001
0000
0000
0000
,
0100
0000
0000
0000
,
0010
0000
0000
0000
,
1000
0000
0000
0001
,
0100
0000
0001
0100
,
0001
0000
0000
0010
,
0100
0000
0110
0000
,
1000
0000
0000
0001
,
1000
0000
0100
1000
,
0100
0000
0000
0010
,
0001
0000
1001
0000
,
0100
0000
0000
0010
,
0100
0000
0001
1000
,
0001
0000
0000
0100
,
0001
0000
0101
0001
,
0001
0000
0000
1000
,
0001
0000
1000
0001
,
1000
1000
0001
0001
,
0010
0010
0100
0100
;

//--------------- dance-single - ----------------
#NOTEDATA:;
#STEPSTYPE:dance-single;
#DESCRIPTION:;
#DIFFICULTY:Easy;
#METER:5;
#RADARVALUES:0,0,0,0,0;
#NOTES:
0000
0000
0000
0000
,
0000
0000
0000
0000
,
0000
0000
0000
0000
,
0000
0000
0000
0000
,
0000
0000
0000
0000
,
0000
0000
0000
0000
,
0000
0000
0000
0000
,
0000
0000
0000
0000
,
1000
0000
0000
0000
,
0001
0000
0000
0000
,
0010
0000
0000
0000
,
0100
0000
0000
0000
,
1000
0000
0000
0000
0000
0001
0001
0000
,
1000
0000
0000
0000
0000
0010
0010
0000
,
0100
0000
0000
0000
0000
0001
0001
0000
,
1000
0000
0000
0000
0000
0100
0100
0000
,
2000
0000
0000
0000
0000
0001
3001
0000
,
1000
0000
0000
0000
0000
0001
0001
0000
,
0200
0000
0000
0000
0000
0001
0301
0000
,
0100
0000
0000
0000
0000
0001
0001
0000
,
0020
0000
0000
0000
0000
0001
0031
0000
,
0010
0000
0000
0000
0000
0001
0001
0000
,
2000
0000
0000
0000
0000
0001
3001
0000
,
1000
0000
0000
0000
0000
0001
0001
0000
,
1000
0001
1000
0100
,
1000
0001
1000
0100
,
1000
0010
1000
0100
,
1000
0010
1000
0100
,
1000
0010
1000
0001
,
1000
0010
1000
0001
,
1000
0100
1000
0001
,
1000
0100
1000
0001
,
1000
0000
0001
0000
0000
0000
0000
0010
,
0010
0000
0100
0100
,
1000
0000
0001
0000
0000
0000
0000
1000
,
1000
0000
0010
0010
,
0100
0000
0010
0000
0000
0000
0000
0100
,
0100
0000
0001
0001
,
1000
0000
0001
0000
0000
0000
0000
0010
,
0010
0000
0100
0100
,
1000
0001
0000
1000
,
0001
1000
0100
0010
,
0001
1000
0000
0001
,
0100
0001
0100
0010
,
1000
0001
0000
0100
,
0010
1000
0010
0100
,
0001
0010
0000
0100
,
1000
0001
1000
0100
,
0010
0000
0000
0001
,
1000
0001
1000
0100
,
1000
0001
0000
0100
,
0010
0000
1001
0000
,
1000
0001
0000
0100
,
0010
1000
0001
0100
,
0001
1000
0000
0010
,
0100
0000
1001
0000
,
1000
0001
1000
0001
,
0100
0010
0100
0010
,
1000
0100
1000
0100
,
1000
0010
1001
0100
,
0001
0010
0001
0010
,
0001
0100
0001
0100
,
0010
0100
0001
1000
,
0110
1001
0110
1001
;

//--------------- dance-single - ----------------
#NOTEDATA:;
#STEPSTYPE:dance-single;
#DESCRIPTION:;
#DIFFICULTY:Medium;
#METER:7;
#RADARVALUES:0,0,0,0,0;
#NOTES:
0000
0000
0000
0000
,
0000
0000
0000
0000
,
0000
0000
0000
0000
,
0000
0000
0000
0000
,
0000
0000
0000
0000
,
0000
0000
0000
0000
,
0000
0000
0000
0000
,
0000
0000
0000
0000
,
1000
0000
0000
0000
0000
0100
0010
0000
,
0001
0000
0000
0000
0000
0100
0010
0000
,
1000
0000
0000
0000
0000
0001
1000
0000
,
0010
0000
0000
0000
0000
0100
0001
0000
,
0010
0000
0000
0000
0000
0100
1000
0000
,
0001
0000
0000
0000
0000
1000
0100
0000
,
1000
0000
0000
0000
0000
0001
0100
0000
,
0010
0000
0000
0000
0000
0100
0010
0000
,
1000
0000
0000
0010
0000
0000
0000
0000
0000
0000
1000
0000
0010
0000
0000
0000
,
0100
0000
0000
0001
0000
0000
0000
0000
0000
0000
0100
0000
0001
0000
0000
0000
,
0010
0000
0000
0100
0000
0000
0000
0000
0000
0000
0010
0000
0100
0000
0000
0000
,
1000
0000
0000
0001
0000
0000
0000
0000
0000
0000
1000
0000
0001
0000
0000
0000
,
0100
0000
0000
0001
0000
0000
0000
0000
0000
0000
0100
0000
0001
0000
0000
0000
,
0010
0000
0000
0100
0000
0000
0000
0000
0000
0000
0010
0000
0100
0000
0000
0000
,
1000
0000
0000
0100
0000
0000
0000
0000
0000
0000
1000
0000
0100
0000
0000
0000
,
1000
0000
0000
0001
0000
0000
0000
0000
0000
0000
1000
0000
0001
0000
0000
0000
,
0100
0010
0100
0000
0001
1000
0001
0000
,
1000
0010
1000
0000
0010
0100
0010
0000
,
1000
0001
1000
0000
0001
0010
0001
0000
,
0010
0100
0010
0000
0001
1000
0001
0000
,
1000
0010
1000
0000
0001
1000
0001
0000
,
0100
0010
0100
0000
0001
0010
0001
0000
,
1000
0100
1000
0000
0001
0100
0001
0000
,
0010
0100
0010
0000
0001
1000
0001
0000
,
1000
1000
0001
0000
0000
0000
0000
0100
,
0010
0100
0000
0001
1000
0001
0000
0000
,
0010
0010
0100
0000
0000
0000
0000
1000
,
0010
1000
0000
0001
0100
0001
0000
0000
,
0010
0010
0001
0000
0000
0000
0000
1000
,
0100
1000
0000
0010
1000
0010
0000
0000
,
1000
1000
0001
0000
0000
0000
0000
0100
,
0010
0100
0000
0001
1000
0001
0000
0000
,
1000
0000
0000
0000
0010
1000
0000
0000
0000
0000
0000
0000
0001
0000
0000
1000
,
0001
0000
0000
0000
0100
0000
0000
0001
0100
0000
0000
0000
0010
0000
0000
0000
,
1000
0000
0000
0000
0001
1000
0000
0000
0000
0000
0000
0000
1000
0000
0000
0100
,
1000
0000
0000
0000
0001
0000
0000
0010
0001
0000
0000
0000
1000
0000
0000
0000
,
0001
0000
0000
0000
0100
0001
0000
0000
0000
0000
0000
0000
1000
0000
0000
0010
,
1000
0000
0000
0000
0001
0000
0000
0010
0001
0000
0000
0000
1000
0000
0000
0000
,
0010
0000
0000
0000
0100
0010
0000
0000
0000
0000
0000
0000
1000
0000
0000
0010
,
1000
0000
0000
0000
0001
0000
0000
0010
0001
0000
0000
0000
1000
0000
0000
0000
,
0001
0100
0001
0010
0001
0000
0000
0000
,
1000
0010
1000
0100
1000
0000
0000
0000
,
0010
0100
0001
0100
0010
0000
0000
0000
,
0100
0010
0100
0000
0101
0000
0000
0000
,
1000
0010
0100
0001
1000
0000
0000
0000
,
0001
0010
0001
0100
0001
0000
0000
0000
,
1000
0010
1000
0001
1000
0000
0000
0000
,
0010
0100
0010
0000
1010
0000
0000
0000
,
1000
0001
1000
0100
1000
0000
0001
0000
,
0100
0010
0100
0001
0100
0000
0010
0000
,
1000
0001
0100
0001
1000
0000
0010
0000
,
1000
0010
1000
0000
1100
0000
0000
0000
,
0001
0100
0001
1000
0001
0000
0100
0000
,
0010
1000
0010
0100
0010
0000
1000
0000
,
0001
1000
0001
0000
0100
0010
0100
0000
,
0011
1100
1001
1010
;

//--------------- dance-single - ----------------
#NOTEDATA:;
#STEPSTYPE:dance-single;
#DESCRIPTION:;
#DIFFICULTY:Hard;
#METER:12;
#RADARVALUES:0,0,0,0,0;
#NOTES:
0000
0000
0000
0000
,
0000
0000
0000
0000
,
0000
0000
0000
0000
,
0000
0000
0000
0000
,
0000
0000
0000
0000
,
0000
0000
0000
0000
,
0000
0000
0000
0000
,
0000
0000
0000
0000
,
1000
0000
0000
0001
0000
0100
0000
0000
0000
0000
0000
0000
0000
0000
0000
0000
,
0001
0000
0000
1000
0000
0010
0000
0000
0000
0000
0000
0000
0000
0000
0000
0000
,
1000
0000
0000
0100
0000
0010
0000
0000
0000
0000
0000
0000
0000
0000
0000
0000
,
0001
0000
0000
0010
0000
0100
0000
0000
0000
0000
0000
0000
0000
0000
0000
0000
,
1000
0000
0000
0001
0000
1000
0000
0000
0000
0000
0010
0000
0100
0000
0000
0000
,
0001
0000
0000
0010
0000
0001
0000
0000
0000
0000
0100
0000
0010
0000
0000
0000
,
1000
0000
0000
0010
0000
1000
0000
0000
0000
0000
0010
0000
0100
0000
0000
0000
,
0001
0000
0000
0010
0000
0100
0000
0000
0000
0000
1000
0000
0001
0000
0000
0000
,
2000
0000
0000
0001
0000
3010
0000
0000
0000
0100
0010
0000
0100
0000
0000
0000
,
0001
0000
0000
1000
0000
0001
0000
0000
0000
0100
0010
0000
0100
0000
0000
0000
,
0020
0000
0000
1000
0000
0130
0000
0000
0000
0001
0010
0000
0100
0000
0000
0000
,
1000
0000
0000
0100
0000
1000
0000
0000
0000
0100
0010
0000
0100
0000
0000
0000
,
2000
0000
0000
0001
0000
3010
0000
0000
0000
0100
0001
0000
0010
0000
0000
0000
,
0100
0000
0000
1000
0000
0100
0000
0000
0000
1000
0001
0000
1000
0000
0000
0000
,
0020
0000
0000
0100
0000
1030
0000
0000
0000
0100
0010
0000
0100
0000
0000
0000
,
1000
0000
0000
0001
0000
0010
0000
0000
0000
0100
0010
0000
0100
0000
0000
0000
,
1000
0000
0100
0000
0010
0000
0001
0000
0010
0100
0010
0000
0100
0000
0010
0000
,
0001
0000
0100
0000
0010
0000
1000
0000
0100
0010
0100
0000
1000
0000
0010
0000
,
0100
0000
0001
0000
0010
0000
0100
0000
1000
0010
1000
0000
0010
0000
0100
0000
,
1000
0000
0100
0000
0010
0000
0100
0000
0001
0010
0001
0000
0100
0000
0010
0000
,
1000
0000
0100
0000
0010
0000
0001
0000
0010
0100
0010
0000
0100
0000
1000
0000
,
0001
0000
0100
0000
0010
0000
1000
0000
0100
0010
0100
0000
1000
0000
0001
0000
,
0100
0000
0010
0000
1000
0000
0100
0000
0010
0001
0010
0000
0100
0000
1000
0000
,
0010
0000
0100
0000
0001
0000
0010
0000
0100
1000
0100
0000
0010
0000
0001
0000
,
1000
0000
0001
0100
0010
0000
1000
0000
0000
0100
0010
0000
0100
0000
0000
0000
,
1000
0000
0001
0010
0000
0100
0000
0000
1000
0000
0010
0000
0100
0000
0001
0000
,
1000
0000
0001
0100
0010
0000
0100
0000
0000
0001
0100
0000
0010
0000
1000
0000
,
0100
0000
0010
0001
0000
0100
0000
0000
0001
0000
0010
0000
1000
0000
0010
0000
,
0001
0000
1000
0010
1000
0000
0001
0000
0000
0010
0100
0000
0010
0000
0100
0000
,
1000
0000
0010
0100
0000
0010
0000
0000
1000
0000
0001
0000
0100
0000
0010
0000
,
1000
0000
0001
0010
0100
0000
1000
0000
0001
0100
0010
0000
1000
0000
0000
0000
,
0100
0000
0010
0001
0000
1000
0000
0000
0010
0000
0100
0000
0001
0000
0100
1000
,
0100
0000
0000
0000
0001
0010
0000
1000
0100
1000
0000
0000
0010
0001
0000
0100
,
1000
0100
0000
0000
0001
0010
0000
1000
0100
1000
0000
0000
0010
0001
0000
0100
,
1000
0100
0000
0000
0001
0010
0000
0100
1000
0010
0000
0000
1000
0100
0000
0001
,
0100
0010
0000
0000
0001
0100
0000
0010
1000
0100
0000
0000
0010
0100
0000
0010
,
0001
1000
0000
0000
0001
0010
0000
1000
0010
1000
0000
0000
0010
0001
0000
0100
,
1000
0100
0000
0000
0001
0010
0000
1000
0010
1000
0000
0000
0010
0001
0000
1000
,
0100
0010
0000
0000
0001
0100
0000
0010
0100
0001
0000
0000
1000
0010
0000
1000
,
0100
1000
0000
0000
0100
0010
0000
0001
0010
0100
0000
0000
0010
0001
0000
1000
,
0001
0000
0100
0000
0010
0000
1000
0001
0000
0000
1000
0010
1000
0000
0000
0000
,
0001
0000
0100
0010
0100
0000
0010
0000
1000
0000
1000
0000
0000
0000
0000
0000
,
0001
0000
0100
0000
0010
0001
0010
0000
0100
0000
0010
1000
0010
0000
1000
0000
,
0001
0000
0101
0000
0100
0000
0010
0000
0200
0000
0000
0000
0310
0000
1000
0010
,
1000
0000
0100
0000
0010
0000
0001
0010
0000
0000
0100
1000
0100
0000
0000
0000
,
1000
0000
0001
0100
0001
0000
0010
0000
1000
0000
0010
0000
0001
0000
0000
0000
,
1000
0000
0001
0000
0010
0000
0100
0001
0000
0000
0100
1000
0100
0000
0000
0000
,
1000
0000
0011
0000
0100
0000
0010
0000
0200
0000
0000
0000
0310
0000
1000
0010
,
1000
0001
0100
0010
1000
0100
0010
0001
,
0100
0010
1000
0001
0010
0001
1000
0010
,
0100
0010
1000
0100
0010
0001
0010
0100
,
1000
0000
0011
0000
0100
0000
0010
0000
0200
0000
0000
0000
0310
0000
1000
0001
,
1000
0100
1000
0100
0001
0100
0001
0100
,
1000
0010
0001
0010
0001
0010
1000
0001
,
0100
0010
0001
0010
1000
0100
0001
0100
,
1010
0011
1100
0101
;

//--------------- dance-single - ----------------
#NOTEDATA:;
#STEPSTYPE:dance-single;
#DESCRIPTION:;
#DIFFICULTY:Challenge;
#METER:14;
#RADARVALUES:0.602411,0.676052,0.025352,0.016901,0.845066,499,496,3,2,4,0,0,0,0,0.602411,0.676052,0.025352,0.016901,0.845066,499,496,3,2,4,0,0,0,0;
#CHARTNAME:;
#CHARTSTYLE:;
#CREDIT:;
#NOTES:
0000
0000
0000
0000
,
0000
0000
0000
0000
,
0000
0000
0000
0000
,
0000
0000
0000
0000
,
0000
0000
0000
0000
,
0000
0000
0000
0000
,
0000
0000
0000
0000
,
0000
0000
0000
0000
,
1000
0000
0000
0001
0000
0100
0000
0000
0000
0000
MMMM
0000
0000
0000
0000
0000
,
0001
0000
0000
1000
0000
0010
0000
0000
0000
0000
MMMM
0000
0000
0000
0000
0000
,
1000
0000
0000
0100
0000
0010
0000
0000
0000
0000
MMMM
0000
0000
0000
0000
0000
,
0001
0000
0000
0010
0000
0100
0000
0000
0000
0000
MMMM
0000
0000
0000
0000
0000
,
1000
0000
0000
0001
0000
0100
0000
0010
0000
0000
0100
0000
0001
0000
MMMM
0000
,
1000
0000
0000
0010
0000
1000
0000
0001
0000
0000
0100
0000
0010
0000
MMMM
0000
,
1000
0000
0000
0001
0000
0010
0000
0100
0000
0000
1000
0000
0010
0000
MMMM
0000
,
1000
0000
0000
0100
0000
0010
0000
0001
0000
0000
1000
0000
0001
0000
MMMM
0000
,
0100
0000
0000
0001
0000
1000
0000
0010
0000
1000
0001
0000
0100
0000
0000
0000
,
0001
0000
0000
1000
0000
0010
0000
1000
0000
0001
0100
0000
0010
0000
0000
0000
,
1000
0000
0000
0100
0000
0010
0000
0100
0000
1000
0001
0000
0010
0000
0000
0000
,
0001
0000
0000
0010
0000
0100
0000
1000
0000
0001
1000
0000
0100
0000
0000
0000
,
1000
0000
0000
0001
0000
0100
0000
0010
0000
0100
0001
0000
1000
0000
0000
0000
,
0001
0000
0000
0100
0000
0010
0000
0100
0000
0001
1000
0000
0010
0000
0000
0000
,
1000
0000
0000
0100
0000
0010
0000
0001
0000
0010
0100
0000
1000
0000
0000
0000
,
0001
0000
0000
0010
0000
0100
0000
1000
0000
0100
0010
0000
0001
0000
0000
0000
,
1000
0000
0001
0100
0000
0010
0100
0001
0000
1000
0001
0100
0001
0000
0100
0010
,
1000
0000
0010
0100
0000
0001
0100
0010
0000
0100
0010
1000
0010
0000
1000
0010
,
0100
0000
0010
1000
0000
0100
1000
0010
0000
1000
0001
0100
0001
0000
1000
0001
,
1000
0000
0100
0010
0000
0001
0010
0100
0000
1000
0010
1000
0100
0000
0010
0100
,
1000
0000
0010
1000
0000
0100
1000
0010
0000
0100
0001
0100
0010
0000
1000
0001
,
1000
0000
0010
0100
0000
0010
1000
0001
0000
0100
0001
0100
0010
0000
1000
0001
,
1000
0000
0001
0100
0000
0010
0100
0001
0000
0010
0100
0010
0100
0000
1000
0100
,
1000
0000
0001
0010
0000
0100
1000
0001
0000
0010
0001
1000
0001
0000
0010
0001
,
1000
0000
0001
1000
0010
0000
0100
0000
0000
0001
1000
0100
1000
0000
0100
0000
,
0010
0000
0001
1000
0001
0000
0100
0000
0001
0000
0010
0000
1000
0000
0010
0000
,
0001
0000
1000
0010
0100
0000
0010
0000
0000
1000
0001
1000
0010
0000
0100
0000
,
0010
1000
0010
0001
0010
1000
MMMM
1000
,
0001
0000
1000
0100
0010
0000
0001
0000
0000
1000
0010
1000
0010
0000
1000
0000
,
0100
0000
0010
0001
0010
0000
0100
0000
1000
0000
0010
0000
0001
0000
0010
0000
,
1000
0000
0001
0010
0100
0000
1000
0000
0000
0001
0010
0001
0100
0000
0010
0000
,
1000
0000
0001
0000
0010
0000
1000
0000
0010
0000
0001
0000
MMMM
0000
0001
0010
,
0100
1000
0000
0000
0001
0010
0000
1000
0100
0010
0000
0000
0001
0010
0000
1000
,
0100
0010
0000
0000
0001
0010
0000
1000
0100
0010
0000
0000
0001
0010
0000
1000
,
0100
0000
0000
0000
0000
0000
0000
0000
0000
0000
0000
0000
0010
0000
0000
0000
0000
0000
0000
0000
0000
0000
0000
0000
0000
0000
0000
0000
0000
0000
0000
0000
0000
0000
0000
0000
0000
0000
0000
0000
0000
0000
0000
0000
0000
0000
0000
0000
0100
0000
0000
0000
0000
0000
0000
0000
0000
0000
0000
0000
1000
0000
0000
0000
0000
0000
0000
0000
0000
0000
0000
0000
0000
0000
0000
0000
0000
0000
0000
0000
0000
0000
0000
0000
0001
0000
0000
0000
0000
0000
0000
0000
0000
0000
0000
0000
0100
0000
0000
0000
0000
0000
0000
0000
0000
0000
0000
0000
0010
0000
0000
0000
0000
0000
0000
0000
0000
0000
0000
0000
0000
0000
0000
0000
0000
MMMM
0000
0000
0000
0000
0000
0000
0000
0000
0000
0000
0000
0000
0000
0000
0000
0000
0000
0000
1000
0000
0000
0000
0000
0000
0000
0000
0000
0000
0000
0000
0100
0000
0000
0000
0000
0000
0000
0000
0000
0000
0000
0000
0000
0000
0000
0000
0000
0000
0000
0000
0000
0000
0000
0000
0001
0000
0000
0000
0000
0000
0000
0000
0000
0000
0000
0000
,
0100
0000
0000
0000
0000
0000
0000
0000
0000
0000
0000
0000
0010
0000
0000
0000
0000
0000
0000
0000
0000
0000
0000
0000
0000
0000
0000
0000
0000
MMMM
0000
0000
0000
0000
0000
0000
0000
0000
0000
0000
0000
0000
0000
0000
0000
0000
0000
0000
0001
0000
0000
0000
0000
0000
0000
0000
0000
0000
0000
0000
0100
0000
0000
0000
0000
0000
0000
0000
0000
0000
0000
0000
0000
0000
0000
0000
0000
0000
0000
0000
0000
0000
0000
0000
0010
0000
0000
0000
0000
0000
0000
0000
0000
0000
0000
0000
1000
0000
0000
0000
0000
0000
0000
0000
0000
0000
0000
0000
0100
0000
0000
0000
0000
0000
0000
0000
0000
0000
0000
0000
0000
0000
0000
0000
0000
MMMM
0000
0000
0000
0000
0000
0000
0000
0000
0000
0000
0000
0000
0000
0000
0000
0000
0000
0000
0010
0000
0000
0000
0000
0000
0000
0000
0000
0000
0000
0000
0001
0000
0000
0000
0000
0000
0000
0000
0000
0000
0000
0000
0000
0000
0000
0000
0000
0000
0000
0000
0000
0000
0000
0000
1000
0000
0000
0000
0000
0000
0000
0000
0000
0000
0000
0000
,
0100
0010
0000
0000
0001
0010
0000
1000
0100
0010
0000
0000
0001
0010
0000
1000
,
0100
0010
0000
0000
0001
0010
0000
1000
0100
0010
0000
0000
0001
0010
0000
1000
,
0100
0000
0000
0000
0000
0000
0000
0000
0000
0000
0000
0000
0010
0000
0000
0000
0000
0000
0000
0000
0000
0000
0000
0000
0000
0000
0000
0000
0000
0000
0000
0000
0000
0000
0000
0000
0000
0000
0000
0000
0000
0000
0000
0000
0000
0000
0000
0000
0100
0000
0000
0000
0000
0000
0000
0000
0000
0000
0000
0000
1000
0000
0000
0000
0000
0000
0000
0000
0000
0000
0000
0000
0000
0000
0000
0000
0000
0000
0000
0000
0000
0000
0000
0000
0001
0000
0000
0000
0000
0000
0000
0000
0000
0000
0000
0000
0100
0000
0000
0000
0000
0000
0000
0000
0000
0000
0000
0000
0010
0000
0000
0000
0000
0000
0000
0000
0000
0000
0000
0000
0000
0000
0000
0000
0000
MMMM
0000
0000
0000
0000
0000
0000
0000
0000
0000
0000
0000
0000
0000
0000
0000
0000
0000
0000
1000
0000
0000
0000
0000
0000
0000
0000
0000
0000
0000
0000
0010
0000
0000
0000
0000
0000
0000
0000
0000
0000
0000
0000
0000
0000
0000
0000
0000
0000
0000
0000
0000
0000
0000
0000
0100
0000
0000
0000
0000
0000
0000
0000
0000
0000
0000
0000
,
0001
0000
0000
0000
0000
0000
0000
0000
0000
0000
0000
0000
1000
0000
0000
0000
0000
0000
0000
0000
0000
0000
0000
0000
0000
0000
0000
0000
0000
MMMM
0000
0000
0000
0000
0000
0000
0000
0000
0000
0000
0000
0000
0000
0000
0000
0000
0000
0000
0100
0000
0000
0000
0000
0000
0000
0000
0000
0000
0000
0000
0010
0000
0000
0000
0000
0000
0000
0000
0000
0000
0000
0000
0000
0000
0000
0000
0000
0000
0000
0000
0000
0000
0000
0000
0001
0000
0000
0000
0000
0000
0000
0000
0000
0000
0000
0000
0010
0000
0000
0000
0000
0000
0000
0000
0000
0000
0000
0000
0100
0000
0000
0000
0000
0000
0000
0000
0000
0000
0000
0000
0000
0000
0000
0000
0000
MMMM
0000
0000
0000
0000
0000
0000
0000
0000
0000
0000
0000
0000
0000
0000
0000
0000
0000
0000
1000
0000
0000
0000
0000
0000
0000
0000
0000
0000
0000
0000
0010
0000
0000
0000
0000
0000
0000
0000
0000
0000
0000
0000
0100
0000
0000
0000
0000
0000
0000
0000
0000
0000
0000
0000
0001
0000
0000
0000
0000
0000
0000
0000
0000
0000
0000
0000
,
0100
0000
0010
0000
1000
0000
0100
0010
0000
0001
1000
0010
1000
0000
MMMM
0000
,
0001
0000
0100
1000
0100
0000
0001
0000
1000
0100
0010
0000
0001
0000
0010
0100
,
1000
0000
0001
0100
0001
0000
1000
0010
0000
0100
0010
0100
0010
1000
0000
0000
,
0001
0000
0010
0100
0010
0000
0001
0100
0020
0000
0130
0000
0010
1000
0100
0010
,
0001
0000
0000
0000
0000
0000
0000
0000
0000
0000
0000
0000
1000
0000
0000
0000
0000
0000
0000
0000
0000
0000
0000
0000
0000
0000
0000
0000
0000
0000
0000
0000
0000
0000
0000
0000
0000
0000
0000
0000
0000
0000
0000
0000
0000
0000
0000
0000
0001
0000
0000
0000
0000
0000
0000
0000
0000
0000
0000
0000
0010
0000
0000
0000
0000
0000
0000
0000
0000
0000
0000
0000
0000
0000
0000
0000
0000
0000
0000
0000
0000
0000
0000
0000
0100
0000
0000
0000
0000
0000
0000
0000
0000
0000
0000
0000
1000
0000
0000
0000
0000
0000
0000
0000
0000
0000
0000
0000
0001
0000
0000
0000
0000
0000
0000
0000
0000
0000
0000
0000
1000
0000
0000
0000
0000
0000
0000
0000
0000
0000
0000
0000
0100
0000
0000
0000
0000
0000
0000
0000
0000
0000
0000
0000
1000
0000
0000
0000
0000
0000
0000
0000
0000
0000
0000
0000
0000
0000
0000
0000
0000
0000
0000
MMMM
0000
0000
0000
0000
0000
0000
0000
0000
0000
0000
0000
0000
0000
0000
0000
0000
0000
0000
0000
0000
0000
0000
0000
0000
0000
0000
0000
0000
,
0001
0000
0100
1000
0100
0000
0001
0000
0010
0100
1000
0000
0100
0000
0010
0001
,
0010
0000
0001
1000
0100
1000
0001
0000
1000
0010
0100
0010
1000
0000
0001
0000
,
0010
0000
0100
1000
0010
0000
1000
0100
2000
0000
3001
0000
0010
0100
1000
0001
,
1000
0000
0001
0000
1000
0010
0100
0000
0001
0000
0010
0000
1000
0000
0010
0000
,
0001
0000
1000
0010
1000
0000
0100
0000
1000
0000
0010
0000
0001
0000
0010
0000
,
1000
0000
0001
0000
0100
0010
0100
0000
1000
0000
0100
0000
0001
0000
0100
0000
,
0010
0000
1000
0100
0010
0000
0001
0000
0010
0000
0100
0000
0001
0000
0100
0000
,
1000
0000
0001
0000
0100
0010
0100
0000
0001
0000
0100
0000
1000
0000
0100
0000
,
0001
0000
1000
0100
0010
0000
0001
0000
0010
0000
1000
0000
0010
0000
0001
0000
,
1000
0010
0001
1000
0100
0001
0010
1000
,
1010
0011
1010
0011
,
MMMM
0000
0000
0000
;
