#TITLE:Sorry Voor De Overlast;
#SUBTITLE:;
#ARTIST:Snollebollekes;
#TITLETRANSLIT:;
#SUBTITLETRANSLIT:;
#ARTISTTRANSLIT:;
#GENRE:;
#CREDIT:;
#BANNER:Sorry Voor De Overlast.png;
#BACKGROUND:Sorry Voor De Overlast-bg.png;
#LYRICSPATH:Sorry Voor De Overlast.lrc;
#CDTITLE:;
#MUSIC:Sorry Voor De Overlast.ogg;
#OFFSET:-0.000868;
#SAMPLESTART:90.740181;
#SAMPLELENGTH:11.820011;
#SELECTABLE:YES;
#BPMS:0.000000=150.000000
;
#STOPS:
;
#BGCHANGES:0.000=Sorry Voor De Overlast.avi=1.000=0=0=0=StretchNoLoop====,
99999=-nosongbg-=1.000=0=0=0 // don't automatically add -songbackground-
;
#KEYSOUNDS:;
#ATTACKS:;

//---------------dance-single - ----------------
#NOTES:
     dance-single:
     :
     Hard:
     12:
     0.544313,0.568870,0.138721,0.323681,0.180337,412.000000,397.000000,15.000000,35.000000,0.000000,0.000000,0.544313,0.568870,0.138721,0.323681,0.180337,412.000000,397.000000,15.000000,35.000000,0.000000,0.000000:
0000
0000
0000
0000
,
0000
0000
0000
0000
,
0000
0000
0000
0000
,
0000
0000
0000
0000
,
1001
0110
1001
0110
,
2001
0000
3103
0010
0000
0001
0010
0001
,
1000
0010
0100
0001
0000
1000
0100
1000
,
0001
0100
0010
1000
0000
0001
0010
0100
,
2000
0002
0000
3003
,
2000
0000
0000
3010
0000
0000
0200
0000
0000
0000
0301
0000
0000
0000
1000
0000
,
0100
0000
0000
0100
0000
0000
0010
0000
0000
0000
0001
0000
0000
0000
1000
0000
,
0002
0000
0000
0103
0000
0000
0020
0000
0000
0000
1030
0000
0000
0000
0001
0000
,
0010
0000
0000
0010
0000
0000
0100
0000
0000
0000
1000
0000
0000
0000
0001
0000
,
1000
0000
0000
1000
0100
0000
0010
0000
0001
0000
0000
0000
1000
0000
0001
0000
,
0100
0000
0000
0100
0010
0000
1000
0000
0002
0000
0000
0000
0013
0000
0000
0000
,
0001
0010
1000
1000
0010
0001
1000
0000
,
0001
0000
0100
0000
1000
0000
1000
0000
0100
0000
0000
0100
0001
0000
1000
0000
,
1200
0000
0301
0100
1000
0010
2000
0000
,
3301
0000
0100
0000
1000
0000
0100
0000
0010
0000
0000
0010
1000
0000
0001
0000
,
0010
0010
0001
0100
0010
1000
0002
0000
,
1033
0000
0010
0000
0001
0000
0010
0000
0100
0000
0000
0100
0001
0000
1000
0000
,
0100
0100
0010
0100
0001
0100
1000
0100
,
0010
0010
0100
0010
0001
0010
1000
0010
,
0001
0100
0001
0000
0100
0000
0010
0000
1000
0010
1000
0000
0001
0000
0010
0000
,
0200
0000
0000
0000
1300
0000
0001
0000
1000
0000
0010
0000
0010
0000
1000
0001
,
1000
0000
0001
0010
0100
0000
1000
0010
,
0100
1000
0100
1000
0100
1000
0100
0010
,
1000
0000
0001
0010
0100
0000
1000
0010
,
0200
0302
2003
3002
,
0003
0000
0000
0000
,
0000
0000
0000
0000
1000
0100
0001
0100
,
1000
0000
0001
0100
0001
0000
1000
0100
,
0010
0000
0001
1000
0000
0001
1000
0000
0020
0000
0000
0000
0130
0000
0001
0100
,
0001
0000
1000
0100
0010
0000
0001
0100
,
0010
0001
0010
0001
0010
0001
0010
0100
,
0001
0000
1000
0100
0010
0001
1000
0001
,
0200
0000
0310
0010
1030
0001
3010
0000
,
1001
0110
2002
3003
,
1100
0011
2002
3003
,
1001
0110
2002
3003
,
0001
0010
1000
0010
0002
0000
1003
0010
,
0001
0000
0001
0010
1000
0000
0001
0010
,
0001
0000
0000
1000
0000
0000
0020
0000
0000
0000
1030
0000
3001
0000
0100
0000
,
1000
0000
1000
0100
0001
0000
1000
0100
,
1000
0000
0000
0001
0000
0000
0200
0000
0000
0000
0301
0000
0010
0000
0100
0000
,
1000
0000
0000
1000
0001
0000
0100
0000
0020
0000
0000
0000
1030
0000
0001
0000
,
0100
0000
0000
0001
0010
0000
0100
0000
2000
0000
0030
0000
3010
0000
0000
0000
,
1000
0100
0001
0001
0100
1000
0001
0000
,
1000
0000
0000
0001
0100
0000
0100
0000
0010
0000
1000
0000
0001
0000
1000
0000
,
0100
0000
0000
0100
0010
0000
0001
0000
0100
0000
0000
0100
0010
0000
1000
0000
,
0100
0000
0000
0100
0010
0000
0001
0000
0100
0000
0010
0000
1000
0000
0001
0000
,
0010
0000
0000
0010
0100
0000
1000
0000
0010
0000
0000
0010
0100
0000
0001
0000
,
0010
0000
0000
0010
0100
0000
1000
0000
0010
0000
0100
0000
0001
0000
1000
0000
,
0001
0100
0000
0000
0001
0100
0000
0000
0010
1000
0000
0000
0010
1000
0000
0000
,
0001
0010
0000
0000
0001
0010
0000
0000
0100
1000
0000
0000
0001
0000
1000
0000
,
0001
0000
0000
0001
0100
0000
0010
0000
1000
0000
0001
0000
2000
0000
0000
0000
,
3010
0000
0000
0100
0000
0000
0001
0000
1000
0000
0100
0000
0010
0000
0001
0000
,
1000
0000
0001
0100
0001
0000
0100
0000
0020
0000
0000
0000
1030
0000
0001
0000
,
0100
1000
0100
0001
2000
0000
3001
0010
,
0001
0000
1000
0100
1000
0000
0100
0000
0020
0000
0000
0000
0331
0000
1000
0000
,
0010
0001
0010
1000
0002
0000
1003
0010
,
0100
0000
0001
0100
0001
0000
1000
0000
0200
0000
0000
0000
0310
0000
0001
0000
,
1000
0010
0001
0010
0100
0001
0300
1000
,
0100
0000
1000
0001
1000
0000
0001
0000
0010
0000
0100
0000
1000
0000
0000
0000
,
0001
0100
1000
0100
0010
1000
0001
0000
;

//---------------dance-single - ----------------
#NOTES:
     dance-single:
     :
     Medium:
     8:
     0.377849,0.479049,0.194209,0.314433,0.000000,286.000000,265.000000,21.000000,34.000000,0.000000,0.000000,0.377849,0.479049,0.194209,0.314433,0.000000,286.000000,265.000000,21.000000,34.000000,0.000000,0.000000:
0000
0000
0000
0000
,
0000
0000
0000
0000
,
0000
0000
0000
0000
,
0000
0000
0000
0000
,
1000
0001
1000
0001
,
0200
0310
1000
0001
,
0020
0130
1000
0010
,
2000
3100
0020
0031
,
1000
2002
0000
3003
,
0001
0000
1000
0100
1000
0000
0001
0000
,
0100
0100
0020
0030
,
1000
0000
0001
0100
0001
0000
1000
0000
,
0001
0010
0200
0300
,
1000
0000
0100
0010
0100
0000
0010
0000
,
0001
1000
0020
0030
,
1000
1000
0001
0001
,
1000
0010
0100
0000
,
2002
0000
3003
0000
0001
0100
0001
0000
,
1000
0100
1000
0000
0001
0000
0000
0000
,
2002
0000
3003
0000
1000
0010
1000
0000
,
0001
0010
0001
0000
1000
0000
0000
0000
,
0001
0000
0010
0000
0100
1000
0001
0000
,
1000
0000
0010
0000
0100
0001
1000
0000
,
0001
0100
0001
0000
1000
0100
1000
0000
,
0002
1000
2000
3003
,
0001
0000
0000
1000
0200
0000
0300
0010
,
0002
0000
2003
0000
3020
0000
0130
0001
,
2000
0000
3000
0001
0020
0000
0030
0100
,
2000
3020
0233
0302
,
0033
3000
0000
0003
,
0000
0000
3000
0000
0001
0010
3103
1000
,
0001
0000
1000
0100
1000
0000
0001
0000
,
1000
0100
1000
0100
0010
0000
0001
1000
,
0001
1000
0010
0100
,
0001
0100
0001
0000
1000
0100
1000
0000
,
0001
0000
0010
0000
0100
0000
1000
0001
,
1000
0001
0100
0000
,
1001
1001
1001
0000
,
0110
0110
0110
0000
,
1010
0101
1001
0000
,
1000
0001
1000
0001
1000
0000
0000
0000
,
0001
0000
1000
0100
1000
0000
0001
0000
,
0010
0000
0010
0000
0100
0000
1000
0100
,
1000
0000
0001
0100
0001
0000
1000
0000
,
0010
0000
0010
0000
0100
0001
1000
0000
,
0001
0000
1000
0010
1000
0000
0001
0000
,
0010
0010
0001
0000
,
1000
0100
1000
0000
0001
0100
0001
0000
,
2000
3002
0203
0300
,
1001
0000
0001
1000
0010
0000
1000
0001
,
0020
0000
0230
0000
1300
0000
0001
1000
,
0010
0000
1000
0001
0010
0000
0001
1000
,
0020
0230
0302
1003
,
1001
1001
1100
1100
,
1001
1001
0101
0000
,
1000
0000
0001
0000
1000
0100
0010
0000
,
0001
1000
0020
0000
0030
0000
1000
0001
,
1000
0000
0001
1000
0001
0000
1000
0000
,
0100
0000
0010
0001
1000
0000
0001
0100
,
0001
0000
1000
0100
1000
0000
0001
0000
,
0010
0000
0100
1000
0001
0000
1000
0100
,
1000
0000
0001
0100
0001
0000
1000
0000
,
0001
0000
1000
0010
0100
0000
0000
0000
,
0001
0100
0001
0000
1000
0100
1000
0000
,
0001
0010
0100
1001
;

//---------------dance-single - ----------------
#NOTES:
     dance-single:
     :
     Easy:
     5:
     0.229880,0.299405,0.055488,0.110977,0.000000,174.000000,168.000000,6.000000,12.000000,0.000000,0.000000,0.229880,0.299405,0.055488,0.110977,0.000000,174.000000,168.000000,6.000000,12.000000,0.000000,0.000000:
0000
0000
0000
0000
,
0000
0000
0000
0000
,
0000
0000
0000
0000
,
0000
0000
0000
0000
,
0001
0000
1000
0000
,
0020
0030
0000
0010
,
0200
0300
0000
0100
,
0002
0003
0000
0001
,
2000
0000
3000
0000
,
0001
0000
1000
0000
,
0010
0010
0010
0000
,
1000
0000
0001
0000
,
0010
0010
0010
0000
,
0001
0000
1000
0000
,
0100
0100
0100
0000
,
1000
0100
1000
0000
,
0001
0100
0001
0000
,
2000
3000
1000
0000
,
0001
1000
0010
0010
,
0100
0000
0100
0000
,
0001
0010
0100
1000
,
0001
0000
0001
0000
,
1000
0010
0100
0001
,
1000
1000
0001
0001
,
0100
0000
0000
0000
,
0002
0003
2000
3000
,
0010
0010
0010
1000
,
0200
0300
0020
0030
,
0001
1000
0001
0000
,
0000
0000
0000
0000
,
0000
0000
0000
0000
,
1001
0000
1000
0000
,
0001
0100
0010
0000
,
1000
0000
0001
0000
,
1000
0100
0010
0000
,
0001
0000
1000
0000
,
0010
0010
0010
0000
,
1000
0001
1001
0000
,
0001
1000
1001
0000
,
1000
0001
1001
0000
,
0000
0000
0000
0000
,
1000
0100
0010
0000
,
0001
1000
0001
0000
,
0001
0100
0010
0000
,
1000
0001
1000
0000
,
0001
0010
0100
0000
,
1000
0010
0100
0000
,
0010
0010
0100
0100
,
0001
1000
0001
0000
,
1001
1000
0100
0010
,
0001
1000
0020
0030
,
1000
0001
0100
0001
,
0010
0010
0200
0300
,
1000
1000
0001
0001
,
1000
1000
0001
0000
,
1000
0010
0100
0001
,
1000
0000
0000
0000
,
0001
0001
0001
0010
,
0100
0100
0100
1000
,
0010
0010
0010
0100
,
0001
1000
0002
0003
,
1000
1000
1000
0001
,
0010
0010
0010
0000
,
0001
1000
0010
0100
,
0010
0000
0100
1001
;

//---------------dance-single - ----------------
#NOTES:
     dance-single:
     :
     Beginner:
     2:
     0.109655,0.178950,0.018496,0.000000,0.000000,83.000000,81.000000,2.000000,0.000000,0.000000,0.000000,0.109655,0.178950,0.018496,0.000000,0.000000,83.000000,81.000000,2.000000,0.000000,0.000000,0.000000:
0000
0000
0000
0000
,
0000
0000
0000
0000
,
0000
0000
0000
0000
,
0000
0000
0000
0000
,
0000
0000
0000
0000
,
1000
0000
0000
0000
,
0010
0000
0000
0000
,
0100
0000
0100
0000
,
0100
0000
0000
0000
,
0001
0000
0000
0000
,
1000
0000
0000
0000
,
0010
0000
0000
0000
,
0010
0000
0000
0000
,
1000
0000
0000
0000
,
0001
0000
0000
0000
,
0100
0000
0100
0000
,
0100
0000
0000
0000
,
0001
0000
0000
0000
,
0001
0001
0000
0000
,
1000
0000
0000
0000
,
1000
1000
0000
0000
,
0010
0000
0010
0000
,
0010
0000
0000
0000
,
0100
0000
0100
0000
,
0100
0000
0000
0000
,
0001
0000
0000
0000
,
0001
0000
0001
0000
,
0001
0000
0000
0000
,
1000
0000
0000
0000
,
0000
0000
0000
0000
,
0000
0000
0000
0000
,
1001
0000
0000
0000
,
1000
0000
1000
0000
,
1000
0000
0000
0000
,
0100
0000
0100
0000
,
0100
0000
0000
0000
,
0010
0000
0000
0000
,
0001
0001
0000
0000
,
1000
1000
0000
0000
,
0001
0001
0000
0000
,
1000
0000
0000
0000
,
0010
0000
0000
0000
,
0100
0000
0100
0000
,
0100
0000
0000
0000
,
0001
0000
0001
0000
,
0001
0000
0000
0000
,
1000
0000
0000
0000
,
0010
0000
0010
0000
,
0010
0000
0000
0000
,
1001
0000
0000
0000
,
1000
1000
1000
0000
,
1000
0000
0000
0000
,
0001
0000
0000
0000
,
0100
0000
0100
0000
,
0100
0000
0100
0000
,
0100
0000
0000
0000
,
0010
0000
0000
0000
,
1000
0000
1000
0000
,
1000
0000
0000
0000
,
0001
0000
0001
0000
,
0001
0000
0000
0000
,
0100
0000
0100
0000
,
0100
0000
0000
0000
,
0010
0000
0000
0000
,
1000
0000
0001
0000
;

//---------------dance-double - ----------------
#NOTES:
     dance-double:
     :
     Hard:
     12:
     0.540350,0.568870,0.120225,0.462402,0.175713,409.000000,396.000000,13.000000,50.000000,0.000000,0.000000,0.540350,0.568870,0.120225,0.462402,0.175713,409.000000,396.000000,13.000000,50.000000,0.000000,0.000000:
00000000
00000000
00000000
00000000
,
00000000
00000000
00000000
00000000
,
00000000
00000000
00000000
00000000
,
00000000
00000000
00000000
00000000
,
00021000
00230000
20300000
30010000
,
10020000
00000000
10030000
01000000
00000000
00100000
00010000
00100000
,
00002000
00000000
00013000
00000010
00000000
00001000
00000010
00001000
,
00000002
00000000
00000013
00000100
00000000
00001000
00000100
00001000
,
00000020
00000000
00020000
00000000
00000030
00000000
00031000
00010000
,
00001000
00000000
00000000
00100000
00000000
00000000
00010000
00000000
00000000
00000000
10030000
00000000
00000000
00000000
00010000
00000000
,
01000000
00000000
00000000
01000000
00000000
00000000
00001000
00000000
00000000
00000000
00010000
00000000
00001000
00000000
00000000
00000000
,
00010000
00000000
00000000
00000100
00000000
00000000
00001000
00000000
00000000
00000000
00003001
00000000
00000000
00000000
00001000
00000000
,
00000010
00000000
00000000
00000010
00000000
00000000
00010000
00000000
00000000
00000000
00001000
00000000
00010000
00000000
00000000
00000000
,
00001000
00000000
00000000
00001000
00100000
00000000
01000000
00000000
20000000
00000000
00000000
00000000
30310000
00000000
01000000
00000000
,
00100000
00000000
00000000
10000000
01000000
00000000
00100000
00000000
00002000
00000000
00000000
00000000
00013000
00000000
00000000
00000000
,
00001000
00000100
00000001
00000100
00001000
00010000
00002000
00000000
,
00013000
00000000
01000000
00000000
10000000
00000000
01000000
00000000
00100000
00000000
00000000
00100000
00010000
00000000
10000000
00000000
,
10200000
00000000
00310000
00100000
10000000
01000000
00200000
00000000
,
00301000
00000000
00010000
00000000
00001000
00000000
00100000
00000000
00001000
00000000
00000000
00010000
00001000
00000000
00000100
00000000
,
00000001
00000010
00000001
00000010
00000100
00010000
00000200
00000000
,
00010300
00000000
00001000
00000000
00010000
00000000
00000100
00000000
00010000
00000000
00000000
00001000
00010000
00000000
00100000
00000000
,
10000000
10000000
00100000
10000000
00010000
10000000
01000000
00010000
,
00001000
00001000
00100000
00001000
00010000
00001000
00000100
00000001
,
00001000
00000100
00001000
00000000
00000001
00000000
00000100
00000000
00000010
00000100
00000010
00000000
00001000
00000000
00000100
00000000
,
00020000
00000000
00000000
00000000
00032000
00000000
00000000
00000000
00103000
00000000
00010000
00000000
10033000
00000000
00010000
01000000
,
00020000
00000000
00130000
01000000
20000000
00000000
30100000
00010000
,
00001000
00100000
00001000
00100000
00001000
00010000
00000100
00000010
,
00000002
00000000
00000103
00000010
00002000
00000000
00003001
00000100
,
00000002
00000203
00002300
00023000
,
00030000
00000000
00000000
00000000
,
00000000
00000000
00000000
00000000
00010000
00000010
00010000
00010000
,
00000200
00000000
00010300
00001000
00020000
00000000
00031000
00000100
,
00000010
00000000
00001000
00000001
00000000
00001000
00000001
00000000
00000020
00000000
00000000
00000000
00003130
00000000
00001000
00000001
,
00002000
00000000
00003100
00000010
00000002
00000000
00000103
00001000
,
00010000
00000100
00010000
00000100
00010000
00001000
00100000
01000000
,
20000000
00000000
30100000
01000000
00010000
00100000
10030000
00100000
,
00002000
00000000
00013000
00010000
00001000
00010000
00100000
10000000
,
10010000
00011000
00002002
00003003
,
00001001
00011000
20020000
30030000
,
10010000
00011000
00002002
00003003
,
00000001
00000100
00001000
00010000
02000000
00000000
13000000
00100000
,
00010000
00000000
00010000
00100000
10000000
00000000
00010000
10000000
,
00100000
00000000
00000000
00010000
00000000
00000000
00002000
00000000
00000000
00000000
00013000
00000000
00001000
00000000
00000100
00000000
,
00000001
00000000
00000001
00000100
00001000
00000000
00000100
00000001
,
00000010
00000000
00000000
00000100
00000000
00000000
00002000
00000000
00000000
00000000
00003001
00000000
00000100
00000000
00000001
00000000
,
00001000
00000000
00000000
00000100
00010000
00000000
00001000
00000000
00200000
00000000
00000000
00000000
00301000
00000000
00010000
00000000
,
00001000
00000000
00001000
00000030
00000100
00000000
00000010
00000000
00020000
00000000
00000000
00000000
00031000
00000000
00000000
00000000
,
00010000
00100000
10000000
00100000
00010000
00001000
00020000
00000000
,
00031000
00000000
00000000
00100000
00001000
00000000
00010000
00000000
00001000
00000000
00100000
00000000
01000000
00000000
10000000
00000000
,
00100000
00000000
00000000
00100000
01000000
00000000
00010000
00000000
00100000
00000000
00000000
00100000
01000000
00000000
10000000
00000000
,
00100000
00000000
00000000
00100000
01000000
00000000
00010000
00000000
00100000
00000000
00001000
00000000
00010000
00000000
00000100
00000000
,
00000010
00000000
00000000
00000010
00000100
00000000
00001000
00000000
00000010
00000000
00000000
00000010
00000100
00000000
00000001
00000000
,
00000010
00000000
00000000
00000010
00000100
00000000
00001000
00000000
00000010
00000000
00000100
00000000
00000001
00000000
00001000
00000000
,
00000001
00000100
00000000
00000000
00000001
00000100
00000000
00000000
00000010
00001000
00000000
00000000
00000010
00001000
00000000
00000000
,
00000100
00010000
00000000
00000000
00000100
00010000
00000000
00000000
00001000
00100000
00000000
00000000
00001000
00000000
00000000
00000000
,
00100000
00000000
20010000
00000000
30100000
01000000
00002000
00000000
,
00013000
00000000
00000000
00000100
00000000
00000000
00000010
00000000
00000001
00000000
00001000
00000000
00000010
00000000
00000100
00000000
,
00000001
00000000
00001000
00000001
00001000
00000000
00000001
00000000
00000200
00000000
00000000
00000000
00000310
00000000
00001000
00000000
,
00000100
00010000
00000100
00010000
00002000
00000000
00103000
00010000
,
10000000
00000000
00010000
10000000
00010000
00000000
01000000
00000000
00200000
00000000
00000000
00000000
10300000
00000000
00010000
00000000
,
01000000
00001000
01000000
00001000
00020000
00000000
00030100
00000010
,
00000001
00000000
00001000
00000100
00001000
00000000
00000001
00000000
00000100
00000000
00000010
00000000
00001000
00000000
00000100
00000000
,
00010000
00000000
00001000
00010000
00001000
00000000
00100000
00000000
00010000
00000000
01000000
00000000
10000000
00000000
01000000
00000000
,
00010000
10000000
00010000
10000000
01000000
00010000
00002000
00000000
,
00013000
00001000
00010000
00001000
00000100
00000001
00001000
00000000
;

//---------------dance-double - ----------------
#NOTES:
     dance-double:
     :
     Medium:
     8:
     0.344820,0.449108,0.231201,0.628867,0.000000,261.000000,236.000000,25.000000,68.000000,0.000000,0.000000,0.344820,0.449108,0.231201,0.628867,0.000000,261.000000,236.000000,25.000000,68.000000,0.000000,0.000000:
00000000
00000000
00000000
00000000
,
00000000
00000000
00000000
00000000
,
00000000
00000000
00000000
00000000
,
00000000
00000000
00000000
00000000
,
00020000
00032000
00023000
00032000
,
00103000
00010000
10000000
01000000
,
00100000
00001000
00010000
00000000
,
00001000
00010000
00000100
00000010
,
00000002
00002000
00000000
00003003
,
00000001
00000000
00001000
00000100
00001000
00000000
00000001
00000000
,
00000100
00000101
00002000
00003000
,
00000100
00000000
00010000
00001000
00010000
00000000
00001000
00000000
,
00100000
00101000
00200000
00300000
,
00010000
00000000
10000000
01000000
10000000
00000000
00010000
00000000
,
01000000
01010000
20000000
30000000
,
00010000
01000000
00010000
00000000
10000000
01000000
10000000
00000000
,
01000000
00010000
00002000
00003000
,
00022000
00000000
00033000
00000000
00001000
00010000
00001000
00000000
,
00100000
00010000
00100000
00000000
00001000
00000000
00000000
00000000
,
00022000
00000000
00033000
00000000
00000010
00001000
00000010
00000000
,
00010000
00001000
00010000
00000000
00001000
00000000
00033000
00000000
,
00010000
00000000
00001000
00000000
00100000
00010000
00100000
00000000
,
00010000
00000000
10000000
00000000
00100000
01000000
00100000
00000000
,
10000000
00000000
01000000
00000000
00010000
00001000
00010000
00001000
,
00020000
00001000
00002000
00033000
,
00020200
00030300
00020200
00030300
,
00000200
00000320
00000032
00001003
,
00002002
00003003
00002002
00003003
,
00000002
00000203
00002300
00013000
,
00001000
00000000
00000000
00000000
,
00000000
00000000
00000000
00000000
00001000
00010000
01000000
00000000
,
20010000
31000000
20010000
31000000
,
10000000
00010000
10000000
00000000
00020000
00000000
01030000
00000000
,
00002000
00013000
00002000
00103000
,
00001000
00010000
00001000
00000000
00010000
00000000
00000100
00000000
,
00000020
00000031
00002000
00003001
,
00001000
00000000
00000001
00000100
00000001
00000000
00001000
00000000
,
00000002
00000203
00002300
00003000
,
00002000
00023000
02030000
03000000
,
00020000
02030000
23000000
30000000
,
00010000
10000000
00100000
01000000
00020000
00000000
00030000
00000000
,
20010000
01000000
31000000
00000000
,
10000000
00000000
01000000
00000000
00010000
00001000
00010000
00000000
,
00021000
00001000
00031000
00000000
,
00010000
00000000
00001000
00000000
00000100
00000010
00000100
00000000
,
00000210
00000010
00000310
00000000
,
00000100
00000000
00000001
00001000
00000001
00000000
00000000
00000000
,
00000001
00000000
00000010
00000000
00000100
00001000
00000100
00000000
,
00020000
00001000
00002000
00033000
,
00201000
00310000
20000000
30100000
,
02000000
00000000
03010000
10000000
02000000
00000000
03000000
00000000
,
00200000
00310000
02000000
03001000
,
00020000
00000000
00030100
00000010
00000002
00000000
00000003
00000000
,
00001100
00001100
00000101
00000101
,
00001100
00001100
00000101
00000000
,
00000001
00000000
00000100
00000000
00000010
00001000
00000100
00000000
,
00020000
00002000
00000000
00033000
,
00201000
00010000
00002000
00303000
,
00100000
00000000
00010000
01000000
00001000
00000000
00000000
00000000
,
00010200
00001000
00020000
00030300
,
00000100
00000000
00001000
00000010
00010000
00000000
00000000
00000000
,
00021000
00001000
00000200
00030300
,
00010000
00001000
00010000
00001000
00010000
00000000
00000000
00000000
,
00001000
00010000
00100000
00100000
,
10000000
00010000
10000000
00010000
10000000
00010000
01000000
00000000
;

//---------------dance-double - ----------------
#NOTES:
     dance-double:
     :
     Easy:
     5:
     0.214026,0.299405,0.055488,0.129473,0.000000,162.000000,156.000000,6.000000,14.000000,0.000000,0.000000,0.214026,0.299405,0.055488,0.129473,0.000000,162.000000,156.000000,6.000000,14.000000,0.000000,0.000000:
00000000
00000000
00000000
00000000
,
00000000
00000000
00000000
00000000
,
00000000
00000000
00000000
00000000
,
00000000
00000000
00000000
00000000
,
00001000
00010000
00001000
00010000
,
00001000
00000000
00100000
00000000
,
01000000
00000000
10000000
00000000
,
00010000
00000000
01000000
00000000
,
00001000
00000000
00000000
00000000
,
00010000
00010000
00001000
00000000
,
00000100
00000000
00000010
00000000
,
00010000
00010000
00001000
00000000
,
00100000
00000000
01000000
00000000
,
10000000
10000000
00010000
00000000
,
00010000
00000000
01000000
00000000
,
00001000
00010000
00001000
00000000
,
00010000
00001000
00010000
00000000
,
00000100
00000000
00000100
00000000
,
00000100
00000010
00000001
00000000
,
00000100
00000000
00000100
00000000
,
00000100
00000010
00010000
00000000
,
00001000
00001000
00010000
00010000
,
00001000
00100000
00010000
00000000
,
10000000
10000000
00010000
00010000
,
01000000
00000000
00000000
00000000
,
00020000
00030000
20000000
30000000
,
00010000
00010000
00100000
00000000
,
00002000
00003000
00020000
00030000
,
00000010
00000010
00000100
00000000
,
00000001
00000000
00000000
00000000
,
00000000
00000000
00000000
00000000
,
00001000
00000000
00000001
00000000
,
00001000
00000100
00010000
00000000
,
00001000
00000000
00100000
00000000
,
00001000
00010000
00001000
00000000
,
00100000
00000000
00010000
00000000
,
10000000
00100000
01000000
00000000
,
00010000
00010000
00010000
00000000
,
00001000
00001000
00001000
00000000
,
00011000
00011000
00011000
00000000
,
00000000
00000000
00000000
00000000
,
00010000
00000000
00000100
00000000
,
00000010
00000000
00000010
00000000
,
00000001
00000000
00000100
00000000
,
00000010
00000000
00000010
00000000
,
00010000
00000000
00001000
00000000
,
00100000
00000000
00100000
00000000
,
01000000
10000000
00010000
00000000
,
20020000
00000000
00000000
30030000
,
10000000
00100000
10000000
00010000
,
10000000
01000000
00100000
00000000
,
00001000
00100000
00001000
00010000
,
00001000
00010000
00000100
00000000
,
00000100
00000100
00000100
00000100
,
00000010
00000010
00000010
00000000
,
00000001
00001000
00000001
00000000
,
00002002
00000000
00000000
00003003
,
00000001
00000100
00000020
00000030
,
00001000
00000100
00002000
00003000
,
00000100
00010000
00002000
00003000
,
00100000
00010000
02000000
03000000
,
00010000
10000000
00020000
00030000
,
10000000
00100000
02000000
03000000
,
00010000
00010000
10000000
10000000
,
00010000
01000000
00100000
10010000
;

//---------------dance-double - CO-OP X2----------------
#NOTES:
     dance-double:
     :
     Edit:
     11:
     0.860068,1.078900,2.201034,2.996366,1.530551,651.000000,335.000000,238.000000,324.000000,0.000000,111.000000,0.860068,1.078900,2.201034,2.996366,1.530551,651.000000,335.000000,238.000000,324.000000,0.000000,111.000000:
// measure 0
00000000
00000000
00000000
00000000
,  // measure 1
00000000
00000000
00000000
00000000
,  // measure 2
00000000
00000000
00000000
00000000
,  // measure 3
00000000
00000000
00000000
00000000
,  // measure 4
20024004
30033003
00000000
00000000
02200440
03300330
00000000
00000000
20024004
30033003
00000000
00000000
02200440
03300330
00000000
00000000
,  // measure 5
20024004
30033003
00000000
00000000
20000004
30000003
00000000
00000000
00024000
00033000
00000000
00000000
00024000
00033000
00000000
00000000
,  // measure 6
02000040
03000030
00000000
00000000
02000040
03000030
00000000
00000000
00400200
03300300
00000000
00000000
00400200
00300300
00000000
00000000
,  // measure 7
00042000
00033000
00000000
00000000
00042000
00033000
00000000
00000000
40000002
30000003
00000000
00000000
40000002
30000003
00000000
00000000
,  // measure 8
00400200
00300300
00000000
00000000
40042002
30033003
00000000
00000000
00000000
00000000
00000000
00000000
40000002
30000003
00400200
00300300
,  // measure 9
00040002
30030003
00000000
00000000
00004000
00033000
00040000
00330000
00004000
00033000
00000000
00000000
00040000
00030030
00000040
00030030
,  // measure 10
00040000
00033000
00004000
00003000
00400000
00300000
04000000
03000000
40000000
30000000
00000000
00000000
00040002
30030003
40000200
33300300
,  // measure 11
00402000
30303000
00000000
00000000
00020000
00033000
00002000
00033000
00020000
00033000
00000000
00000000
00002000
00003000
02000000
03000000
,  // measure 12
00002000
00003000
00020000
00030000
00000200
00000300
00000020
00000030
00000002
00000003
00000000
00000000
40000002
30000003
00042000
00033000
,  // measure 13
40000002
30000003
00000000
00000000
00042000
00033000
40000002
30000003
00042000
00033000
00000000
00000000
40000002
30000003
00400200
00300300
,  // measure 14
04000020
03000030
00400200
00300300
00042000
00033000
00400200
00300300
40000002
30000003
00000000
00000000
00000000
00000000
00000000
00000000
,  // measure 15
40000202
30000303
04000000
03000000
00040000
00030000
00004000
03003000
00040000
00030000
04000000
03003000
40000000
30000000
00000000
00000000
,  // measure 16
40400002
33300003
00000020
00000030
00002000
00003000
00020000
00030000
00002000
00003000
00000020
00000030
00000002
00000003
00000000
00000000
,  // measure 17
40000022
30000033
00000000
00000000
04000022
03000033
00000000
00000000
00400022
00300033
00000000
00000000
00004022
00003033
00000000
00000000
,  // measure 18
00040202
00030303
00000040
00000030
00040202
00030303
00000000
00000030
00004202
00033303
04000000
03300000
00400202
03303303
00000000
00000000
,  // measure 19
40400002
33300003
00000000
00000000
40400020
33300030
00000000
00000000
40400200
33300300
00000000
00000000
40420000
33333000
00000000
00000000
,  // measure 20
44002000
33303000
00200000
03300000
44002000
33303000
00000000
03000000
44020000
33333000
00000020
00000330
44000200
33330330
00000000
00000000
,  // measure 21
40000002
30000003
00400200
00300300
40000002
30000003
00400200
00300300
40000002
30000003
00400200
00300300
40000002
30000003
00400200
00300300
,  // measure 22
00042000
00033000
00400200
00300300
00042000
00033000
00400200
00300300
00342000
00033000
00400200
00300300
00042000
00033000
00400200
00300300
,  // measure 23
40000002
30000003
04000020
03000030
00042000
00033000
04000020
03000030
40000002
30000003
00400200
00300300
00042000
00033000
00400200
00300300
,  // measure 24
40000002
30000003
00000000
00000000
00042000
00033000
00000000
00000000
40042002
30033003
00000000
00000000
00000000
00000000
00000000
00000000
,  // measure 25
44000202
33003303
00000000
00000000
44002200
33003303
00000000
00000000
00440202
00330303
00000000
00000000
00442200
00333300
00000000
00000000
,  // measure 26
00004422
00003333
00000000
00000000
00004422
00003333
00000000
00000000
00440202
00330303
00000000
00000000
00442020
00333030
00000000
00000000
,  // measure 27
44000022
33330033
00000000
00000000
04040022
33330033
00000000
00000000
44002200
33303300
00000000
00000000
00442200
00333300
00000000
00000000
,  // measure 28
44220000
33330000
00000000
00000000
44220000
33330000
00000000
00000000
40402200
30303300
00000000
00000000
04042200
03033300
00000000
00000000
,  // measure 29
40042002
30033003
00000000
00000000
00000000
00000000
00000000
00000000
00000000
00000000
00000000
00000000
00000000
00000000
00000000
00000000
,  // measure 30
00000000
00000000
00000000
00000000
00000000
00000000
00000000
00000000
00042000
00033000
00400200
00300300
40000002
30000003
04000020
03000030
,  // measure 31
00042000
00033000
00000000
00000000
40000002
30000003
04000020
03000030
40000002
30000003
00000000
00000000
00042000
00033000
04000020
03000030
,  // measure 32
00400200
00300300
00000000
00400200
00300300
00000000
40000002
30000003
00042000
00033000
00000000
00000000
40000002
30000003
00042000
00033000
,  // measure 33
04000020
03000030
00000000
00000000
00000000
00000000
04000020
03000030
00200400
00300300
00000000
00000000
00000000
00000000
00200400
00300300
,  // measure 34
00024000
00033000
00000000
00000000
20000004
30000003
00000000
00000000
00200400
00300300
00000000
00000000
20000004
30000003
00024000
00033000
,  // measure 35
20000004
30000003
00000000
00000000
00024000
00033000
02000040
03000030
00024000
00033000
20000004
30000003
02000040
03000030
00200400
00300300
,  // measure 36
00024000
00033000
00000000
00000000
02000040
03000333
00000000
00000000
00400200
00300303
00000000
00000000
02000040
03300330
00000000
00000000
,  // measure 37
02000200
03000300
00000000
00000000
00022000
00033000
00000000
00000000
02000200
03000300
00000000
00000000
00000000
00000000
00000000
00000000
,  // measure 38
00400040
00300030
00000000
00000000
00044000
00033000
00000000
00000000
00400040
00300030
00000000
00000000
00000000
00300030
00000000
00000000
,  // measure 39
02400240
03300330
00000000
00000000
02400240
03300330
00000000
00000000
02400240
03300330
00000000
00000000
00000000
00000000
00000000
00000000
,  // measure 40
02000040
03000030
00024000
00033000
20000004
30000003
00024000
00033000
02000040
03000030
00000000
00000000
00020000
00030000
20000000
30000000
,  // measure 41
02000000
03000000
00000000
00000000
20000000
30000000
00020000
00030000
02000000
03000000
00000000
00000000
00000004
00000003
00000400
00000300
,  // measure 42
00000404
00000303
00000000
00000000
00004040
00003030
00000000
00000000
00004000
00003000
00000004
00000003
20000000
30000000
02000000
03000000
,  // measure 43
00020000
00330000
00000000
00000000
00020000
00030000
02000000
03000000
20000000
30300000
00000000
00000000
00004004
00003003
00000000
00000000
,  // measure 44
00004000
00003000
00000400
00000300
00000040
00000030
00000040
00000030
00000004
00000003
00004000
00003000
00020000
00030000
00200000
00300000
,  // measure 45
20000000
30000000
00000000
00000000
20000000
30000000
00200000
00300000
00020000
00030000
00000000
00000000
00000004
00000003
00000004
00000003
,  // measure 46
00004000
00003000
00004000
00003000
00000040
00000030
00000400
00000300
00000004
00000003
00000000
00000000
00000000
00000000
00000000
00000000
,  // measure 47
20000000
30000000
00200000
00300000
02000000
03000000
00200000
00300000
00020000
00030000
00200000
00300000
20000000
30000000
00000000
00000000
,  // measure 48
00004004
00003003
00000000
00000004
00000043
00000030
00000400
00000300
00004000
00003000
20000004
30000003
00024000
00033000
20000004
30000003
,  // measure 49
00024000
00033000
00000000
00024000
02033040
03000030
00000000
02000040
03200430
00300300
00000000
00200400
20300304
30000003
00000000
20000004
,  // measure 50
32000043
03000030
00000000
02000040
03200430
00300300
00000000
00200400
00324300
00033000
00000000
00024000
20033004
30000003
00000000
20000004
,  // measure 51
30200403
00300300
00000000
00200400
00324300
00033030
00000000
00024000
00233403
00300300
00000000
00200400
20300304
30003003
00000000
20000004
,  // measure 52
30024003
00033000
00000000
00024000
00233400
00300300
00000000
00200400
02300340
03000030
00000000
02000040
23000034
30000003
00000000
00000000
,  // measure 53
00020000
02033300
03000000
00000000
00004000
00003400
00000300
00000000
00020000
02030000
03000000
00000000
00004000
00003400
00000300
00000000
,  // measure 54
00020000
00230000
00300000
00000000
00004000
00003040
00000030
00000000
00020000
00230000
00300000
00000000
00004000
00003000
00000000
00000000
,  // measure 55
00024000
00033000
00000000
00000000
20024004
30033003
00000000
00000000
02200440
03300330
00000000
00000000
20024004
30033003
00000000
00000000
,  // measure 56
00000000
00000000
00000000
00000000
00000000
00000000
00000000
00000000
00000000
00000000
00000000
00000000
20000004
30000003
02000040
03000030
,  // measure 57
20000004
30000003
00000000
00000000
00024000
00033000
02000040
03000030
00024000
00033000
00000000
00000000
02000040
03000030
00000000
00000000
,  // measure 58
00400200
00300300
00000000
00000000
00042000
00033000
00000000
00000000
40000002
30000003
00000000
00000000
40000002
30000003
04000020
03000030
,  // measure 59
40000002
30000003
00000000
00000000
00042000
00033000
04000020
03000030
00042000
00033000
00000000
00000000
04000020
03000030
00000000
00000000
,  // measure 60
00200400
00300300
00000000
00000000
00024000
00033000
00000000
00000000
20000004
30000003
00000000
00000000
00024000
00033000
02000040
03000030
,  // measure 61
20000004
30000003
00000000
00000000
20000004
30000003
02000040
03000030
00024000
00033000
00000000
00000000
20000004
30030003
02000040
03000030
,  // measure 62
00200400
00300300
02000040
03000030
00024000
00033000
02000040
03000030
20000004
30000003
00000000
00000000
00000000
00000000
00000000
00000000
,  // measure 63
00024000
00033000
02000040
03000030
20000004
30000003
00200400
00300300
00024000
00033000
20000004
30000003
00024000
00033000
00000000
00000000
,  // measure 64
20000004
30000003
02000040
03000030
00024000
00033000
00200400
00300300
20000004
30000003
00024000
00033000
20000004
30000003
00000000
00000000
;
