#TITLE:Sorcerer's Swing;
#SUBTITLE:;
#ARTIST:Z-I-v Sound Team "TonyAkita";
#TITLETRANSLIT:;
#SUBTITLETRANSLIT:;
#ARTISTTRANSLIT:;
#GENRE:CLASSICAL SWING;
#CREDIT:;
#BANNER:;
#BACKGROUND:;
#LYRICSPATH:;
#CDTITLE:;
#MUSIC:sorcerersswing.ogg;
#OFFSET:-0.002402;
#SAMPLESTART:10.877000;
#SAMPLELENGTH:13.125000;
#SELECTABLE:YES;
#BPMS:0.000000=160.000000
;
#STOPS:
;
#BGCHANGES:;
#KEYSOUNDS:;
#ATTACKS:;

//---------------dance-single - ----------------
#NOTES:
     dance-single:
     :
     Medium:
     11:
     0.475792,0.598682,0.365707,0.222036,0.509378,255.000000,227.000000,28.000000,17.000000,0.000000,0.000000,0.475792,0.598682,0.365707,0.222036,0.509378,255.000000,227.000000,28.000000,17.000000,0.000000,0.000000:
0000
0000
0000
0000
,
1010
0000
0000
0011
0000
0000
2002
0000
,
0000
0000
0000
3003
,
1000
0100
1000
0010
,
0100
0001
0010
0001
,
1000
0000
1000
0100
0000
0100
0001
0000
0001
0100
0000
0100
,
0010
0000
0010
0001
0000
0001
0100
0000
0100
1000
0000
1000
,
0200
0010
0310
1000
,
0001
0000
0000
0100
0000
0000
0001
0000
0000
0010
0100
1000
,
0002
0003
0101
0000
,
1000
0000
0000
0100
0000
0000
1000
0000
0000
0010
0100
0001
,
2000
3000
1100
0000
,
0011
0000
0000
0000
0000
0100
1000
0000
0000
0001
0000
0000
,
1010
0000
0000
0000
0000
0100
0001
0000
0000
1000
0000
0000
,
0001
0010
0001
0010
0001
0010
0100
1000
0100
1000
0100
1000
,
1100
0000
0000
0101
0000
0000
2002
0000
,
0000
0000
0000
3003
,
1000
0100
0001
0100
,
0010
0001
0100
1000
,
0100
0000
0001
0000
0000
0100
0000
0000
0010
0000
0000
0100
0000
0000
0001
0000
,
0000
0000
1000
0000
0000
0100
0000
0000
0010
0000
0000
0100
0000
0000
1000
0000
,
0000
0000
0001
0000
0000
0010
0000
0000
1000
0000
0000
0010
0000
0000
0001
0000
,
0000
0000
1000
0000
0000
0010
0000
0000
0001
0000
0000
0010
0000
0000
1000
0000
,
0000
0000
0001
0000
0000
0101
0000
0000
1000
0000
0000
1100
0000
0000
1001
0000
,
0000
0000
0001
0000
0000
0011
0000
0000
1000
0000
0000
1010
0000
0000
2002
0000
,
3003
0000
0000
0000
0000
0000
0001
0000
0001
0010
0000
0010
,
0100
0000
0100
1000
0000
1000
0010
0000
0000
0100
0001
1000
,
0100
0010
0100
2000
0000
0000
0100
0000
0000
3100
0000
0000
,
0010
0000
0000
0001
0010
0100
1000
0000
0000
0010
0000
0000
,
1000
0010
0100
0001
0000
0000
0101
0000
0001
0010
0000
0001
,
1000
0000
0000
1100
0000
1000
0010
0000
1000
0001
0000
0000
,
1001
0001
0100
0010
,
1000
0001
1000
0001
1000
0001
1000
0001
1000
0001
0000
0000
,
2002
0000
0000
3003
,
1000
0100
0001
0100
,
0010
0001
0100
1000
,
0100
0000
0100
0010
0000
0010
1000
0000
1000
0001
0000
0001
,
2000
0010
3010
1000
,
0001
0000
0000
0100
0000
0000
0001
0000
0000
0010
0100
1000
,
0002
0000
0000
0003
0000
0101
0000
0000
0000
0001
0000
0000
,
1000
0000
0000
0100
0000
0000
1000
0000
0000
0010
0100
0001
,
2000
0000
0000
3000
0000
1100
0000
0000
0000
0000
0000
0000
,
0011
0000
0000
0000
0000
0100
1000
0000
0000
0001
0000
0000
,
1010
0000
0000
0000
0000
0100
0001
0000
0000
1000
0000
0000
,
0001
0010
0001
0010
0001
0010
0100
1000
0100
1000
0100
1000
,
1100
0000
0000
0101
0000
0000
2002
0000
,
0000
0000
0000
3003
,
0000
0000
0000
0000
0000
0000
0000
0000
0000
1000
0100
0010
,
0001
1001
0000
0000
;

//---------------dance-single - ----------------
#NOTES:
     dance-single:
     :
     Easy:
     6:
     0.302268,0.378115,0.261219,0.182854,0.052244,162.000000,142.000000,20.000000,14.000000,0.000000,0.000000,0.302268,0.378115,0.261219,0.182854,0.052244,162.000000,142.000000,20.000000,14.000000,0.000000,0.000000:
0000
0000
0000
0000
,
1000
0000
0000
0001
0000
0000
2002
0000
,
0000
0000
0000
3003
,
1000
1000
0100
0100
,
1000
1000
0010
0010
,
0100
1000
0100
0001
,
0010
0100
1000
0001
,
2002
0000
3003
0000
,
1000
0100
1000
0010
,
0100
0000
0000
0000
0000
0101
0000
0000
0000
0000
0000
0000
,
0001
0100
0001
0010
,
0100
0000
0000
0000
0000
1100
0000
0000
0000
0000
0000
0000
,
0001
0000
1100
0000
,
0001
0000
1010
0000
,
1000
0100
0010
0001
,
1000
0000
0000
0001
0000
0000
2002
0000
,
0000
0000
0000
3003
,
1000
0000
1000
0000
,
0001
0000
0001
0000
,
1000
0100
0010
0100
,
1000
0001
0100
0010
,
0100
0001
1000
0100
,
0001
0100
0010
0001
,
0000
0000
1000
0000
0000
1000
0000
0000
1000
0000
0000
1000
0000
0000
1000
0000
,
0000
0000
0001
0000
0000
0001
0000
0000
0001
0000
0000
0001
0000
0000
0001
0000
,
2002
3003
1000
1000
,
0010
0010
0100
1000
,
0100
0001
0010
0100
,
1100
0001
1000
0101
,
1000
0001
0010
0010
,
1100
0010
0010
0101
,
1000
0100
0010
0001
,
0010
0010
0010
0100
,
2002
0000
0000
3003
,
1000
1000
0100
0100
,
0001
0001
0100
0100
,
0010
0001
0100
1000
,
0220
0000
0330
0000
,
1000
0100
1000
0010
,
0100
0000
0000
0000
0000
0101
0000
0000
0000
0000
0000
0000
,
0001
0100
0001
0010
,
0100
0000
0000
0000
0000
1100
0000
0000
0000
0000
0000
0000
,
0001
0000
1010
0000
,
0001
0000
1100
0000
,
1000
0100
0010
0001
,
1000
0000
0000
0001
0000
0000
2002
0000
,
0000
0000
0000
3003
,
0000
0000
0000
0000
,
0000
0110
0000
0000
;

//---------------dance-single - ----------------
#NOTES:
     dance-single:
     :
     Challenge:
     14:
     0.682902,0.787740,0.208975,0.274280,1.214670,366.000000,350.000000,16.000000,21.000000,48.000000,0.000000,0.682902,0.787740,0.208975,0.274280,1.214670,366.000000,350.000000,16.000000,21.000000,48.000000,0.000000:
0000
0000
0000
0000
,
1000
0001
1000
0000
0000
0000
0001
1000
0001
0000
0000
0000
2002
0000
0000
0000
,
0000
0000
0000
3003
,
1000
0000
0100
1000
0000
0100
1000
0000
0010
1000
0000
0010
,
1000
0000
0001
0100
0000
0001
0100
0000
0001
0010
0000
0001
,
0010
0000
0100
0001
0000
0100
1000
0000
0100
0001
0000
0100
,
0010
0000
0001
0100
0000
1000
0100
0000
0001
0100
0000
1000
,
0200
0000
0000
0001
0000
0000
0301
0000
0000
1000
0100
0010
,
0001
MMMM
1000
0010
MMMM
0010
0001
MMMM
1000
0010
0100
0001
,
0020
0000
0000
0030
0000
1100
0000
0000
0000
0001
0100
0010
,
1000
MMMM
0001
0010
MMMM
0010
1000
MMMM
0001
0010
0100
1000
,
0020
0000
0000
0030
0000
0101
0000
0000
0000
0001
1000
0100
,
0020
0000
0000
1030
0000
0010
0001
0000
0000
1000
0001
0100
,
0020
0000
0000
0031
0000
0010
1000
0000
0001
1000
0100
0010
,
0001
0010
0001
0010
0100
0010
0100
1000
0100
1000
0001
1000
,
0001
1000
0001
0000
0000
0000
1000
0001
1000
0000
0000
0000
2002
0000
0000
0000
,
0000
0000
0000
3003
,
0000
0000
2000
0000
0000
0100
0000
0000
0001
0000
0000
0100
0000
0000
3001
0000
,
0000
0000
0002
0000
0000
0100
0000
0000
1000
0000
0000
0100
0000
0000
1003
0000
,
1000
0000
0001
0000
0100
1000
0000
0100
0001
0000
0100
1000
0000
0000
0101
0000
,
0001
0000
1000
0000
0100
0001
0000
0100
1000
0000
0100
0001
0000
0000
1100
0000
,
1000
0000
0010
0000
0100
1000
0000
0100
0010
0000
0100
0001
0000
0000
0101
0000
,
0001
0000
0010
0000
0100
0001
0000
0100
0010
0000
0100
1000
0000
0000
1100
0000
,
1000
0000
0010
0000
0010
0001
0000
0001
0100
0000
0100
1000
0000
1000
0001
0000
,
0001
0000
0010
0000
0010
1000
0000
1000
0100
0000
0100
0001
0000
0001
1000
0000
,
0020
0000
0000
0030
0000
0000
1000
0010
1000
0001
0100
0001
,
0010
0001
0010
0100
1000
0100
0010
0100
0010
1000
0010
0001
,
1000
0010
0100
1000
0100
0001
0100
0010
1000
0001
0000
0000
,
1001
0000
1000
0100
0010
0100
1000
0100
0010
0011
0000
0001
,
0100
0010
0100
0001
0100
0010
1010
0000
0001
0010
0000
0001
,
0010
1000
0010
0001
0000
1000
0010
0000
1000
0010
0001
0010
,
1000
0000
0000
0001
0100
1000
0100
0001
0010
0100
0001
0100
,
1000
0100
1000
0001
0100
0001
1000
0001
1000
0001
0000
0000
,
2002
0000
0000
3003
,
1000
0000
0100
0001
0000
0100
0010
0000
0100
1000
0000
0100
,
0010
0000
0001
0100
0000
0010
0100
0000
1000
0100
0000
0010
,
1000
0000
0100
0001
0000
0100
0010
0000
0100
1000
0000
0100
,
0020
0000
0000
0001
0000
0000
0031
0000
0000
1000
0100
0010
,
0001
MMMM
1000
0010
MMMM
0010
0001
MMMM
1000
0010
0100
0001
,
0020
0000
0000
0030
0000
1100
0000
0000
0000
0001
0100
0010
,
1000
MMMM
0001
0010
MMMM
0010
1000
MMMM
0001
0010
0100
1000
,
0020
0000
0000
0030
0000
0101
0000
0000
0000
0001
1000
0100
,
0020
0000
0000
1030
0000
0010
0001
0000
0000
1000
0001
0100
,
0020
0000
0000
0031
0000
0010
1000
0000
0001
1000
0010
0100
,
0001
0010
0001
0010
0100
0010
0100
1000
0100
1000
0001
1000
,
0001
1000
0001
0000
0000
0000
1000
0001
1000
0000
0000
0000
2002
0000
0000
0000
,
0000
0000
0000
3003
,
0000
0000
0000
0000
0000
0000
0000
0000
0000
1000
0100
0001
,
0010
1001
0000
0000
;

//---------------dance-single - ----------------
#NOTES:
     dance-single:
     :
     Hard:
     13:
     0.623195,0.724720,0.195915,0.313463,0.999164,334.000000,319.000000,15.000000,24.000000,0.000000,0.000000,0.623195,0.724720,0.195915,0.313463,0.999164,334.000000,319.000000,15.000000,24.000000,0.000000,0.000000:
0000
0000
0000
0000
,
1000
0001
1000
0000
0000
0000
0001
1000
0001
0000
0000
0000
2002
0000
0000
0000
,
0000
0000
0000
3003
,
1000
0000
1000
0010
0000
0010
1000
0000
1000
0100
0000
0100
,
0010
0000
0010
0001
0000
0001
0100
0000
0100
0001
0000
0001
,
1000
0000
0100
0001
0000
0100
0001
0000
0100
1000
0000
0100
,
1000
0000
0001
0100
0000
0001
0100
0000
0001
0010
0000
0001
,
0020
0000
0000
0100
0000
0000
0130
0000
0000
1000
0100
0010
,
0001
0000
1000
0010
0000
1000
0100
0000
1000
0010
0100
0001
,
0020
0000
0000
0030
0000
1100
0000
0000
0000
0001
0100
0010
,
1000
0000
0001
0010
0000
0001
0100
0000
0001
0010
0100
1000
,
0020
0000
0000
0030
0000
0101
0000
0000
0000
1000
0100
1000
,
0200
0000
0000
0301
0000
0100
1000
0000
0000
0001
0100
0001
,
0200
0000
0000
1300
0000
0100
0001
0000
0000
1000
0100
0010
,
0001
0010
0001
0010
0001
0010
1000
0010
1000
0010
1000
0010
,
0001
1000
0001
0000
0000
0000
1000
0001
1000
0000
0000
0000
2002
0000
0000
0000
,
0000
0000
0000
3003
,
0000
0000
2000
0000
0000
0010
0000
0000
0001
0000
0000
0010
0000
0000
3001
0000
,
0000
0000
0002
0000
0000
0010
0000
0000
1000
0000
0000
0010
0000
0000
1003
0000
,
0000
0000
0001
0000
0100
1000
0000
0000
0100
0000
0010
1000
0000
0000
0001
0000
,
0000
0000
1000
0000
0100
0001
0000
0000
0100
0000
0010
0001
0000
0000
1000
0000
,
0000
0000
0001
0000
0100
1000
0000
0000
0010
0000
0001
1000
0000
0000
0001
0000
,
0000
0000
1000
0000
0100
0001
0000
0000
0010
0000
1000
0001
0000
0000
1000
0000
,
0000
0000
0020
0000
0000
0001
0000
0000
1000
0000
0000
0001
0000
0000
1030
0000
,
0000
0000
0200
0000
0000
0001
0000
0000
1000
0000
0000
0001
0000
0000
1300
0000
,
2002
0000
0000
0000
3003
0000
1000
0000
1000
0010
0000
0010
,
0100
0000
0100
0001
0000
0001
1000
0000
1000
0100
0001
0100
,
1000
0100
0010
1000
0010
0001
1000
0010
0100
0001
0000
0000
,
0101
0000
0000
1000
0010
1000
0001
0010
0100
1100
0000
0000
,
0001
0010
0001
1000
0010
0100
0101
0000
0001
0010
0000
0001
,
0010
0000
0000
1100
0000
1000
0010
0000
1000
0010
0000
0000
,
0101
0000
0000
1000
0100
0010
1000
0010
0001
1000
0010
0100
,
0001
1000
0001
1000
0001
1000
0001
1000
0001
1000
0000
0000
,
2002
0000
0000
3003
,
1000
0000
0100
1000
0000
0100
1000
0000
0010
1000
0000
0010
,
1000
0000
0001
0100
0000
0001
0100
0000
0001
0010
0000
0001
,
0010
0000
0100
0001
0000
0100
0001
0000
0100
1000
0000
0100
,
2000
0000
0000
0001
0000
0000
3001
0000
0000
1000
0100
0010
,
0001
0000
1000
0010
0000
1000
0100
0000
1000
0010
0100
0001
,
0020
0000
0000
0030
0000
1100
0000
0000
0000
0001
0100
0010
,
1000
0000
0001
0010
0000
0001
0100
0000
0001
0010
0100
1000
,
0020
0000
0000
0030
0000
0101
0000
0000
0000
1000
0100
1000
,
0200
0000
0000
0301
0000
0100
1000
0000
0000
0001
0100
0001
,
0200
0000
0000
1300
0000
0100
0001
0000
1000
0100
0010
0000
,
0001
0010
0001
0010
0001
0010
1000
0010
1000
0010
1000
0010
,
0001
1000
0001
0000
0000
0000
1000
0001
1000
0000
0000
0000
2002
0000
0000
0000
,
0000
0000
0000
3003
,
0000
0000
0000
0000
0000
0000
0000
0000
0000
1000
0100
0001
,
0010
1001
0000
0000
;

//---------------dance-single - ----------------
#NOTES:
     dance-single:
     :
     Beginner:
     5:
     0.227634,0.315096,0.169793,0.169793,0.026122,122.000000,109.000000,13.000000,13.000000,0.000000,0.000000,0.227634,0.315096,0.169793,0.169793,0.026122,122.000000,109.000000,13.000000,13.000000,0.000000,0.000000:
// measure 0
0000
0000
0000
0000
,  // measure 1
1000
0000
0000
0001
0000
0000
2002
0000
,  // measure 2
0000
0000
3003
0000
,  // measure 3
1000
0000
0010
0000
,  // measure 4
1000
0000
0100
0000
,  // measure 5
0010
0000
0001
0000
,  // measure 6
0100
0000
0001
0000
,  // measure 7
2002
0000
3003
0000
,  // measure 8
1000
1000
1000
0000
,  // measure 9
0010
0000
0000
0000
0000
0101
0000
0000
0000
0000
0000
0000
,  // measure 10
0001
0001
0001
0000
,  // measure 11
0010
0000
0000
0000
0000
1100
0000
0000
0000
0000
0000
0000
,  // measure 12
1000
0000
0010
0000
,  // measure 13
0001
0000
0010
0000
,  // measure 14
1000
1000
1000
1000
,  // measure 15
1000
0000
0000
0001
0000
0000
2002
0000
,  // measure 16
0000
0000
3003
0000
,  // measure 17
0000
1000
0000
1000
,  // measure 18
0000
0001
0000
0001
,  // measure 19
0000
0100
0100
0100
,  // measure 20
0000
0010
0010
0010
,  // measure 21
0000
1000
1000
1000
,  // measure 22
0000
0001
0001
0001
,  // measure 23
0000
0010
0010
0010
,  // measure 24
0000
0100
0100
0100
,  // measure 25
0200
0300
1000
0000
,  // measure 26
0001
0000
1000
0000
,  // measure 27
0010
0010
0010
0010
,  // measure 28
0101
0000
0000
1100
,  // measure 29
0000
0000
1000
1000
,  // measure 30
1000
0001
0001
0001
,  // measure 31
0010
0010
0010
0010
,  // measure 32
0100
0100
0100
0100
,  // measure 33
2002
0000
3003
0000
,  // measure 34
1000
0000
0010
0000
,  // measure 35
1000
0000
0100
0000
,  // measure 36
0010
0000
0001
0000
,  // measure 37
2002
0000
3003
0000
,  // measure 38
1000
1000
1000
0000
,  // measure 39
0010
0000
0000
0000
0000
0101
0000
0000
0000
0000
0000
0000
,  // measure 40
0001
0001
0001
0000
,  // measure 41
0010
0000
0000
0000
0000
1100
0000
0000
0000
0000
0000
0000
,  // measure 42
1000
0000
0010
0000
,  // measure 43
0001
0000
0010
0000
,  // measure 44
1000
1000
1000
1000
,  // measure 45
1000
0000
0000
0001
0000
0000
2002
0000
,  // measure 46
0000
0000
0000
3003
,  // measure 47
0000
0000
0000
0000
,  // measure 48
0000
0110
0000
0000
;
