#TITLE:Something Cool To Happen To Me;
#SUBTITLE:(Cosmic Condiment Mix);
#ARTIST:Eric Cartman;
#TITLETRANSLIT:;
#SUBTITLETRANSLIT:;
#ARTISTTRANSLIT:;
#CREDIT:Nezemarth;
#BANNER:Something Cool To Happen To Me (Cosmic Condiment Mix).png;
#BACKGROUND:Something Cool To Happen To Me (Cosmic Condiment Mix)-bg.png;
#LYRICSPATH:;
#CDTITLE:;
#MUSIC:Something Cool To Happen To Me (Cosmic Condiment Mix).ogg;
#OFFSET:-0.006;
#SAMPLESTART:49.822;
#SAMPLELENGTH:12.000;
#SELECTABLE:YES;
#BPMS:0.000=134.000;
#STOPS:;
#BGCHANGES:;

//---------------dance-single - ----------------
#NOTES:
     dance-single:
     :
     Hard:
     10:
     0.423,0.468,0.066,0.111,0.299:
0000
0000
0000
0000
,
0000
0000
0000
0000
,
0000
0000
0000
0000
,
0000
0000
0000
0000
,
1000
0001
0000
0000
0010
0000
0000
0100
0000
0000
1000
0000
0000
0010
0000
0000
,
0100
0000
0000
0001
0000
0000
0010
0000
0000
0100
0000
0000
0010
0000
0001
1000
,
0000
0010
0000
0000
1000
0000
0000
0100
0000
0000
0010
0000
0000
0001
0000
0000
,
0010
0000
0000
0100
0000
0000
1000
0000
0000
0001
0000
0000
0100
0000
0010
0100
,
0000
1000
0000
0000
0100
0000
0000
0001
0000
0000
0001
0000
0000
1000
0100
0000
,
0010
0000
0000
0100
0000
0000
0001
0000
0000
0100
0000
0000
0010
0000
0001
1000
,
0000
0010
0000
0000
0100
0000
0000
0001
0000
0000
0001
0000
0000
1000
0100
0000
,
0010
0000
0000
0010
0000
0000
0001
0000
0000
0001
0000
0000
0100
0000
0010
0000
,
1000
0001
1000
0100
0000
0010
0000
0001
,
0100
0010
0100
0001
0000
0000
0000
0001
,
0001
1000
0100
0010
0000
0100
0000
1000
,
0010
0100
0001
1000
0000
0000
0100
0100
,
0010
0001
1000
0001
0010
0010
0100
0000
,
1000
0001
0100
0010
0000
0000
0010
0100
,
0001
1000
0001
0010
0100
1000
0000
0010
,
1000
0100
0010
0001
0000
0000
0001
0100
,
0110
0000
0010
1000
0200
0000
0001
0000
,
1300
0000
0001
0100
0010
0000
0100
0001
,
0020
1000
0001
0130
,
2000
0000
3010
0000
0002
0000
0013
0010
,
0100
0000
0100
1000
0010
0000
0010
0100
,
2000
3100
0002
0013
,
0010
0100
0001
0000
0001
0100
1000
0000
,
1000
0100
0001
1000
0010
0001
1000
0001
,
0100
0000
0000
0100
0000
0000
0010
0000
1000
0000
0000
1000
0000
0000
0001
0000
,
0010
0000
0000
0010
0000
0000
0100
0000
1000
0000
0000
1000
0000
0000
0001
0000
,
0100
0010
0100
0000
0000
0000
1000
0000
0100
0000
0000
0100
0000
0000
0001
0000
,
1000
0000
0000
1000
0000
0000
0100
0000
0010
0000
0000
0010
0000
0000
0100
0000
,
1100
0000
0000
0000
1000
0000
0001
0000
0100
0000
0000
0100
0000
0000
0010
0000
,
1010
0000
0000
1000
0000
0000
0001
0000
0010
0000
0000
0100
0000
0000
1000
0000
,
1001
0000
0000
0000
0101
0000
0000
0000
0100
0000
0000
0100
0000
0000
0010
0000
,
1000
0000
0000
1000
0000
0000
0100
0000
0010
0000
0000
0010
0000
0000
0001
0000
,
1000
0010
0000
0100
0000
0000
0100
0000
0001
0010
0000
0100
0000
0000
0100
0000
,
1000
0001
0000
0100
0000
0000
0100
0000
0001
1000
0000
0100
0000
0000
0100
0000
,
0010
0000
0001
0000
0100
0000
0010
0000
0000
0000
0000
0000
,
0010
0000
1000
0000
0100
0000
0020
0000
0030
0000
0000
0000
,
0001
0000
0000
0000
0100
0000
0000
0000
0010
0000
0100
0000
1000
0000
0000
1000
0000
0000
0000
0000
0000
0000
0000
0000
,
0001
0000
0010
0000
1000
0000
0200
0000
0000
0000
0000
0000
,
0310
0000
0001
0000
0100
0000
1000
0100
,
0001
0000
0010
0000
1000
0000
0010
0001
,
0100
0010
0100
0010
1000
0001
1000
0001
,
1000
0100
0010
0001
0100
0010
1000
0001
,
2002
0000
0000
0000
,
3003
0000
0000
0000
;

//---------------dance-single - ----------------
#NOTES:
     dance-single:
     :
     Medium:
     8:
     0.314,0.364,0.111,0.022,0.055:
0000
0000
0000
0000
,
0000
0000
0000
0000
,
0000
0000
0000
0000
,
0000
0000
0000
0000
,
1000
0100
0010
0100
,
1000
0100
0001
0100
,
1000
0010
0100
0010
,
1000
0010
0001
0010
,
1000
0100
0010
0010
,
0001
1000
0001
0001
,
0100
0010
1000
1000
,
0001
0010
0100
1000
,
1001
0000
0000
0000
0001
0000
0000
0010
0000
0000
0000
0000
0000
0000
0000
0000
,
0001
0000
0000
0000
1000
0000
0000
0100
0000
0000
0000
0000
0000
0000
0100
0000
,
0110
0000
0000
0000
1000
0000
0000
0010
0000
0000
0000
0000
0000
0000
0000
0000
,
1000
0000
0000
0000
0001
0000
0000
0100
0000
0000
0000
0000
0000
0000
0000
0000
,
0001
0000
1001
0000
0001
1000
0100
0000
,
0010
0100
1000
0000
,
0001
0000
0100
0100
0010
0000
0100
0000
,
0001
1000
0100
1000
0000
0000
0001
0100
,
0001
0000
1000
0100
0010
0000
0100
0000
,
1000
0000
0001
0100
0010
0000
0010
1000
,
0100
0001
0100
1000
,
0001
0000
0100
0000
0010
0000
0100
0001
,
0010
0000
0010
0100
1000
0000
0001
0100
,
0010
0100
0001
1000
,
0100
0010
0100
1000
,
0001
0100
0010
0100
,
0101
0000
0001
1000
0100
0000
0100
0010
,
0001
0000
0000
0000
0001
0000
0100
0000
0010
0000
0000
0010
0000
0000
0000
0000
,
1000
0000
1000
0100
0010
0000
0010
0001
,
1000
0000
0000
0000
1000
0000
0010
0000
0100
0000
0000
0100
0000
0000
0000
0000
,
0101
0000
0001
1000
0100
0000
0010
0100
,
1000
0000
1000
0100
0001
0000
0001
0100
,
0010
0000
1001
0000
1000
0010
0100
0000
,
0100
0001
1000
0000
1000
0100
0010
0000
,
0001
0001
1000
1000
,
0010
0001
1000
0100
,
0110
0000
0010
0000
1000
0000
0100
0000
0000
0000
0000
0000
,
0010
0000
0001
0000
0010
0000
0002
0000
0003
0000
0000
0000
,
1000
0010
0110
0000
,
0001
0010
0110
0000
,
1000
0010
0001
0010
,
1000
0100
0001
0100
,
1000
1000
0001
0001
,
0100
0000
0010
0000
1000
0000
0001
1000
,
2001
0000
0000
0000
,
3000
0000
0000
0000
;

//---------------dance-single - ----------------
#NOTES:
     dance-single:
     :
     Easy:
     5:
     0.194,0.280,0.133,0.022,0.000:
0000
0000
0000
0000
,
0000
0000
0000
0000
,
0000
0000
0000
0000
,
0000
0000
0000
0000
,
1000
0000
0100
0000
,
0010
0000
0100
1000
,
0001
0000
0100
0000
,
0010
0000
0100
0001
,
1000
0000
0100
0000
,
0010
0000
0010
0000
,
0100
0000
1000
0000
,
0001
0000
0000
0000
0100
0000
0000
0010
,
0010
0000
0000
0000
,
0000
0000
0000
0000
0000
0000
0000
0100
,
0100
0000
0000
0000
,
0000
0000
0000
0000
,
0001
0010
0100
0010
,
0001
1000
0010
0000
,
0100
0010
1000
0010
,
0100
0001
1000
0000
,
1100
0000
1001
0001
,
0101
0000
0100
0010
,
2010
0000
0010
0000
,
3001
0000
0010
0000
,
0110
0000
0100
1000
,
1001
0000
0101
0100
,
0120
0000
1000
0000
,
0031
0000
0010
0000
,
1010
0000
1000
0100
,
0010
0100
1000
0000
,
0001
0100
0010
0100
,
0001
1000
0100
0000
,
0010
0000
0100
0000
,
1000
0001
0100
0000
,
0010
0100
0001
0010
,
0100
0000
1000
0000
,
0101
0001
0010
0100
,
1000
0010
0100
0001
,
1001
0000
0000
0000
,
1000
0000
0000
0000
,
0100
0000
0000
0000
,
0010
0000
0000
0000
,
0001
0100
0001
0100
,
0010
1000
0010
1000
,
0100
0010
0001
0100
,
0010
1000
0100
0010
,
1001
0000
0000
0000
;

//---------------dance-single - ----------------
#NOTES:
     dance-single:
     :
     Challenge:
     13:
     0.651,0.598,0.022,0.022,0.973: // measure 1
0000
0000
0000
0000
,  // measure 2
0000
0000
0000
0000
,  // measure 3
0000
0000
0000
0000
,  // measure 4
0000
0000
0000
0000
,  // measure 5
1000
0100
0000
0100
0010
0000
0010
0001
0000
0001
0100
0000
0100
0010
0000
0010
,  // measure 6
1000
0000
1000
0100
0000
0100
0010
0000
0010
0100
0000
0100
1000
0000
0001
0010
,  // measure 7
0001
1000
0000
1000
0010
0000
0010
0100
0000
0100
0001
0000
0001
0010
0000
0010
,  // measure 8
0100
0000
0100
1000
0000
1000
0010
0000
0010
0100
0000
0100
0001
0000
1000
0100
,  // measure 9
1000
0001
0000
0001
0100
0000
0100
0010
0000
0010
1000
0000
1000
0100
0000
0100
,  // measure 10
0010
0000
0010
0100
0000
0100
0001
0000
0001
0100
0000
0100
1000
0000
1000
0001
,  // measure 11
0100
0010
0000
0010
0100
0000
0100
1000
0000
1000
0100
0000
0100
0010
0000
0010
,  // measure 12
0100
0000
1000
0100
0000
0010
0100
0000
0001
0100
0000
0010
0100
0000
0100
0001
,  // measure 13
1000
0100
1000
0000
0001
0000
0010
0000
0000
0000
0100
0000
0000
0000
0100
0010
,  // measure 14
0100
1000
0001
0000
0010
0000
0000
0100
0000
0000
0000
0000
0000
0000
1100
0000
,  // measure 15
1000
0001
1000
0000
0100
0000
0010
0000
0000
0001
0100
0000
0000
0000
0001
0000
,  // measure 16
0100
0010
0100
0000
0001
0000
0000
1000
0000
0000
0000
0000
1000
0100
1000
0100
,  // measure 17
0010
0000
0010
0001
0000
0001
0000
0100
0000
0010
0100
0010
0000
0100
0001
0000
,  // measure 18
0001
0000
1000
0000
0100
0000
0010
0100
0000
0000
1000
0001
0000
0001
0100
0010
,  // measure 19
0100
0001
0000
1000
0000
0100
0000
0010
0000
0000
0100
1000
0000
1000
0001
0100
,  // measure 20
0001
0000
0010
0000
0100
0000
1000
0000
0000
0000
1000
0010
0000
0010
0100
0000
,  // measure 21
0001
0010
0000
0100
0010
0000
0001
0000
1000
0001
0000
0000
0100
0000
0000
0001
,  // measure 22
1000
0001
0000
0010
0100
0000
1000
0000
0001
0100
0000
0000
0010
0000
0000
0100
,  // measure 23
0001
0000
1000
0000
0100
0000
0010
0100
0000
1000
0000
0001
0100
0010
0100
0000
,  // measure 24
0001
0000
1000
0000
0100
0000
0010
0100
0000
1000
0000
0001
0100
0000
0010
0000
,  // measure 25
0100
0001
0000
1000
0100
0000
0010
0000
0100
1000
0000
0000
0001
0000
0000
0100
,  // measure 26
0010
0100
0000
0001
1000
0000
0100
0000
0010
0100
0000
0000
1000
0000
0000
0001
,  // measure 27
0100
0000
0010
0000
1000
0000
0100
0010
0000
0001
0000
1000
0010
1000
0001
0000
,  // measure 28
0010
0000
0100
0000
1000
0000
0001
0100
0000
0010
0000
0100
0001
1000
0100
0010
,  // measure 29
0001
0100
0000
0001
0100
0000
0010
0000
1000
0100
0000
1000
0100
0000
0010
0000
,  // measure 30
0001
0100
0000
0001
1000
0000
0010
0000
1000
0100
0000
1000
0001
0000
0010
0000
,  // measure 31
0100
1000
0000
0001
0100
0000
0010
0000
0100
0001
0000
1000
0100
0000
0010
0000
,  // measure 32
0001
0100
0000
0100
0010
0000
1000
0000
0100
0010
0000
0010
0001
0000
1000
0000
,  // measure 33
0010
1000
0000
0010
1000
0000
0100
0000
0010
0001
0000
0010
0001
0000
1000
0000
,  // measure 34
0010
1000
0000
0001
1000
0000
0100
0000
0010
0001
0000
1000
0001
0000
0100
0000
,  // measure 35
0010
1000
0000
0001
0010
0000
0100
0000
0010
0001
0000
1000
0010
0000
0100
0000
,  // measure 36
1000
0100
0000
0100
0010
0000
1000
0000
0100
0010
0000
0010
1000
0000
0001
0000
,  // measure 37
0100
1000
0000
1000
0010
0000
0010
0001
0000
0001
1000
0000
1000
0000
0100
0000
,  // measure 38
0001
0010
0000
0010
1000
0000
1000
0002
0000
0000
0000
0000
0000
0000
0103
0000
,  // measure 39
0010
0001
0000
0000
0100
0000
0000
1000
0000
1000
0100
0000
0010
0000
1000
0000
,  // measure 40
0100
0001
0000
0000
0001
0000
0000
0100
0000
0000
1000
0000
0000
0000
0001
0000
,  // measure 41
0100
0010
0000
0000
1000
0000
0000
0100
0000
0100
0010
0000
0100
0000
1000
0000
,  // measure 42
0100
0010
0000
0100
0010
0000
0100
0000
1000
0001
0000
1000
0001
0100
0001
0100
,  // measure 43
0010
1000
0000
1000
0100
0000
0100
0010
0000
0010
0001
0000
1000
0000
0001
0000
,  // measure 44
0100
0001
0000
0100
0010
0000
0100
1000
0000
0100
0010
0000
1000
0001
1000
0001
,  // measure 45
1000
0100
0000
0100
0010
0000
0010
0001
0000
0001
0100
0000
0010
0000
0100
0000
,  // measure 46
0001
0010
0000
0010
0100
0000
0100
1000
0000
1000
0001
0000
0100
0000
0010
0000
,  // measure 47
2001
0000
0000
0000
,  // measure 48
3100
0000
0000
0000
;
