#VERSION:0.83;
#TITLE:Someone Stole My Beer;
#SUBTITLE:;
#ARTIST:Bassbrain ft. MC Stretch;
#TITLETRANSLIT:;
#SUBTITLETRANSLIT:;
#ARTISTTRANSLIT:;
#GENRE:;
#ORIGIN:;
#CREDIT:;
#BANNER:Someone Stole My Beer.png;
#BACKGROUND:Someone Stole My Beer-bg.png;
#PREVIEWVID:;
#JACKET:Someone Stole My Beer-jacket.png;
#CDIMAGE:;
#DISCIMAGE:zvc.png;
#LYRICSPATH:;
#CDTITLE:;
#MUSIC:Someone Stole My Beer.ogg;
#OFFSET:0.414000;
#SAMPLESTART:61.562000;
#SAMPLELENGTH:15.240000;
#SELECTABLE:YES;
#BPMS:0.000=150.017;
#STOPS:29.000=0.800;
#DELAYS:;
#WARPS:;
#TIMESIGNATURES:0.000=4=4;
#TICKCOUNTS:0.000=4;
#COMBOS:0.000=1;
#SPEEDS:0.000=1.000=0.000=0;
#SCROLLS:0.000=1.000;
#FAKES:;
#LABELS:0.000=Song Start;
#BGCHANGES:1.000=Someone Stole My Beer.mp4=1.000=1=0=1===CrossFade==,
99999=-nosongbg-=1.000=0=0=0 // don't automatically add -songbackground-
;
#KEYSOUNDS:;
#ATTACKS:
;

//---------------dance-single - Pandy -Pub Style-----------------
#NOTEDATA:;
#CHARTNAME:;
#STEPSTYPE:dance-single;
#DESCRIPTION:Pandy -Pub Style-;
#CHARTSTYLE:;
#DIFFICULTY:Beginner;
#METER:4;
#RADARVALUES:0.129149,0.316981,0.135607,0.018081,0.000000,100.000000,85.000000,15.000000,2.000000,0.000000,0.000000,0.000000,0.000000,0.000000,0.129149,0.316981,0.135607,0.018081,0.000000,100.000000,85.000000,15.000000,2.000000,0.000000,0.000000,0.000000,0.000000,0.000000;
#CREDIT:Pandy -Pub Style-;
#NOTES:
// measure 0
0000
0000
0000
0000
,  // measure 1
0000
0000
0000
0000
,  // measure 2
0000
0000
0000
0000
,  // measure 3
0000
0000
0000
0000
,  // measure 4
0000
0000
0000
0000
,  // measure 5
0000
0000
0000
0000
,  // measure 6
0000
0000
0000
0000
,  // measure 7
0000
0000
0000
0001
,  // measure 8
0000
0000
0000
1000
,  // measure 9
0000
0000
0000
0010
,  // measure 10
0000
0000
0000
0100
,  // measure 11
0000
0000
0000
0001
,  // measure 12
0000
0000
0000
1000
,  // measure 13
0000
0000
0000
0001
,  // measure 14
0000
0000
0000
0100
,  // measure 15
0000
0010
0000
1001
,  // measure 16
0000
0000
0000
0001
,  // measure 17
0000
0000
0000
1000
,  // measure 18
0000
0000
0000
0010
,  // measure 19
0000
0000
0000
0100
,  // measure 20
0000
0000
0000
0001
,  // measure 21
0000
0000
0000
0010
,  // measure 22
0000
0000
0000
0100
,  // measure 23
0000
0010
0000
1001
,  // measure 24
0000
0000
0000
0110
,  // measure 25
0000
0000
0000
0000
,  // measure 26
0000
0000
0000
1001
,  // measure 27
0000
0000
0000
0000
,  // measure 28
0000
0000
0000
0110
,  // measure 29
0000
0000
0000
0000
,  // measure 30
0000
0000
0000
1001
,  // measure 31
0000
0000
0000
0220
,  // measure 32
0000
0000
0000
0000
,  // measure 33
0000
0000
0000
0000
,  // measure 34
0000
0000
0000
0000
,  // measure 35
0000
0000
0330
1000
,  // measure 36
0000
1000
0000
0001
,  // measure 37
0000
0001
0000
1000
,  // measure 38
0000
1001
0110
1001
,  // measure 39
0000
0010
0010
1001
,  // measure 40
0000
0001
0000
1000
,  // measure 41
1000
1000
0000
0010
,  // measure 42
0000
0100
0000
0001
,  // measure 43
0001
0001
0000
0010
,  // measure 44
0000
0100
0000
0010
,  // measure 45
0000
0001
0000
1000
,  // measure 46
1000
0000
0000
1001
,  // measure 47
0000
0110
0000
1001
,  // measure 48
0001
0001
0000
1000
,  // measure 49
1000
1000
0000
0010
,  // measure 50
0000
0100
0000
0010
,  // measure 51
0010
0010
0000
1000
,  // measure 52
1000
1000
0000
0001
,  // measure 53
0001
0001
0000
0100
,  // measure 54
0100
0000
0000
0010
,  // measure 55
0000
0100
0000
0001
,  // measure 56
0000
0000
0000
1000
,  // measure 57
0000
0000
0000
0010
,  // measure 58
0000
0000
0000
0100
,  // measure 59
0000
0010
0010
1000
,  // measure 60
0000
0000
0000
0001
,  // measure 61
0000
0000
0000
0010
,  // measure 62
0000
0000
0000
0100
,  // measure 63
0000
0010
0000
1001
;

//---------------dance-single - Pandy -Pub Style-----------------
#NOTEDATA:;
#CHARTNAME:;
#STEPSTYPE:dance-single;
#DESCRIPTION:Pandy -Pub Style-;
#CHARTSTYLE:;
#DIFFICULTY:Easy;
#METER:7;
#RADARVALUES:0.324165,0.377552,0.198890,0.189849,0.000000,251.000000,229.000000,22.000000,21.000000,0.000000,0.000000,0.000000,0.000000,0.000000,0.324165,0.377552,0.198890,0.189849,0.000000,251.000000,229.000000,22.000000,21.000000,0.000000,0.000000,0.000000,0.000000,0.000000;
#CREDIT:Pandy -Pub Style-;
#NOTES:
// measure 0
0000
0000
0000
0000
,  // measure 1
0000
0000
0000
0000
,  // measure 2
0000
0000
0000
0000
,  // measure 3
0000
0000
0000
0000
,  // measure 4
0000
0000
0000
0000
,  // measure 5
0000
0000
0000
0000
,  // measure 6
0000
0000
0000
0000
,  // measure 7
0000
0000
0000
0001
,  // measure 8
1000
0200
0300
1000
,  // measure 9
0001
0200
0300
0001
,  // measure 10
1000
0020
1030
0100
,  // measure 11
0010
0002
0003
0100
,  // measure 12
0001
0020
0030
0100
,  // measure 13
1000
0020
0130
0010
,  // measure 14
2000
0000
0000
0000
3000
0000
0001
1000
,  // measure 15
0001
0000
1000
0001
1000
0000
0001
0000
,  // measure 16
0100
0110
0010
1000
,  // measure 17
0100
0110
0000
0100
,  // measure 18
1000
1010
0010
0100
,  // measure 19
0001
1001
1000
0001
,  // measure 20
0010
0011
0000
0010
,  // measure 21
0100
0110
0100
1000
,  // measure 22
1010
0000
0000
0000
0000
0000
1000
0001
,  // measure 23
1000
0000
0001
1000
0001
0000
1000
0000
,  // measure 24
0001
0100
0001
0011
,  // measure 25
0001
1000
0010
1000
,  // measure 26
0001
0100
0001
0011
,  // measure 27
0001
1000
0100
0010
,  // measure 28
0100
1000
0010
1010
,  // measure 29
1000
0010
0100
0001
,  // measure 30
0010
0100
1000
1100
,  // measure 31
1000
0001
0000
1002
,  // measure 32
1000
1000
1003
2001
,  // measure 33
0001
0001
3001
1002
,  // measure 34
1000
1000
1003
2001
,  // measure 35
0001
0001
3001
1000
,  // measure 36
1000
0010
0010
0100
,  // measure 37
0100
0001
0001
1001
,  // measure 38
0000
0000
0001
0100
0010
1000
0001
0000
,  // measure 39
0000
1001
0110
1001
,  // measure 40
0001
1000
0010
1000
,  // measure 41
0100
0000
0010
0000
0001
0010
0001
0000
,  // measure 42
0010
0001
0100
0010
,  // measure 43
1000
0000
0001
0001
0001
0000
1000
0000
,  // measure 44
0100
1000
0010
0100
,  // measure 45
0010
0000
1000
0000
0001
1000
0001
0000
,  // measure 46
0010
0000
0100
0000
0000
0000
0010
0001
,  // measure 47
0200
0000
0310
1000
0200
0000
0310
0000
,  // measure 48
0100
1000
0010
0100
,  // measure 49
0001
0000
0010
0000
0100
1000
0100
0000
,  // measure 50
1000
0000
0010
0000
0100
0001
0010
0000
,  // measure 51
0100
0000
0010
0010
0010
0000
0100
0000
,  // measure 52
1000
0000
0002
0000
0000
0103
0010
0000
,  // measure 53
1000
0000
0200
0000
0310
0010
0010
0000
,  // measure 54
0200
0000
0000
0000
0300
0000
0010
0001
,  // measure 55
0200
0000
0310
1000
0200
0000
0310
0000
,  // measure 56
0010
0001
0001
1000
,  // measure 57
1000
0010
0010
0100
,  // measure 58
0100
0010
0010
1000
,  // measure 59
1000
1001
0110
1001
,  // measure 60
0001
1000
1000
0010
,  // measure 61
0010
0000
0100
0000
0100
0001
0100
0000
,  // measure 62
0001
0000
0100
0000
0010
0000
1000
0001
,  // measure 63
0020
0000
0031
1000
0020
0000
0200
0000
,  // measure 64
0000
0330
0000
0000
;

//---------------dance-single - Pandy -Pub Style-----------------
#NOTEDATA:;
#CHARTNAME:;
#STEPSTYPE:dance-single;
#DESCRIPTION:Pandy -Pub Style-;
#CHARTSTYLE:;
#DIFFICULTY:Medium;
#METER:11;
#RADARVALUES:0.393905,0.522764,0.433941,0.307375,0.040682,305.000000,257.000000,48.000000,34.000000,8.000000,0.000000,2.000000,0.000000,0.000000,0.393905,0.522764,0.433941,0.307375,0.040682,305.000000,257.000000,48.000000,34.000000,8.000000,0.000000,2.000000,0.000000,0.000000;
#CREDIT:Pandy -Pub Style-;
#NOTES:
// measure 0
0000
0000
0000
0000
,  // measure 1
0000
0000
0000
0000
,  // measure 2
0000
0000
0000
0000
,  // measure 3
0000
0000
0000
0000
,  // measure 4
0000
0000
0000
0000
,  // measure 5
0000
0000
0000
0000
,  // measure 6
0000
0000
0000
0000
,  // measure 7
0000
0000
0000
0000
0000
0000
0001
0100
,  // measure 8
0001
0000
0020
0000
0130
0000
1000
0100
,  // measure 9
1000
0000
0020
0000
0030
0000
0100
0010
,  // measure 10
0100
0000
0002
0000
1003
0000
0001
0010
,  // measure 11
0001
0000
0200
0000
0310
0000
1000
0100
,  // measure 12
1000
0000
0002
0000
0003
0100
0001
0010
,  // measure 13
0001
0000
0020
0000
0031
0000
0100
0010
,  // measure 14
2000
0000
0000
0000
3000
0000
0001
0100
,  // measure 15
1000
0000
1000
0100
0001
0000
1000
0000
,  // measure 16
1000
0000
2010
0000
3010
0100
0010
0000
,  // measure 17
0010
0120
0030
0100
,  // measure 18
0001
0000
0021
0000
0031
0010
0100
0000
,  // measure 19
0110
0000
1002
0000
1003
0000
0100
1000
,  // measure 20
0010
0000
0210
0000
0300
0010
0100
0001
,  // measure 21
1000
0000
0102
0000
0103
0010
1000
0100
,  // measure 22
0020
0000
0000
0000
0030
0000
0001
0010
,  // measure 23
1000
0000
1000
0010
0001
0000
1000
0000
,  // measure 24
0001
0100
0010
0102
,  // measure 25
0100
0000
0103
0000
0010
1000
0001
0000
,  // measure 26
0010
0100
1000
2010
,  // measure 27
0010
0000
3010
0000
1000
0010
0100
0000
,  // measure 28
0010
1000
0001
0012
,  // measure 29
0100
0000
0103
0000
0010
1000
0001
0000
,  // measure 30
0010
0100
0010
0012
,  // measure 31
1000
0000
0000
0000
1003
0000
0000
0000
0000
0000
0000
0000
0040
0400
0000
0000
,  // measure 32
0000
0000
0000
0000
,  // measure 33
0000
0000
0000
0000
,  // measure 34
0000
0000
0000
0000
,  // measure 35
0000
0000
0330
1001
,  // measure 36
1001
0000
0110
0000
0110
0000
0001
0100
,  // measure 37
0010
0000
0000
0000
0100
0000
0010
0000
1000
0100
0000
0010
0001
0000
1000
0000
,  // measure 38
0000
0000
0001
0100
0010
1000
0001
0000
,  // measure 39
0000
0000
MMMM
0000
MMMM
0000
0001
0100
,  // measure 40
0001
0000
0200
0000
0310
0000
1000
0010
,  // measure 41
1000
0000
0200
0000
0310
0010
0001
0000
,  // measure 42
1000
0000
0002
0000
0103
0001
0010
0100
,  // measure 43
1000
0000
0110
0110
0110
0000
1001
0000
,  // measure 44
1000
0000
0002
0000
0103
0001
0010
0000
,  // measure 45
0100
0000
0000
0000
0010
0000
0000
0000
0001
0010
0001
0000
0010
0000
0100
0000
,  // measure 46
1000
0000
0000
0000
0001
0000
0000
0001
0000
0000
0001
0000
1000
0000
0001
0000
,  // measure 47
0200
0000
0310
1000
0100
0100
1001
1000
,  // measure 48
0010
0000
0200
0000
0310
1000
0001
0000
,  // measure 49
0010
0000
0200
0000
0300
0010
0001
0100
,  // measure 50
0010
0000
2000
0000
3001
0010
0100
0000
,  // measure 51
0010
0000
0021
0001
0031
0000
0010
0100
,  // measure 52
1000
0000
0000
0000
0020
0000
0000
0000
0000
0000
0130
0010
0100
0000
0010
0000
,  // measure 53
1000
0000
0000
0000
0002
0000
0000
0000
1003
0001
1000
0000
0100
0000
0010
0000
,  // measure 54
0001
0000
0000
0000
0010
0000
0000
0010
0000
0000
0010
0000
0110
0000
0000
0000
,  // measure 55
0001
1000
0010
0000
0000
0000
0000
0000
0100
0000
0100
0000
1001
0000
0000
0000
,  // measure 56
1001
1001
1001
0110
,  // measure 57
0110
0110
0110
1010
,  // measure 58
1010
1010
1010
0101
,  // measure 59
0101
0201
0320
1030
,  // measure 60
1010
0101
1010
1100
,  // measure 61
0011
1100
0011
1001
,  // measure 62
0110
0000
0101
0000
1010
0000
0001
0100
,  // measure 63
0020
0000
1030
0100
0020
0000
0200
0000
,  // measure 64
0000
0330
0000
0000
;

//---------------dance-single - Pandy -Pub Style-----------------
#NOTEDATA:;
#CHARTNAME:;
#STEPSTYPE:dance-single;
#DESCRIPTION:Pandy -Pub Style-;
#CHARTSTYLE:;
#DIFFICULTY:Hard;
#METER:14;
#RADARVALUES:0.543718,0.698137,0.452022,0.343537,0.216971,421.000000,371.000000,50.000000,38.000000,19.000000,0.000000,2.000000,0.000000,0.000000,0.543718,0.698137,0.452022,0.343537,0.216971,421.000000,371.000000,50.000000,38.000000,19.000000,0.000000,2.000000,0.000000,0.000000;
#CREDIT:Pandy -Pub Style-;
#NOTES:
// measure 0
0000
0000
0000
0000
,  // measure 1
0000
0000
0000
0000
,  // measure 2
0000
0000
0000
0000
,  // measure 3
0000
0000
0000
0000
,  // measure 4
0000
0000
0000
0000
,  // measure 5
0000
0000
0000
0000
,  // measure 6
0000
0000
0000
0000
,  // measure 7
0000
0000
0000
0000
0000
0000
0001
1000
,  // measure 8
0001
0000
0020
0000
0130
0010
0001
1000
,  // measure 9
0001
0000
0020
0000
0030
0100
1000
0010
,  // measure 10
0100
0000
0002
0000
0013
0100
0010
0001
,  // measure 11
1000
0000
0002
0000
1003
0010
1000
0001
,  // measure 12
1000
0000
0200
0000
0300
0010
0100
1000
,  // measure 13
0001
0000
0200
0000
0301
0010
0001
1000
,  // measure 14
0002
0000
0000
0000
0003
1000
0010
0100
,  // measure 15
0002
0000
0013
0100
2000
0000
3001
0100
,  // measure 16
0010
0000
0201
0000
0310
1000
0001
0010
,  // measure 17
0100
0000
0021
0000
0130
0010
0001
1000
,  // measure 18
0010
0000
1020
0000
1030
0100
1000
0001
,  // measure 19
0100
0000
2010
0000
3010
1000
0001
0010
,  // measure 20
0001
0000
1020
0000
0000
0130
0001
0010
,  // measure 21
0100
0000
2100
0000
3001
0010
0100
1000
,  // measure 22
0002
0000
0000
0000
0003
1000
0100
0100
,  // measure 23
2000
0000
3010
0010
0200
0000
0301
0000
,  // measure 24
0100
0000
0000
0000
0010
0000
0000
1000
0010
0000
0100
0000
2001
0000
0000
0000
,  // measure 25
0100
0000
3001
0000
1000
1000
0001
0000
,  // measure 26
0010
0000
0000
0000
0001
0000
0000
0100
0010
0000
1000
0000
1002
0000
0000
0000
,  // measure 27
0010
0000
0103
0000
0010
0010
0100
0000
,  // measure 28
1000
0000
0000
0000
0100
0000
0000
0010
0100
0000
1000
0000
2001
0000
0000
0000
,  // measure 29
0010
0000
3001
0000
1000
1000
0100
0000
,  // measure 30
0010
0000
0000
0000
0100
0000
0000
0010
0001
0000
0100
0000
0210
0000
0000
0000
,  // measure 31
0001
0000
0000
0000
0310
0000
0000
0000
0000
0000
0000
0000
0201
0000
0000
0001
,  // measure 32
0000
0000
0301
0000
1001
0000
1000
0000
1001
0000
0000
0000
2100
0000
0000
0100
,  // measure 33
0000
0000
3100
0000
1001
0000
0001
0000
1001
0000
1000
0100
0020
0000
0000
0100
,  // measure 34
0000
0000
0130
0000
1100
0000
1000
0000
1010
0000
0000
0000
0120
0000
0000
0100
,  // measure 35
0000
0130
0101
0001
1001
0000
1000
0010
,  // measure 36
0100
0000
0001
0000
1000
0000
0100
0000
0010
0000
0001
1000
0100
0000
0010
0000
,  // measure 37
0001
0000
1000
0000
0100
0000
0010
0000
0001
0000
0100
0010
1000
0001
1000
0001
,  // measure 38
0100
0001
0100
0001
2000
0000
3200
0000
0320
0000
0032
0000
2000
0000
0000
0000
,  // measure 39
3003
0000
MMMM
0000
MMMM
0000
1001
0001
,  // measure 40
0100
0000
0001
0000
0010
0000
0100
0000
0010
0000
0001
0010
0100
0000
0010
0000
,  // measure 41
0001
0000
1000
0000
0010
0000
1000
0000
0100
0000
0010
0100
1000
0000
0100
0000
,  // measure 42
1000
0000
0010
0000
1000
0000
0001
0000
0010
0000
0100
0010
0001
0000
1000
0000
,  // measure 43
0010
0000
0110
1001
0110
0000
1001
1000
,  // measure 44
0010
0000
1000
0000
0001
0000
0010
0000
0100
0000
0010
0001
0100
0000
0010
0000
,  // measure 45
1000
0000
0100
0000
1000
0000
0001
0000
0100
0010
0100
0000
0001
0000
1000
0000
,  // measure 46
0200
0000
0000
0000
0310
0000
0000
0011
0000
0000
1010
0000
1001
0000
0000
0000
,  // measure 47
0001
1000
1001
0000
0000
0000
0000
0000
0004
0000
0000
0000
0013
0100
1000
0000
,  // measure 48
0001
0000
0100
0000
0010
0000
1000
0000
0001
0000
0010
0000
0100
0010
0001
0000
,  // measure 49
0100
0000
0010
0000
1000
0000
0100
0000
0010
0000
0100
1000
0010
1000
0001
0000
,  // measure 50
1000
0000
0010
0000
0100
0000
0001
0000
0010
0100
1000
0000
1100
0000
0011
0000
,  // measure 51
1100
0000
0000
0000
1002
0000
1000
0000
1003
0000
0000
0000
0001
1000
0100
0000
,  // measure 52
0010
0000
0001
0000
0020
0000
0000
0000
0000
0000
0130
0000
0010
0001
1000
0000
,  // measure 53
0010
0000
0100
0000
0002
0000
0000
0000
0013
0100
1000
0000
1100
0000
1000
0000
,  // measure 54
1020
0000
0000
0000
0130
0000
0000
0110
0000
0000
1010
0000
1001
0000
0000
0000
,  // measure 55
0001
1000
1001
0000
0000
0000
0000
0000
4000
0000
0000
0000
3010
0000
0000
0100
,  // measure 56
0001
0000
0010
0000
0100
0000
0000
0010
0001
0000
1000
0000
0010
0000
0000
0100
,  // measure 57
0010
0000
1000
0000
0100
0000
0000
0010
0100
0000
1000
0001
1000
0000
0000
0010
,  // measure 58
0100
0000
0001
0000
1000
0000
0000
0100
0010
0000
0001
0000
1000
0000
0000
0100
,  // measure 59
0010
0000
0001
0000
0011
0000
0000
0000
1010
0000
0000
0000
1001
0000
0000
1000
,  // measure 60
0010
0000
0100
0000
0101
0000
0000
0001
0010
0000
0100
0000
1100
0000
0000
0100
,  // measure 61
0010
0000
0001
0000
0101
0000
0000
0100
0010
0000
1000
0000
1001
0000
0000
0000
,  // measure 62
0101
0000
1010
0000
0101
0001
0010
1000
,  // measure 63
0010
0000
0001
0100
0020
0000
0200
0000
,  // measure 64
0330
0000
0000
0000
,  // measure 65
0000
0000
0M00
000M
00M0
0M00
M000
0000
,  // measure 66
0000
0000
0000
000M
0000
0000
0000
0000
M000
0000
0000
0000
0000
0000
0000
0000
0M00
0000
0000
0000
0000
0000
0000
0000
0000
0000
0000
0000
0000
0000
0000
0000
0000
0000
0000
0000
00M0
0000
0000
0000
0000
0000
0000
0000
0000
0000
0000
0000
,  // measure 67
00M0
0000
0000
0000
0000
0000
0000
0000
0000
0000
0000
0000
0000
0000
0000
0000
0000
0000
0000
0000
0000
0000
0000
0000
0000
0000
0000
0000
0000
00M0
0000
0000
0000
0000
0000
0000
0000
0000
0000
0000
0000
0000
0000
0000
0000
0000
0000
0000
0000
0000
0000
0000
0000
0000
0000
0000
0000
0000
0000
0000
0000
0000
0000
0000
0000
0000
0000
0000
0000
0000
0000
0000
0000
0000
0000
0000
0000
0000
0000
0000
0000
0000
0000
0000
0000
0000
0000
0000
0000
0000
0000
0000
0000
0000
0000
0000
0000
0000
0000
0000
0000
0000
0000
0000
0000
0000
0000
0000
0000
0000
0000
0000
0000
0000
0000
0000
0000
0000
0000
0000
0000
0000
0000
0000
0000
0000
0000
0000
0000
0000
0000
0000
0000
0000
0000
0000
0000
0000
0000
0000
0000
0000
0000
0000
0000
0000
0000
0000
0000
0000
0000
0000
0000
0000
0000
0000
0000
0000
0000
0000
0000
0000
0000
0000
0000
0000
0000
0000
0000
0000
0000
0000
0000
0000
0000
0000
0000
0000
0000
0000
0000
0000
0000
0000
0000
0000
0000
0000
0000
0000
0000
0000
;
