#TITLE:Somebody Else;
#SUBTITLE:;
#ARTIST:Odyssey Eurobeat;
#TITLETRANSLIT:;
#SUBTITLETRANSLIT:;
#ARTISTTRANSLIT:;
#GENRE:;
#CREDIT:Nezemarth;
#BANNER:Somebody Else.png;
#BACKGROUND:Somebody Else-bg.png;
#LYRICSPATH:;
#CDTITLE:;
#MUSIC:Somebody Else.ogg;
#OFFSET:0.000000;
#SAMPLESTART:61.870998;
#SAMPLELENGTH:12.000000;
#SELECTABLE:YES;
#BPMS:0.000000=154.994995
;
#STOPS:
;
#BGCHANGES:;
#KEYSOUNDS:;
#ATTACKS:;

//---------------dance-single - ----------------
#NOTES:
     dance-single:
     :
     Challenge:
     14:
     0.627898,0.631486,0.304979,0.197340,0.367769,490.000000,456.000000,34.000000,22.000000,0.000000,0.000000,0.627898,0.631486,0.304979,0.197340,0.367769,490.000000,456.000000,34.000000,22.000000,0.000000,0.000000:
// measure 0
0000
0000
0000
0000
,  // measure 1
0000
0000
0000
0000
,  // measure 2
0000
0000
0000
0000
,  // measure 3
0000
0000
0000
0000
,  // measure 4
1000
0000
0010
0000
0100
0001
0000
0100
,  // measure 5
0000
0000
0010
0100
0000
0000
0000
0000
,  // measure 6
0001
0000
0010
0000
0100
1000
0000
0100
,  // measure 7
0010
0000
0000
0001
0000
0000
0100
0000
0000
0000
0100
0000
0010
0000
0000
0000
,  // measure 8
1000
0100
1000
0001
1000
0010
1000
0100
,  // measure 9
0010
0001
1000
0010
0100
0001
1000
1000
,  // measure 10
0001
0100
0001
1000
0001
0010
0001
0100
,  // measure 11
0010
1000
0001
1000
0100
0010
0001
0001
,  // measure 12
1000
0000
0010
0000
1000
0000
0001
1000
0100
0000
0010
0000
0001
0000
1000
0001
,  // measure 13
0100
0000
0010
0000
1000
0000
0100
0010
0001
0000
1000
0000
0001
0000
0100
0010
,  // measure 14
1000
0000
0100
0000
0010
0000
0001
0100
0010
0000
1000
0000
0001
0000
1000
0100
,  // measure 15
0010
0000
0000
0011
0000
0000
0101
0000
0000
0000
0110
0000
1000
0000
0000
0000
,  // measure 16
2010
0000
0000
3001
0000
0000
0010
0000
0000
0100
0010
0000
0001
0000
0100
0000
,  // measure 17
0102
0000
0000
0000
0000
0000
1003
0000
0000
0000
0000
0000
0100
0000
0000
0000
0000
0000
0100
0010
0100
0000
1000
0000
0100
0000
0000
0000
0010
0000
0000
0000
,  // measure 18
0012
0000
0000
1003
0000
0000
0010
0000
0000
0100
0010
0000
1000
0000
0100
0000
,  // measure 19
2100
0000
0000
3001
0000
0000
0100
0000
0000
0010
0100
0000
0001
0000
0010
0000
,  // measure 20
0012
0000
0000
1003
0000
0000
0100
0000
0000
0010
0100
0000
1000
0000
0001
0000
,  // measure 21
0102
0000
0000
0000
0000
0000
1003
0000
0000
0000
0000
0000
0100
0000
0000
0000
0000
0000
0100
0010
0100
0000
0000
0000
1000
0000
0000
0000
0010
0000
0000
0000
,  // measure 22
2010
0000
0000
3001
0000
0000
0010
0000
0000
0100
0010
0000
0001
0000
0100
0000
,  // measure 23
0102
0000
0000
1003
0000
0000
1100
0000
0000
0100
0010
0000
0011
0000
0001
0000
,  // measure 24
0101
0100
1000
0100
0010
0100
0001
0010
,  // measure 25
0100
0001
0100
0010
0100
1000
0100
0010
,  // measure 26
0001
1000
0010
0100
1000
0100
0001
0010
,  // measure 27
0100
0010
1000
0010
0100
1000
0001
0100
,  // measure 28
0010
0000
1000
0100
0000
0100
1000
0000
0010
0100
0001
0000
1000
0000
0100
0000
,  // measure 29
0010
0000
0001
0100
0000
0100
0001
0000
0010
0100
1000
0000
0001
0000
0100
0000
,  // measure 30
0010
0000
1000
0001
0000
0001
1000
0000
0001
0010
0100
0000
1000
0000
0001
0000
,  // measure 31
0100
0000
1000
0000
0100
0000
1001
0000
0000
0000
0000
0000
1000
0100
1000
0100
,  // measure 32
0010
0001
1000
1000
0010
0100
0001
0011
,  // measure 33
0000
0010
0100
1000
0010
1000
0100
0000
,  // measure 34
0110
0100
1000
0001
1000
0010
0100
0001
,  // measure 35
0010
0000
0100
0000
1000
0000
0010
0000
0001
0000
0010
0000
1000
0001
1000
0001
,  // measure 36
0010
0100
1000
1000
0010
1000
0100
0110
,  // measure 37
0000
0010
0100
0000
0100
0010
1000
0000
,  // measure 38
0010
0001
1000
0010
0100
0010
0001
0000
,  // measure 39
1000
0100
1000
0000
0100
0001
0100
0000
0001
0010
0001
0000
0010
1000
0010
0000
,  // measure 40
0001
0000
0001
0000
1000
0000
0010
0000
0100
0000
0001
0000
1000
0100
0010
0000
,  // measure 41
0000
0010
0100
0000
1000
0001
1001
0000
,  // measure 42
0001
0100
1000
0100
0000
0100
0010
1000
,  // measure 43
0001
0000
0010
0000
0100
0000
0000
0000
1000
0000
0100
0001
0000
0100
0010
0000
,  // measure 44
0100
0000
1000
0000
0010
0000
0100
0000
1000
0000
0100
0000
0001
1000
0100
0000
,  // measure 45
0000
0100
0010
0000
0010
0100
1000
0000
,  // measure 46
0001
0100
1000
0100
0000
0100
0010
1000
,  // measure 47
0100
1000
0100
0000
1000
0010
1000
0000
0010
0001
0010
0000
0100
0000
0000
0000
,  // measure 48
0101
0001
1000
0100
0010
0100
1000
0002
,  // measure 49
0000
0103
0010
2000
0000
0000
3100
0000
,  // measure 50
0000
0000
1000
0010
1000
0000
0100
0000
0010
0000
0200
0000
0000
0000
1300
0010
,  // measure 51
1000
0100
0010
0200
0000
1300
0000
0001
,  // measure 52
1000
0000
0010
1000
0001
0010
0100
1000
0001
1000
0010
1000
0100
0010
0001
0000
,  // measure 53
0000
0000
0100
0000
0100
0000
0020
0000
0000
0000
0000
0000
0030
1000
0100
0010
,  // measure 54
0000
0010
0200
0000
0000
0000
1300
0000
0010
0000
1000
0000
0001
0000
0010
0000
,  // measure 55
0110
0000
0000
1100
0000
0000
1001
0000
0000
0000
1000
0001
0100
0000
0010
0000
,  // measure 56
0120
0000
0000
1030
0000
0000
0100
0000
0000
0010
0100
0000
1000
0000
0001
0000
,  // measure 57
1002
0000
0000
0000
0000
0000
0103
0000
0000
0000
0000
0000
0010
0000
0000
0000
0000
0000
0010
0100
0010
0000
0000
0000
1000
0000
0000
0000
0100
0000
0000
0000
,  // measure 58
0120
0000
0000
0031
0000
0000
0100
0000
0000
0010
0100
0000
0001
0000
1000
0000
,  // measure 59
2001
0000
0000
3001
0000
0000
0010
0000
0000
0100
0010
0000
0001
0000
0100
0000
,  // measure 60
0120
0000
0000
1030
0000
0000
0100
0000
0000
0010
0100
0000
1000
0000
0001
0000
,  // measure 61
1002
0000
0000
0000
0000
0000
0103
0000
0000
0000
0000
0000
0010
0000
0000
0000
0000
0000
0010
0100
0010
0000
0000
0000
1000
0000
0000
0000
0100
0000
0000
0000
,  // measure 62
0120
0000
0000
0031
0000
0000
0100
0000
0000
0010
0100
0000
0001
0000
1000
0000
,  // measure 63
2001
0000
0000
3010
0000
0000
0110
0000
0000
0100
0001
0000
0011
0000
1000
0000
,  // measure 64
1001
0000
0000
0000
;

//---------------dance-single - ----------------
#NOTES:
     dance-single:
     :
     Hard:
     12:
     0.525384,0.545375,0.224249,0.035880,0.219764,410.000000,385.000000,25.000000,4.000000,0.000000,0.000000,0.525384,0.545375,0.224249,0.035880,0.219764,410.000000,385.000000,25.000000,4.000000,0.000000,0.000000:
// measure 0
0000
0000
0000
0000
,  // measure 1
0000
0000
0000
0000
,  // measure 2
0000
0000
0000
0000
,  // measure 3
0000
0000
0000
0000
,  // measure 4
1000
0000
0010
0000
0100
0010
0000
1000
,  // measure 5
0000
0000
0010
0100
0000
0000
0000
0000
,  // measure 6
0001
0000
0010
0000
0100
0010
0000
0001
,  // measure 7
1000
0000
0000
0010
0000
0000
0100
0000
0000
0000
0100
0000
0001
0000
0000
0000
,  // measure 8
1000
0000
0100
0000
0001
0100
1000
0000
,  // measure 9
0001
0100
0010
0000
0010
0100
0001
0000
,  // measure 10
1000
0000
0100
0000
0001
0100
0010
0000
,  // measure 11
0010
0001
1000
0000
1000
0010
0100
0000
,  // measure 12
1000
0000
0100
0000
0001
1000
0100
0000
,  // measure 13
0010
1000
0001
0000
0001
1000
0010
0000
,  // measure 14
0001
0000
1000
0000
0010
0100
1000
0100
,  // measure 15
0010
0000
0000
1000
0000
0000
0100
0000
0000
0000
0010
0000
0001
0000
0000
0000
,  // measure 16
0011
0000
0000
1000
0000
0000
0010
0000
0000
0100
0001
0000
1000
0000
0100
0000
,  // measure 17
1100
0000
0000
0100
0000
0000
0010
0000
0000
0010
0001
0000
1000
0000
0010
0000
,  // measure 18
1010
0000
0000
0001
0000
0000
0010
0000
0000
0100
1000
0000
0001
0000
0100
0000
,  // measure 19
0101
0000
0000
0100
0000
0000
0010
0000
0000
0100
1000
0000
0100
0000
0001
0000
,  // measure 20
0011
0000
0000
1000
0000
0000
0100
0000
0000
0010
0100
0000
1000
0000
0010
0000
,  // measure 21
1010
0000
0000
0010
0000
0000
0100
0000
0000
0100
0001
0000
1000
0000
0100
0000
,  // measure 22
1100
0000
0000
0001
0000
0000
0100
0000
0000
0010
1000
0000
0001
0000
0010
0000
,  // measure 23
0011
0000
0000
1001
0000
0000
0101
0000
0000
0000
0100
0000
0010
0000
1000
0000
,  // measure 24
0100
0000
0010
0100
1000
0001
0100
0001
,  // measure 25
1000
0000
0100
0000
0010
0001
0100
0000
,  // measure 26
0010
0000
1000
0100
0010
0000
0100
1000
,  // measure 27
0001
0000
0100
0000
0010
0100
0001
0000
,  // measure 28
1001
0000
1000
0100
0000
1000
0100
0000
0010
0000
0001
0000
1000
0000
0010
0000
,  // measure 29
0000
0000
0010
0100
0000
0010
0100
0000
0001
0000
0010
0000
0100
0000
1000
0000
,  // measure 30
0001
0000
0100
0001
0000
0100
0001
0000
1000
0000
0100
0000
0010
0000
0001
0000
,  // measure 31
1000
0010
0100
1001
0000
0000
0000
0000
,  // measure 32
1000
0100
0010
0100
1000
0100
0001
0101
,  // measure 33
0000
0100
1000
0000
1000
0001
0100
0000
,  // measure 34
0100
1000
0100
0010
0100
0001
1000
0100
,  // measure 35
0010
0001
1000
0001
0010
0100
0010
0000
,  // measure 36
0001
0010
0100
0010
1000
0010
0001
0011
,  // measure 37
0000
0001
1000
0000
1000
0010
0100
0000
,  // measure 38
0001
1000
0100
1000
0001
0100
0010
0000
,  // measure 39
1000
1000
1000
0001
0010
0100
0010
0000
,  // measure 40
0001
0100
1000
0100
0010
1000
0100
0010
,  // measure 41
0000
0010
0001
0000
0001
1000
0010
0000
,  // measure 42
0010
0100
0001
0010
0100
0001
0100
0010
,  // measure 43
0000
0010
0001
0000
0001
0100
0010
0000
,  // measure 44
0010
1000
0100
0001
0100
1000
0001
0100
,  // measure 45
0000
0100
0010
0000
0010
0001
1000
0000
,  // measure 46
1000
0100
0001
1000
0000
0100
0010
1000
,  // measure 47
0000
1000
0010
0000
0010
0001
1000
0010
,  // measure 48
0100
0001
1000
0100
0010
0100
1000
0001
,  // measure 49
0000
0001
0100
0020
0000
0000
1030
0000
,  // measure 50
0000
0000
0001
1000
0001
0000
0000
0000
0010
0000
0200
0000
0000
0000
1300
0001
,  // measure 51
1000
0000
0010
0200
0000
1000
0000
0301
,  // measure 52
0000
0000
0001
0010
0000
0001
1000
0000
0010
1000
0000
0001
1000
0000
1000
0100
,  // measure 53
0000
0000
0010
0000
0010
0000
0001
0000
0000
0000
0100
0000
0000
0001
0100
0001
,  // measure 54
0000
2000
0000
3100
0010
0100
1000
0001
,  // measure 55
0100
0000
0000
0010
0000
0000
0110
0000
0000
0000
0100
0000
0001
0000
0000
0000
,  // measure 56
0011
0000
0000
1000
0000
0000
0100
0000
0000
0010
0100
0000
1000
0000
0001
0000
,  // measure 57
0101
0000
0000
0100
0000
0000
0010
0000
0000
0100
0001
0000
1000
0000
0100
0000
,  // measure 58
1100
0000
0000
0001
0000
0000
0100
0000
0000
0100
0010
0000
1000
0000
0100
0000
,  // measure 59
1100
0000
0000
0100
0000
0000
0010
0000
0000
0001
0010
0000
0100
0000
1000
0000
,  // measure 60
1010
0000
0000
0001
0000
0000
0100
0000
0000
0010
0100
0000
0001
0000
1000
0000
,  // measure 61
1100
0000
0000
0100
0000
0000
0010
0000
0000
0001
0010
0000
0100
0000
1000
0000
,  // measure 62
1010
0000
0000
0010
0000
0000
0100
0000
0000
0001
0100
0000
0010
0000
1000
0000
,  // measure 63
1100
0000
0000
0001
0000
0000
0011
0000
0000
0010
0100
0000
1000
0000
0001
0000
,  // measure 64
1001
0000
0000
0000
;

//---------------dance-single - ----------------
#NOTES:
     dance-single:
     :
     Medium:
     10:
     0.427996,0.459263,0.044850,0.062790,0.098670,334.000000,329.000000,5.000000,7.000000,0.000000,0.000000,0.427996,0.459263,0.044850,0.062790,0.098670,334.000000,329.000000,5.000000,7.000000,0.000000,0.000000:
// measure 0
0000
0000
0000
0000
,  // measure 1
0000
0000
0000
0000
,  // measure 2
0000
0000
0000
0000
,  // measure 3
0000
0000
0000
0000
,  // measure 4
1000
0000
0100
0000
0001
0100
0000
0010
,  // measure 5
0000
0000
0000
0001
0000
0000
0000
0000
,  // measure 6
1000
0000
0010
0000
0001
0010
0000
0100
,  // measure 7
0001
0000
0000
0001
0000
0000
1000
0000
0000
0000
1000
0000
0100
0000
0000
0000
,  // measure 8
0010
0000
0001
0000
1000
0010
0000
0010
,  // measure 9
0100
0000
0001
1000
0100
0000
0000
0000
,  // measure 10
0010
0000
0001
0000
1000
0010
0000
0010
,  // measure 11
0100
0000
0001
0010
0100
0000
1000
0000
,  // measure 12
0001
0000
0010
0000
0100
1000
0000
1000
,  // measure 13
0001
0100
1000
0100
,  // measure 14
0010
0000
1000
0000
0100
0010
0000
0010
,  // measure 15
1000
0000
0000
1000
0000
0000
0010
0000
0000
0000
0010
0000
0001
0000
0000
0000
,  // measure 16
1000
0000
0000
0001
0000
0000
0100
0000
0000
0000
0010
0000
1000
0000
0001
0000
,  // measure 17
0010
0000
0000
0100
0000
0000
1000
0000
0000
0000
0001
0000
0100
0000
0010
0000
,  // measure 18
1000
0000
0000
0100
0000
0000
0010
0000
0000
0000
0001
0000
1000
0000
0010
0000
,  // measure 19
0100
0000
0000
0001
0000
0000
1000
0000
0000
0000
0100
0000
0010
0000
0100
0000
,  // measure 20
1000
0000
0000
0010
0000
0000
0100
0000
0000
0000
0001
0000
0010
0000
0100
0000
,  // measure 21
1000
0000
0000
0001
0000
0000
0100
0000
0000
0000
0010
0000
1000
0000
0001
0000
,  // measure 22
0010
0000
0000
0100
0000
0000
1000
0000
0000
0000
0001
0000
0100
0000
0010
0000
,  // measure 23
0110
0000
0000
0100
0000
0000
0001
0000
0000
0001
1000
0000
0100
0000
0010
0000
,  // measure 24
0100
0000
1000
0001
0100
0000
0010
0000
,  // measure 25
1000
0000
0001
0010
0100
0000
1000
0000
,  // measure 26
0001
0000
1000
0100
0010
0000
0001
0000
,  // measure 27
0100
0000
0010
0000
0100
0001
1000
0000
,  // measure 28
1100
0000
0100
0000
0010
0100
1000
0000
,  // measure 29
0001
0000
0100
0000
0010
0100
0001
0000
,  // measure 30
1000
0000
0100
0000
0001
0100
1000
0000
,  // measure 31
0001
0100
0010
0100
0000
0000
0000
0000
,  // measure 32
0001
1000
0100
1000
0001
0000
0001
0010
,  // measure 33
0000
0100
1000
0001
,  // measure 34
0100
0010
0100
0001
0100
0000
0010
1000
,  // measure 35
0000
1000
0100
0010
0002
0000
0003
0000
,  // measure 36
1000
0010
0100
0010
1000
0000
1000
0001
,  // measure 37
0000
0000
0010
0000
0100
1000
0001
0000
,  // measure 38
0100
0010
1000
0100
0010
0000
0001
0000
,  // measure 39
1001
0000
0001
0100
0020
0000
0001
0000
,  // measure 40
1030
0100
0010
1000
0000
0000
0000
0010
,  // measure 41
0000
0010
0001
0000
0001
0100
0000
0000
,  // measure 42
0010
1000
0001
0010
0000
0010
0100
1000
,  // measure 43
0000
1000
0001
0000
0100
0010
0100
0000
,  // measure 44
0001
0010
0100
1000
0000
0000
0000
0010
,  // measure 45
0000
0010
0100
0000
0100
0001
1000
0000
,  // measure 46
0100
0010
0100
1000
0000
1000
0001
0100
,  // measure 47
0000
0100
0010
0000
1000
0100
0000
0010
,  // measure 48
0100
1000
0001
1000
0100
0010
0001
1000
,  // measure 49
0000
1000
0010
0002
0000
0013
0100
0000
,  // measure 50
0001
0010
1000
0010
0001
2000
0000
3010
,  // measure 51
0100
1000
0100
0002
0000
2003
0000
3100
,  // measure 52
0010
1000
0010
0001
0100
0010
0100
0001
,  // measure 53
0000
0000
1000
0000
0100
0000
0100
0000
0000
0000
0010
0000
0000
0001
0100
0000
,  // measure 54
0000
0020
0000
1030
0001
1000
0100
0010
,  // measure 55
0001
0000
0000
1000
0000
0000
0100
0000
0000
0000
0010
0000
0100
0000
0000
0000
,  // measure 56
1000
0000
0000
0001
0000
0000
0100
0000
0000
0000
0010
0000
0100
0000
0001
0000
,  // measure 57
0010
0000
0000
0100
0000
0000
1000
0000
0000
0000
0001
0000
0100
0000
0010
0000
,  // measure 58
1000
0000
0000
0100
0000
0000
0010
0000
0000
0000
0100
0000
1000
0000
0001
0000
,  // measure 59
0100
0000
0000
0010
0000
0000
1000
0000
0000
0000
0001
0000
0010
0000
0100
0000
,  // measure 60
1000
0000
0000
0001
0000
0000
0100
0000
0000
0000
0010
0000
0100
0000
0001
0000
,  // measure 61
1000
0000
0000
0100
0000
0000
0010
0000
0000
0000
0001
0000
1000
0000
0010
0000
,  // measure 62
0100
0000
0000
0001
0000
0000
1000
0000
0000
0000
0100
0000
0010
0000
0100
0000
,  // measure 63
1100
0000
0000
1000
0000
0000
0001
0000
0000
0001
0100
0000
0010
0000
1000
0000
,  // measure 64
1001
0000
0000
0000
;

//---------------dance-single - ----------------
#NOTES:
     dance-single:
     :
     Easy:
     7:
     0.302416,0.344447,0.044850,0.044850,0.094185,236.000000,231.000000,5.000000,5.000000,0.000000,0.000000,0.302416,0.344447,0.044850,0.044850,0.094185,236.000000,231.000000,5.000000,5.000000,0.000000,0.000000:
// measure 0
0000
0000
0000
0000
,  // measure 1
0000
0000
0000
0000
,  // measure 2
0000
0000
0000
0000
,  // measure 3
0000
0000
0000
0000
,  // measure 4
1000
0001
0100
0000
,  // measure 5
0010
0000
0100
0000
,  // measure 6
0001
1000
0100
0000
,  // measure 7
0010
0000
0000
0010
0000
0000
0100
0000
0000
0000
0000
0000
1000
0000
0000
0000
,  // measure 8
0001
0100
0010
0100
,  // measure 9
0001
1000
0100
0000
,  // measure 10
0010
0100
1000
0001
,  // measure 11
0100
0010
0100
0000
,  // measure 12
0001
0010
1000
0010
,  // measure 13
0100
1000
0001
0000
,  // measure 14
1000
0010
0100
1000
,  // measure 15
0100
0000
0000
0100
0000
0000
0001
0000
0000
0000
0000
0000
1000
0000
0000
0000
,  // measure 16
0001
0000
0000
0001
0000
0000
0001
0000
0000
0000
0000
0000
0010
0000
0000
0000
,  // measure 17
1000
0000
0000
1000
0000
0000
1000
0000
0000
0000
0000
0000
0010
0000
0000
0000
,  // measure 18
0001
0000
0000
0001
0000
0000
0001
0000
0000
0000
0000
0000
0100
0000
0000
0000
,  // measure 19
1000
0000
0000
1000
0000
0000
1000
0000
0000
0000
0000
0000
0100
0000
0000
0000
,  // measure 20
0010
0000
0000
0010
0000
0000
0010
0000
0000
0000
0000
0000
1000
0000
0000
0000
,  // measure 21
0100
0000
0000
0100
0000
0000
0100
0000
0000
0000
0000
0000
0010
0000
0000
0000
,  // measure 22
0001
0000
0000
0001
0000
0000
0001
0000
0000
0000
0000
0000
1000
0000
0000
0000
,  // measure 23
0010
0000
0000
0010
0000
0000
0100
0000
0000
0000
0100
0000
0001
0000
0000
0000
,  // measure 24
1001
0000
1000
0100
,  // measure 25
0010
0000
0100
1000
,  // measure 26
0001
0100
0010
0100
,  // measure 27
0001
0010
0100
1000
,  // measure 28
1001
0000
1000
0010
,  // measure 29
0100
0000
0001
1000
,  // measure 30
0100
0010
1000
0010
,  // measure 31
0100
0000
1000
0001
0000
0000
0000
0000
,  // measure 32
0100
0100
0010
1000
,  // measure 33
0100
0010
0000
0000
0100
0000
1000
0000
,  // measure 34
0001
0100
0010
0001
,  // measure 35
0010
0100
0001
0000
,  // measure 36
1001
0000
0001
0000
1000
0000
0100
0010
,  // measure 37
0000
0100
1000
0001
,  // measure 38
0100
0010
0100
0001
,  // measure 39
1000
0000
0100
0010
0200
0000
0000
0000
,  // measure 40
1300
0000
1000
0001
0000
0000
0000
0000
,  // measure 41
0100
0010
1000
0100
,  // measure 42
0010
0000
0100
1000
0000
0000
0000
0000
,  // measure 43
0001
0100
1000
0100
,  // measure 44
0010
0000
1000
0100
0000
0000
0000
0000
,  // measure 45
0010
0100
1000
0001
,  // measure 46
0100
0000
0010
0100
0000
0000
0100
0001
,  // measure 47
0000
1000
0100
0000
0010
0000
0100
0000
,  // measure 48
1000
0010
0100
0001
,  // measure 49
1000
0100
0020
0130
,  // measure 50
0000
0000
1000
0000
0010
0200
0000
0000
,  // measure 51
0301
0000
0010
0200
0000
1000
0000
0310
,  // measure 52
0000
0000
0001
0000
0000
0100
0000
0000
0010
0000
0000
1000
0000
0000
0100
0000
,  // measure 53
0000
0010
0100
0010
0000
0001
0000
1000
,  // measure 54
0000
0020
0000
0130
0010
0000
1000
0000
,  // measure 55
0001
0000
0000
0010
0000
0000
0100
0000
0000
0000
0010
0000
0001
0000
0000
0000
,  // measure 56
0011
0000
0000
0001
0000
0000
0001
0000
0000
0000
0000
0000
0100
0000
0000
0000
,  // measure 57
1000
0000
0000
1000
0000
0000
1000
0000
0000
0000
0000
0000
0100
0000
0000
0000
,  // measure 58
0001
0000
0000
0001
0000
0000
0001
0000
0000
0000
0000
0000
0010
0000
0000
0000
,  // measure 59
1000
0000
0000
1000
0000
0000
1000
0000
0000
0000
0000
0000
0010
0000
0000
0000
,  // measure 60
0100
0000
0000
0100
0000
0000
0100
0000
0000
0000
0000
0000
1000
0000
0000
0000
,  // measure 61
0010
0000
0000
0010
0000
0000
0010
0000
0000
0000
0000
0000
1000
0000
0000
0000
,  // measure 62
0001
0000
0000
0001
0000
0000
0010
0000
0000
0000
0000
0000
0100
0000
0000
0000
,  // measure 63
1000
0000
0000
0010
0000
0000
0100
0000
0000
0000
0000
0000
0001
0000
1000
0000
,  // measure 64
1001
0000
0000
0000
;

//---------------dance-single - ----------------
#NOTES:
     dance-single:
     :
     Beginner:
     4:
     0.134550,0.200927,0.044850,0.071760,0.000000,105.000000,100.000000,5.000000,8.000000,0.000000,0.000000,0.134550,0.200927,0.044850,0.071760,0.000000,105.000000,100.000000,5.000000,8.000000,0.000000,0.000000:
// measure 0
0000
0000
0000
0000
,  // measure 1
0000
0000
0000
0000
,  // measure 2
0000
0000
0000
0000
,  // measure 3
0000
0000
0000
0000
,  // measure 4
0000
0000
0000
0000
,  // measure 5
0000
0000
0000
0000
,  // measure 6
0000
0000
0000
0000
,  // measure 7
0000
0000
0000
0000
,  // measure 8
1000
1000
0100
0000
,  // measure 9
0010
0000
0100
0000
,  // measure 10
0001
0001
0100
0000
,  // measure 11
0010
0000
0100
0000
,  // measure 12
1000
1000
0010
0000
,  // measure 13
0100
0000
0010
0000
,  // measure 14
0001
0001
0010
0000
,  // measure 15
0200
0000
0000
0300
,  // measure 16
1001
0000
0000
1000
,  // measure 17
0100
0000
0000
0010
,  // measure 18
0100
0000
0000
1000
,  // measure 19
0100
0000
0000
0010
,  // measure 20
0001
0000
0000
0100
,  // measure 21
0010
0000
0000
0100
,  // measure 22
0001
0000
0000
0000
,  // measure 23
2000
0000
0000
3000
,  // measure 24
0001
0000
0000
0000
,  // measure 25
1000
0000
0000
0000
,  // measure 26
0100
0000
0000
0000
,  // measure 27
0010
0000
0000
0000
,  // measure 28
0100
0000
0000
0000
,  // measure 29
1000
0000
0000
0000
,  // measure 30
0010
0000
0000
0000
,  // measure 31
0100
0000
0000
0000
,  // measure 32
0001
0000
0000
0000
0002
0000
0000
0003
,  // measure 33
0000
0000
0000
0000
,  // measure 34
1000
0000
0100
0000
,  // measure 35
0020
0000
0030
0000
,  // measure 36
0001
0000
0000
0000
0200
0000
0000
0300
,  // measure 37
0000
0000
0000
0000
,  // measure 38
0010
0000
1000
0000
,  // measure 39
0001
0000
0010
0000
,  // measure 40
0001
0001
0000
0000
,  // measure 41
1000
1000
0010
0000
,  // measure 42
0100
0100
0000
0000
,  // measure 43
0010
1000
0100
0000
,  // measure 44
0010
0010
0000
0000
,  // measure 45
0100
1000
0001
0000
,  // measure 46
0100
0100
0000
0000
,  // measure 47
0010
0100
0001
0000
,  // measure 48
2002
0000
0000
0000
,  // measure 49
0000
3003
0000
0000
,  // measure 50
1000
0000
0000
0000
,  // measure 51
1000
0000
0000
0000
,  // measure 52
1001
0000
0001
0000
,  // measure 53
0010
0000
0100
0000
,  // measure 54
1000
0000
0010
0000
,  // measure 55
2000
0000
0000
3000
,  // measure 56
1001
0000
0000
1000
,  // measure 57
0100
0000
0000
0010
,  // measure 58
0100
0000
0000
1000
,  // measure 59
0100
0000
0000
0010
,  // measure 60
0001
0000
0000
0100
,  // measure 61
0010
0000
0000
0100
,  // measure 62
0001
0000
0000
1000
,  // measure 63
0100
0000
0010
0100
,  // measure 64
1001
0000
0000
0000
;
