#VERSION:0.83;
#TITLE:So In Love;
#SUBTITLE:;
#ARTIST:MK&Kanae Asaba;
#TITLETRANSLIT:;
#SUBTITLETRANSLIT:;
#ARTISTTRANSLIT:;
#GENRE:;
#ORIGIN:;
#CREDIT:;
#BANNER:banner.png;
#BACKGROUND:bg.png;
#PREVIEWVID:;
#JACKET:jacket.png;
#CDIMAGE:;
#DISCIMAGE:;
#LYRICSPATH:;
#CDTITLE:;
#MUSIC:So In Love.ogg;
#OFFSET:-0.279000;
#SAMPLESTART:46.184555;
#SAMPLELENGTH:13.153843;
#SELECTABLE:YES;
#BPMS:0.000=130.000;
#STOPS:;
#DELAYS:;
#WARPS:;
#TIMESIGNATURES:0.000=4=4;
#TICKCOUNTS:0.000=4;
#COMBOS:0.000=1;
#SPEEDS:0.000=1.000=0.000=0;
#SCROLLS:0.000=1.000;
#FAKES:;
#LABELS:0.000=Song Start;
#BGCHANGES:;
#KEYSOUNDS:;
#ATTACKS:
;

//---------------dance-single - ----------------
#NOTEDATA:;
#CHARTNAME:;
#STEPSTYPE:dance-single;
#DESCRIPTION:;
#CHARTSTYLE:;
#DIFFICULTY:Medium;
#METER:12;
#RADARVALUES:0.425032,0.490768,0.124366,0.401799,0.411365,311.000000,298.000000,13.000000,42.000000,0.000000,0.000000,0.000000,0.000000,0.000000,0.425032,0.490768,0.124366,0.401799,0.411365,311.000000,298.000000,13.000000,42.000000,0.000000,0.000000,0.000000,0.000000,0.000000;
#CREDIT:Kingly;
#NOTES:
0000
0000
0000
0000
,
0000
0000
0000
0000
,
0000
0000
0000
0000
,
0000
0000
0000
0000
,
0000
0000
0000
0000
,
0000
0000
0000
0000
,
1001
0000
0002
0000
0000
0203
0000
0310
,
1000
0000
0000
0001
0000
0000
0010
0000
0000
0100
0000
0000
1000
0000
0002
0000
,
0000
0000
0100
0000
0000
1000
0000
0023
,
0000
0000
0130
0000
,
1001
0000
2000
0000
0000
3020
0000
0130
,
0001
0000
0000
1000
0000
0000
0100
0000
0000
0010
0000
0000
0001
0000
1000
0000
,
0010
2000
0010
0000
0000
0001
0000
3200
,
0000
0000
0310
0000
,
1001
0000
0002
0000
0000
0013
0000
0100
,
1000
0000
0000
0001
0000
0000
0100
0000
0000
0010
0000
0000
1000
0000
0001
0000
,
0100
0000
0001
1000
0100
0010
0100
0002
,
0000
2003
3020
0032
,
2003
0000
0000
3001
0102
0000
0000
1003
,
2100
0000
3000
0001
0102
0000
1003
0010
,
2010
0000
0000
3001
0012
0000
0000
1003
,
2010
0000
0000
3001
0021
0000
0130
1000
,
0001
0100
0001
0100
0010
1000
0010
1000
,
0001
0010
0001
0010
0100
1000
0100
1000
,
0001
0000
0100
0000
1000
0000
0001
0000
0010
0000
1000
0000
0001
1000
0001
0000
,
0000
0000
0000
0000
2000
0000
3200
0000
0302
0000
0000
0203
0000
0000
1300
0000
,
0001
0000
0000
0000
1001
0000
1000
0100
0000
0000
1000
0001
0000
0000
1000
0010
,
0000
0000
0100
0001
0000
0000
1000
0001
0000
0000
0010
0001
0000
0000
1000
0100
,
1000
0000
0000
0000
0001
0000
0100
0001
0000
0000
1000
0001
0000
0000
0010
0001
,
0000
0000
1000
0100
0000
0000
1000
0001
0000
0000
1000
0010
0000
0000
0100
0001
,
0100
0000
0000
0000
1001
0000
0001
0100
0000
0000
0001
1000
0000
0000
0001
0010
,
0000
0000
0100
1000
0000
0000
0001
1000
0000
0000
0010
1000
0000
0000
0001
0100
,
0001
0000
0000
0000
1000
0000
0100
1000
0000
0000
0001
1000
0000
0000
0010
1000
,
0000
0000
0001
0100
0002
0000
0203
0000
2300
0000
0000
3200
0000
0000
0302
0000
,
1003
0000
1000
0000
1001
0000
0001
0100
0000
0000
0100
0010
0000
0000
0010
1000
,
0000
0000
1000
0100
0000
0000
0100
0010
0000
0000
0010
0001
0000
0000
0001
1000
,
0001
0000
0000
0000
1000
0000
0010
0100
0000
0000
0100
0001
0000
0000
0001
0010
,
0000
0000
0010
0100
0000
0000
0100
1000
0000
0000
1000
0001
0000
0000
0001
0100
,
0001
0000
1000
0000
0010
0000
1000
0100
0000
0000
0100
0010
0000
0000
0010
0001
,
0000
0000
0001
0100
0000
0000
0100
0010
0000
0000
0010
1000
0000
0000
1000
0001
,
1000
0000
0000
0000
0001
0000
0010
0100
0000
0000
0100
1000
0000
0000
1000
0010
,
0000
0000
0010
0100
0000
0000
0100
0001
0000
0000
0001
1000
0000
0000
1000
0100
,
0020
0000
0000
0000
0031
0000
1000
0010
1000
0000
0001
0000
0010
0000
0100
0000
,
1000
0000
0001
0100
0000
0000
0001
1000
0000
0000
0001
0010
0000
0000
0100
1000
,
0100
0000
0000
0000
1000
0000
0001
0100
0000
0000
0001
1000
0000
0000
0001
0010
,
0000
0000
0100
1000
0000
0000
0001
1000
0000
0000
0010
1000
0000
0000
0001
0100
,
0001
0000
0000
0000
1000
0000
0100
0010
0000
0000
0100
0001
0000
0000
0100
0010
,
0000
0000
0100
1000
0000
0000
0010
0100
0000
0000
0010
0001
0000
0000
0010
0100
,
0010
0000
1000
0000
0001
0000
0100
0010
0000
0000
0100
1000
0000
0000
0100
0010
,
0000
0000
0100
0001
2000
0000
3200
0000
0302
0000
0000
0203
0000
0000
2300
0000
,
3002
0000
0000
0000
,
0203
0000
0000
0320
0000
0000
0000
0000
,
2030
0000
0000
0000
,
3200
0000
0000
0020
0000
0000
0000
0000
,
0330
0000
0000
0000
;

//---------------dance-single - Rolls FS RH- XO-----------------
#NOTEDATA:;
#CHARTNAME:;
#STEPSTYPE:dance-single;
#DESCRIPTION:Rolls FS RH- XO-;
#CHARTSTYLE:;
#DIFFICULTY:Hard;
#METER:15;
#RADARVALUES:0.408632,0.619918,0.095666,0.344399,0.344399,299.000000,289.000000,10.000000,36.000000,34.000000,0.000000,12.000000,0.000000,0.000000,0.408632,0.619918,0.095666,0.344399,0.344399,299.000000,289.000000,10.000000,36.000000,34.000000,0.000000,12.000000,0.000000,0.000000;
#CREDIT:Kingly;
#NOTES:
// measure 0
0000
0000
0000
0000
,  // measure 1
0000
0000
0000
0000
,  // measure 2
0000
0000
0000
0000
,  // measure 3
0000
0000
0000
0000
,  // measure 4
0000
0000
0000
0000
,  // measure 5
0000
0000
0000
0000
,  // measure 6
1001
0000
0002
0000
0000
0203
0000
0310
,  // measure 7
1000
0000
0001
0010
0000
0001
0100
0000
0010
1000
0000
0100
1000
0000
0002
0000
,  // measure 8
0000
0000
0100
0000
0000
1000
0000
0023
,  // measure 9
0000
0000
0000
0000
0100
0130
0000
0000
,  // measure 10
1001
0000
1000
0000
0010
0000
0010
0100
,  // measure 11
0001
0000
1000
0100
0000
1000
0010
0000
0100
0001
0000
0010
0001
0000
1000
0000
,  // measure 12
0010
2000
0010
0000
0000
0001
0000
3200
,  // measure 13
0000
0000
0000
0000
0010
0310
0000
0000
,  // measure 14
1001
0000
0001
0000
0010
0000
0010
0100
,  // measure 15
1000
0000
0001
0100
0000
0001
0010
0000
0100
1000
0000
0010
1000
0000
0001
0000
,  // measure 16
0100
0000
0001
1000
0100
0010
0100
0002
,  // measure 17
0000
2003
3020
0032
,  // measure 18
2003
0000
3010
0100
0102
0000
0013
0100
,  // measure 19
2100
0000
3010
0100
0102
0000
0010
1003
,  // measure 20
0020
0000
0130
0001
0021
0000
0130
1000
,  // measure 21
1020
0000
0130
0001
0021
0000
0100
0031
,  // measure 22
1000
1000
0010
0010
0100
0100
0001
0001
,  // measure 23
1000
1000
0100
0100
0010
0010
0001
0001
,  // measure 24
1000
0010
1000
0010
0100
0001
0100
0001
1000
0100
0010
0001
1000
0010
1000
0200
,  // measure 25
0000
0000
0000
0000
0000
0000
0000
0000
0300
0000
0010
0001
1000
0000
0000
0000
,  // measure 26
1001
0000
0000
0000
0000
0000
0000
0000
0000
0000
0000
0000
1000
0000
0000
0001
0000
0010
0000
0100
0000
4000
0000
0000
0000
0000
0000
0000
0000
0000
0010
0000
0000
0000
0000
0000
0000
0000
0000
0000
0000
0000
0001
0000
0000
0000
0000
0000
,  // measure 27
0000
0000
0100
0000
0000
0000
0001
0000
0000
0000
0010
0000
0000
0000
0100
3000
,  // measure 28
0001
0000
0000
0000
0000
0000
0000
0000
0000
0000
0000
0000
0001
0000
0000
1000
0000
0010
0000
0100
0000
0004
0000
0000
0000
0000
0000
0000
0000
0000
0010
0000
0000
0000
0000
0000
0000
0000
0000
0000
0000
0000
1000
0000
0000
0000
0000
0000
,  // measure 29
0000
0000
0100
0000
0000
0000
1000
0000
0000
0000
0010
0000
0000
0000
0100
0003
,  // measure 30
1000
0000
0000
0000
0000
0000
0000
0000
0000
0000
0000
0000
1000
0000
0000
0010
0000
0100
0000
0001
0000
4000
0000
0000
0000
0000
0000
0000
0000
0000
0010
0000
0000
0000
0000
0000
0000
0000
0000
0000
0000
0000
0100
0000
0000
0000
0000
0000
,  // measure 31
0000
0000
0001
0000
0000
0000
0010
0000
0000
0000
0100
0000
0000
0000
0010
3000
,  // measure 32
0001
0000
0000
0000
0000
0000
0000
0000
0000
0000
0000
0000
0001
0000
0000
0010
0000
0100
0000
1000
0000
0004
0000
0000
0000
0000
0000
0000
0000
0000
0010
0000
0000
0000
0000
0000
0000
0000
0000
0000
0000
0000
0100
0000
0000
0000
0000
0000
,  // measure 33
0000
0000
0010
0003
2000
0000
3200
0000
0302
0000
0000
0203
0000
0000
2300
0000
,  // measure 34
3100
0000
0000
00M0
0000
0000
0100
0000
0000
0000
0000
0000
0001
0000
0000
0010
0000
0001
0000
1000
0000
0400
0000
0000
0000
0000
0000
0000
0000
0000
M001
0000
0000
0000
0000
0000
0000
0000
0000
0000
0000
0000
100M
0000
0000
0000
0000
0000
,  // measure 35
0000
0000
M001
0000
0000
0000
100M
0000
0000
0000
M001
0000
0000
0000
100M
0300
,  // measure 36
0010
0000
0000
0000
0000
0000
0001
0000
0000
0000
0000
0000
1000
0000
0000
0010
0000
1000
0000
0001
0000
0400
0000
0000
0000
0000
0000
0000
0000
0000
100M
0000
0000
0000
0000
0000
0000
0000
0000
0000
0000
0000
M001
0000
0000
0000
0000
0000
,  // measure 37
0000
0000
100M
0000
0000
0000
M001
0000
0000
0000
100M
0000
0000
0000
M001
0300
,  // measure 38
0010
0000
0000
0000
0000
0000
1000
0000
0000
0000
0000
0000
0001
0000
0000
0010
0000
0001
0000
1000
0000
0040
0000
0000
0000
0000
0000
0000
0000
0000
M001
0000
0000
0000
0000
0000
0000
0000
0000
0000
0000
0000
100M
0000
0000
0000
0000
0000
,  // measure 39
0000
0000
M001
0000
0000
0000
100M
0000
0000
0000
M001
0000
0000
0000
100M
0030
,  // measure 40
0100
0000
0000
0000
0000
0000
0001
0000
0000
0000
0000
0000
1000
0000
0000
0100
0000
1000
0000
0001
0000
0040
0000
0000
0000
0000
0000
0000
0000
0000
100M
0000
0000
0000
0000
0000
0000
0000
0000
0000
0000
0000
M001
0000
0000
0000
0000
0000
,  // measure 41
0000
0000
100M
0000
0000
0000
M001
0000
0000
0000
100M
0000
0000
0000
M001
0030
,  // measure 42
0200
0000
0000
0000
0000
0000
0000
0000
0000
0000
0000
0000
1300
0000
0000
0001
0000
0010
0000
0100
0000
4000
0000
0000
0001
0000
0000
0000
0000
0000
0010
0000
0000
0000
0000
0000
0001
0000
0000
0000
0000
0000
0100
0000
0000
0000
0000
0000
,  // measure 43
0010
0000
0001
0000
0000
0000
0100
0000
0000
0000
0010
0000
0000
0000
0001
3000
,  // measure 44
0010
0000
0000
0000
0000
0000
0100
0000
0000
0000
0000
0000
0001
0000
0000
1000
0000
0100
0000
0010
0000
0004
0000
0000
0000
0000
0000
0000
0000
0000
0100
0000
0000
0000
0000
0000
0000
0000
0000
0000
0000
0000
0010
0000
0000
0000
0000
0000
,  // measure 45
0000
0000
1000
0000
0000
0000
0010
0000
0000
0000
0100
0000
0000
0000
1000
0003
,  // measure 46
0010
0000
0000
0000
0000
0000
0001
0000
0000
0000
0000
0000
1000
0000
0000
0010
0000
1000
0000
0001
0000
0400
0000
0000
0000
0000
0000
0000
0000
0000
100M
0000
0000
0000
0000
0000
0000
0000
0000
0000
0000
0000
M010
0000
0000
0000
0000
0000
,  // measure 47
0000
0000
10M0
0000
0000
0000
M001
0000
0000
0000
001M
0000
0000
0000
00M1
0300
,  // measure 48
0010
0000
0000
0000
0000
0000
1000
0000
0000
0000
0000
0000
0001
0000
0000
0010
0000
0001
0000
1000
0000
0400
0000
0000
0000
0000
0000
0000
0000
0000
M001
0000
0000
0000
0000
0000
0000
0000
0000
0000
0000
0000
100M
0000
0000
0000
0000
0000
,  // measure 49
0000
0000
M001
0300
0020
0000
0230
0000
2300
0000
0000
3200
0000
0000
0302
0000
,  // measure 50
2003
0000
0000
0000
,  // measure 51
3200
0000
0000
0320
0000
0000
0000
0000
,  // measure 52
0032
0000
0000
0000
,  // measure 53
0203
0000
0000
0020
0000
0000
0000
0000
,  // measure 54
0330
0000
0000
0000
;

//---------------dance-single - ----------------
#NOTEDATA:;
#CHARTNAME:;
#STEPSTYPE:dance-single;
#DESCRIPTION:;
#CHARTSTYLE:;
#DIFFICULTY:Easy;
#METER:5;
#RADARVALUES:0.237799,0.335789,0.066966,0.191333,0.000000,174.000000,167.000000,7.000000,20.000000,0.000000,0.000000,0.000000,0.000000,0.000000,0.237799,0.335789,0.066966,0.191333,0.000000,174.000000,167.000000,7.000000,20.000000,0.000000,0.000000,0.000000,0.000000,0.000000;
#CREDIT:Kingly;
#NOTES:
0000
0000
0000
0000
,
0000
0000
0000
0000
,
0000
0000
0000
0000
,
0000
0000
0000
0000
,
0000
0000
0000
0000
,
0000
0000
0000
0000
,
0000
0000
2000
0000
0000
3200
0000
0000
,
0310
0001
1000
0010
,
0100
0000
0002
0000
0000
0000
0000
2000
,
0000
0000
3003
0000
,
1000
0000
0002
0000
0000
0203
0000
0000
,
0310
1000
0001
0010
,
0100
0000
2000
0000
0000
0000
0000
0002
,
0000
0000
3003
0000
,
0001
0000
2000
0000
0000
3200
0000
0000
,
0310
0001
1000
0010
,
0100
0001
1000
0100
,
0010
0100
0001
0100
,
1000
0001
0101
1000
,
1100
0001
0102
0023
,
0130
1000
1010
0001
,
0011
1000
2010
3200
,
0310
0001
0010
0001
,
1000
0010
1000
0010
,
0100
0000
0001
0000
1000
0000
0100
0010
,
0000
0000
0001
1000
0002
0000
0103
0000
,
0010
1000
0100
1000
,
0010
1000
0100
1000
,
0001
0100
0001
0010
,
0001
0100
0001
0010
,
0100
1000
0010
1000
,
0100
1000
0010
0100
,
0001
0010
0001
0100
,
0001
0010
1000
0010
,
0100
1000
0010
0100
,
0001
0010
0100
1000
,
0001
0100
1000
0100
,
0001
1000
0100
0001
,
0100
0010
0001
1000
,
0010
0100
0001
0010
,
0100
1000
0010
1000
,
0001
0100
0001
0010
,
0002
1000
1000
1003
,
0001
0010
0100
1000
,
0001
0100
1000
0001
,
0010
1000
0100
0001
,
1000
0010
0001
0100
,
0001
1000
0100
1000
,
0010
0100
0001
0010
,
1000
0001
0100
1000
,
1002
0000
0000
0000
,
0203
0000
0000
0000
,
0320
0000
0000
0000
,
2030
0000
0000
0000
,
3000
0000
0000
0000
;

//---------------dance-single - ----------------
#NOTEDATA:;
#CHARTNAME:;
#STEPSTYPE:dance-single;
#DESCRIPTION:;
#CHARTSTYLE:;
#DIFFICULTY:Beginner;
#METER:1;
#RADARVALUES:0.061500,0.126758,0.019133,0.019133,0.000000,45.000000,43.000000,2.000000,2.000000,0.000000,0.000000,0.000000,0.000000,0.000000,0.061500,0.126758,0.019133,0.019133,0.000000,45.000000,43.000000,2.000000,2.000000,0.000000,0.000000,0.000000,0.000000,0.000000;
#CREDIT:Kingly;
#NOTES:
0000
0000
0000
0000
,
0000
0000
0000
0000
,
0000
0000
0000
0000
,
0000
0000
0000
0000
,
0000
0000
0000
0000
,
0000
0000
0000
0000
,
0000
0000
0000
0000
,
0000
0000
0000
0000
,
0000
0000
0000
0000
,
0000
0000
0000
0000
,
1000
0000
0000
0000
,
0000
0000
0000
0000
,
0001
0000
0000
0000
,
0000
0000
0000
0000
,
1000
0000
0000
0000
,
0000
0000
0000
0000
,
0001
0000
0000
0000
,
0000
0000
0000
0000
,
0010
0000
0000
0000
,
0100
0000
0000
0000
,
0010
0000
0000
0000
,
0100
0000
0000
0000
,
1000
0000
0000
0000
,
0010
0000
0000
0000
,
0100
0000
0000
0000
,
0001
0000
0001
0000
,
1000
0000
0000
0000
,
1000
0000
0000
0000
,
0001
0000
0000
0000
,
0001
0000
0000
0000
,
0010
0000
0000
0000
,
0010
0000
0000
0000
,
0100
0000
0000
0000
,
0100
0000
0100
0000
,
1000
0000
0000
0000
,
1000
0000
0000
0000
,
0010
0000
0000
0000
,
0010
0000
0000
0000
,
0100
0000
0000
0000
,
0100
0000
0000
0000
,
0001
0000
0000
0000
,
0001
0000
0000
0000
,
0220
0000
0000
0330
,
1001
0000
0000
0000
,
1000
0000
0000
0000
,
1000
0000
0000
0000
,
0001
0000
0000
0000
,
0001
0000
0000
0000
,
0100
0000
0000
0000
,
0100
0000
0100
0000
,
0010
0000
0000
0000
,
0010
0000
0000
0000
,
0010
0000
0000
0000
,
0010
0000
0000
0000
;
