#TITLE:Snowmelt;
#SUBTITLE:;
#ARTIST:nora2r × BEMANI Sound Team "Yvya";
#TITLETRANSLIT:;
#SUBTITLETRANSLIT:;
#ARTISTTRANSLIT:;
#GENRE:;
#CREDIT:;
#MUSIC:Snowmelt.ogg;
#BANNER:Snowmelt.png;
#BACKGROUND:Snowmelt-bg.png;
#CDTITLE:;
#SAMPLESTART:55.695;
#SAMPLELENGTH:15.000;
#SELECTABLE:YES;
#OFFSET:1.332;
#BPMS:0.000=222.000;
#STOPS:;
#BGCHANGES:;
#FGCHANGES:;

//--------------- dance-single - chrononical ----------------
#NOTES:
     dance-single:
     chrononical:
     Beginner:
     4:
     0,0,0,0,0:
0000
0000
0000
0000
,
0000
0000
0000
0000
,
0000
0000
0000
0000
,
0000
0000
0000
0000
,
0000
0000
0000
0000
,
0000
0000
0000
0000
,
0000
0000
0000
0000
,
0001
0000
0100
0000
,
0010
0010
0010
0000
,
1000
0000
0100
0000
,
0010
0010
0010
0000
,
0001
0000
1000
0000
,
0010
0010
0010
0000
,
1000
0000
0001
0000
,
0010
0010
0010
0000
,
0001
0000
1000
0000
,
0100
0000
0001
0000
,
0001
0000
0100
0000
,
0001
0000
0100
0000
,
1000
0000
0010
0000
,
0100
0000
0001
1000
,
0001
0000
0010
0100
,
0020
0000
0031
0000
,
2002
0000
0000
3003
,
1000
0000
0100
0000
,
1000
0000
0010
0000
,
0100
0100
0001
0000
,
0010
0000
0100
0100
,
1000
0000
0100
0000
,
0010
0010
0001
0000
,
0100
0000
0010
1000
,
0001
0000
1000
0000
,
0100
1000
0001
0000
,
0100
0000
0010
1000
,
0001
0000
0010
0000
,
1000
0000
0100
0000
,
0010
0000
1000
0001
,
2000
0000
3001
0010
,
0100
0000
0001
0000
,
0100
0000
1000
0010
,
0100
0000
1000
0000
,
0100
0000
0001
0100
,
0010
0000
0001
0000
,
0010
0000
1000
0100
,
0010
0000
1000
0000
,
0010
0000
0001
0000
,
1000
0000
0010
0010
,
0010
0000
1000
0000
,
0001
0000
0010
0010
,
0010
0000
0002
0000
,
0003
2000
0000
3000
,
0200
0320
0032
0000
,
0000
0003
2002
0000
,
0000
3003
1000
0010
,
1000
0000
0001
0010
,
0001
0000
1000
0000
,
0100
0000
0001
0000
,
0010
0000
1000
0100
,
1000
0000
0001
0100
,
0001
0000
1000
0000
,
0010
0000
0001
0000
,
0100
0000
1000
0100
,
0010
0000
0010
0000
,
0001
0000
1000
0010
,
0100
0000
0100
0000
,
0001
1000
0001
0000
,
0010
0000
0100
0000
,
1000
0000
0001
0000
,
0100
0000
0010
0000
,
1000
0000
2002
3003
,
0001
0000
0010
0100
,
0010
0000
0001
0000
,
1000
0000
0010
0000
,
0001
0000
0020
0000
,
0230
0000
0301
0000
,
1000
0000
0100
0000
,
0010
0000
0001
1000
,
0001
0000
1000
0000
,
0010
0000
0100
0000
,
0100
0000
0001
0000
,
0010
0000
0100
0000
,
0100
0000
1000
0000
,
0010
0000
0001
0000
,
0010
0000
1000
0000
,
0001
0000
2002
0000
,
0000
3003
0001
0000
,
0000
0010
0000
0000
,
0100
0000
1000
0000
,
0010
0000
0100
0000
,
0001
0001
1000
0000
,
0100
0000
0010
0010
,
0010
0000
0001
0000
,
0100
0000
0010
0010
,
0010
0000
1000
0000
,
0001
0000
0010
0010
,
0010
0000
0001
0000
,
1000
0000
0010
0010
,
0020
0000
1030
0000
,
0100
0000
0001
0000
,
0100
0000
1000
0000
,
0010
0000
0100
0000
,
0001
0000
2001
0000
,
3100
0000
0010
0000
,
0001
0000
0200
0000
,
0000
0000
0000
0000
,
0000
0000
0300
0000
;

//--------------- dance-single - chrononical ----------------
#NOTES:
     dance-single:
     chrononical:
     Easy:
     8:
     0,0,0,0,0:
0000
0000
0000
0000
,
0000
0000
0000
0000
,
0000
0000
0000
0000
,
0000
0000
0000
0000
,
0000
0000
0000
0000
,
0000
0000
0000
0000
,
0000
0000
0000
0000
,
0001
0000
0100
0000
0010
0000
1000
0002
,
0000
0013
0100
0100
,
1000
0000
0010
0000
0100
0000
0001
2000
,
0000
3100
0001
0100
,
1000
0000
0100
0000
0010
0000
0001
2000
,
0000
3010
0100
0100
,
0001
0000
0010
0000
0100
0000
1000
0002
,
0000
0203
0000
0310
2000
0000
3002
0000
,
1003
0000
0100
0000
0010
0000
0100
2000
,
0000
3010
0001
0010
,
1000
0000
0100
0020
0000
0000
0031
0020
,
0000
0130
0001
0100
,
1000
0000
0000
0011
0000
0000
1000
0000
,
0000
0101
0000
0000
0001
0000
1000
0000
,
0001
0000
0000
1100
0000
0000
0001
0000
,
2002
0000
3003
0000
,
0202
0000
0000
0303
,
0100
0100
0010
0020
,
1030
0000
0000
0200
0000
0000
0320
0000
,
0130
0000
1000
0000
0001
0000
0000
0200
,
0000
0320
0230
0301
,
1000
0000
0000
0020
0000
0000
0230
0000
,
0310
0000
1000
0000
0001
0000
0000
0020
,
0000
0230
0310
0010
,
0001
0100
0010
0100
,
0001
1000
1100
0100
,
0010
0100
1000
1001
,
0001
0000
0100
0010
0000
1000
0001
0000
,
1002
0000
0000
0000
1003
0000
0000
0110
,
0000
0000
0001
0000
0000
0110
0000
0000
,
1000
0001
1000
0010
,
0001
0000
0010
0200
0000
0000
0301
0000
,
1000
1000
0001
0010
,
1000
0000
0010
0200
0000
0000
0000
0302
,
0000
0103
1000
0100
,
0001
0000
0100
0020
0000
0000
0031
0000
,
1000
1000
0001
0100
,
1000
0000
0100
0020
0000
0000
0031
0000
,
0010
0000
1000
0000
0001
0000
0010
0200
,
0000
0000
0310
0002
0000
0000
1003
0000
,
0010
0000
0010
0000
1000
0000
0010
0200
,
0000
0000
0310
2000
0000
0000
3001
0000
,
0010
0000
0100
0000
1000
0000
0000
0110
,
0000
0000
0001
0000
0000
0110
0000
0000
,
1000
0001
1000
1000
,
0010
0010
2002
0000
,
0000
3003
1000
0100
,
0010
0010
0001
0100
,
0010
0010
1000
0100
,
0001
0100
1000
0010
,
0001
0010
1000
0010
,
0100
0100
0001
0010
,
0100
0100
1000
0001
,
0100
0100
0001
1000
,
0100
0010
0001
0100
,
0010
0100
0001
0010
,
0100
0010
0001
0100
,
1000
0001
0010
1000
,
0001
0001
1000
0100
,
0010
0010
0001
0100
,
0010
0010
1000
0001
,
0010
0001
1000
0010
,
1000
0100
2000
0000
,
3010
0100
0001
0100
,
1000
0100
0020
0000
,
1030
0100
0001
1000
,
0010
0001
0200
0000
,
0320
0000
1030
0100
,
1000
0100
0001
0010
,
0001
0010
1000
0001
,
1000
0000
0001
0000
1000
0000
0000
0101
,
0000
1000
0001
1000
,
0001
0000
0000
0000
0001
0000
0000
1100
,
0000
0001
1000
1000
,
0100
0100
1000
0100
,
0010
0000
0001
0100
,
0010
0000
1000
1000
,
0010
0010
2002
0000
,
0000
0000
3003
0000
0001
0010
0000
0000
,
0000
0000
0010
0100
0000
0000
0000
1000
,
0000
0002
0000
0000
1003
0010
0000
0000
,
0000
0000
0100
0010
0100
0000
0001
0000
,
1000
0100
1000
0100
,
0010
0000
0001
2000
0000
0000
3010
0000
,
0100
0100
0001
0010
,
0100
0000
1000
0002
0000
0000
0103
0000
,
1000
0100
0001
0100
,
0010
0000
1000
0002
0000
0000
0013
0000
,
0100
0100
1000
0010
,
0100
0000
0001
2000
0000
3200
0000
0310
,
0001
1000
0001
0100
,
1000
0100
0010
1000
,
0100
0100
0010
0001
,
0010
0000
0100
0010
0000
0100
0000
1000
,
0000
0001
0000
2000
0000
0000
3100
0000
,
0100
0000
1000
0002
0000
0000
0103
0020
,
0000
0000
1030
0200
0000
0000
0000
0000
,
0000
0000
0000
0000
,
0000
0000
0300
0000
;

//--------------- dance-single - chrononical ----------------
#NOTES:
     dance-single:
     chrononical:
     Medium:
     11:
     0,0,0,0,0:
0000
0000
0000
0000
,
0000
0000
0000
0000
,
0000
0000
0000
0000
,
0000
0000
0000
0000
,
0000
0000
0000
0000
,
0000
0000
0000
0000
,
0000
0000
0000
0000
,
1000
0010
0100
0000
0100
0010
1000
0200
,
0000
0310
0100
1000
,
0001
0100
0010
0000
0010
0100
0001
0020
,
0000
1030
0010
0002
,
1003
0100
0010
0000
0010
0100
1000
0020
,
0000
0130
0010
1000
,
0001
0010
0100
0000
0100
0010
0001
0200
,
0000
2300
0000
3001
0020
0000
2030
0000
,
3002
0000
1000
0000
0103
0000
0001
0010
,
0000
0010
0200
0000
2300
0000
3002
0000
,
0203
0000
0310
0200
0000
0000
1300
0200
,
0000
0320
2030
3002
,
1003
0000
1000
0100
0000
0100
0001
0000
,
0001
0100
0000
0100
1000
0000
1000
0000
,
0001
0000
0001
0100
0000
0100
0010
0000
,
1002
0000
0000
0000
0203
0000
0000
0300
,
2002
0000
0000
0003
,
3001
0010
0100
2000
,
3001
0100
0000
2000
0000
0000
3200
0000
,
0320
0000
0000
0000
1030
0100
0000
0002
,
0000
0203
0320
0000
,
0031
0010
0000
2000
0000
0000
3020
0000
,
0230
0000
0000
0000
1300
0010
0000
0002
,
0000
0023
0230
0010
,
0301
0000
0010
0000
0100
0010
0100
0000
,
1000
0000
0001
0000
0101
0000
0100
0010
,
0000
0010
1000
0000
0100
0000
1100
0000
,
1002
0000
0000
0103
0000
0000
0010
0000
,
2001
0000
0100
0000
3001
0000
0000
1100
,
0000
0000
0001
0000
0000
1010
0000
0000
,
0001
0000
1000
0000
0001
0010
0100
0000
,
1000
0000
0100
0002
0000
0000
0103
0000
,
1000
0000
0002
0000
1003
0010
0100
0000
,
0001
0000
0100
2000
0000
0000
3100
0010
,
0000
0010
2000
0000
3001
0100
0010
0000
,
1000
0000
0010
0002
0000
0000
0013
0000
,
1000
0000
0001
0000
1000
0100
0010
0000
,
0001
0000
0010
2000
0000
0000
3010
0000
,
0100
0000
1000
0000
0001
0000
0100
0010
,
0000
0010
1000
0002
0000
0000
1000
0000
,
0100
0000
0013
0000
0001
0000
0010
0100
,
0000
0100
1000
0002
0000
0000
1000
0000
,
0010
0000
0103
0000
0001
0000
0100
0010
,
0000
0010
1000
0000
1000
0100
0000
0100
,
0020
0032
0203
0010
,
0010
0310
1001
0002
,
0023
0230
2300
0001
,
0010
3200
2300
0100
,
0010
3002
0203
1000
,
0302
0100
0023
1000
,
0230
0001
2300
0100
,
0100
3002
2003
0010
,
0100
3002
2003
0100
,
0010
0000
3001
0100
0010
0200
0000
0302
,
0000
1003
0200
0000
2300
0000
3001
0020
,
0000
0130
2000
0000
3020
0000
0000
0130
,
0001
1000
0001
0010
0002
0000
0103
0010
,
0000
0100
0000
2001
0000
0000
0100
0000
,
3200
0000
0320
0000
0032
0000
1000
0003
,
0002
0000
0100
0003
0002
0000
0010
0003
,
0002
0000
1000
0003
0001
0000
0010
0000
,
0100
2000
0000
3001
0200
0000
0000
0000
,
0310
1000
0001
1000
0200
0000
0000
1300
,
0001
0000
0100
0000
0010
0000
0100
2000
,
0000
3100
0020
0000
0230
0000
0000
0000
,
0302
0023
2030
3002
,
0203
2300
3002
0100
,
2003
0100
3001
0010
,
0001
0010
1000
0001
,
1000
0001
0100
1000
,
0001
0000
1000
0000
0001
0000
0100
0010
,
0000
0010
2000
0000
3002
0000
0023
0000
,
0000
0130
1000
0001
1000
0000
0010
0100
,
0000
0100
0001
1000
0002
0000
0000
0023
,
0000
0230
0320
0031
,
0020
1030
0020
0130
,
0020
0000
0032
0000
1003
0010
0100
0000
,
0010
0100
0001
0000
2002
0000
0000
0000
,
0000
0000
3003
0000
0001
0010
0100
0000
,
0100
0000
1000
0010
0100
0000
0100
2000
,
0000
3200
0000
0000
0310
0000
1000
0000
,
0001
0010
0001
1000
,
0100
0000
0010
0000
0001
0100
0010
0000
,
0010
0100
0001
0020
0000
0000
0130
0000
,
1000
0000
0001
0000
1000
0010
0100
0000
,
0100
0010
1000
0200
0000
0000
0301
0000
,
0100
0000
2000
0000
3001
0010
0100
0000
,
0100
0010
0001
0200
0000
0000
0310
0000
,
1000
0000
0001
0000
1000
0100
0010
0000
,
0010
0100
1000
0020
0000
0032
0000
1003
,
0200
0000
0010
0000
0301
0000
0010
0100
,
1000
0000
0100
0000
0010
0001
1000
0000
,
0010
1000
0001
0000
0100
0010
1000
0000
,
0010
0000
0100
0001
0000
1100
0000
0001
,
0000
1010
0000
1002
0000
0013
0100
0010
,
0000
0100
1000
0200
0000
1300
0010
0200
,
0000
0301
1000
0200
0000
0000
0000
0000
,
0000
0000
0000
0000
,
0000
0000
0300
0000
;

//--------------- dance-single - chrononical ----------------
#NOTES:
     dance-single:
     chrononical:
     Hard:
     15:
     0,0,0,0,0:
0000
0000
0000
0000
,
0000
0000
0000
0000
,
0000
0000
0000
0000
,
0000
0000
0000
0000
,
0000
0000
0000
0000
,
0000
0000
0000
0000
,
0000
0000
0000
0000
,
1000
0001
0100
0010
1000
0100
0010
0200
,
0000
0301
0100
1000
0001
0100
0010
0100
,
0001
1000
0100
0010
0001
1000
0010
0200
,
0000
1300
0100
0001
1000
0100
0020
0000
,
0031
1000
0010
0100
0001
1000
0100
0020
,
0000
1030
0010
0001
1000
0010
0100
0010
,
1000
0001
0010
0100
1000
0001
0100
2000
,
0000
3002
0000
0013
0200
0000
0302
0000
,
2003
0000
0001
0000
0010
0000
3100
1000
,
0000
1000
0001
0100
0010
0100
0002
0000
,
0203
0000
0310
0200
0000
1300
0100
0020
,
0000
1030
0001
0010
0100
0010
0002
0000
,
1003
0100
0010
0100
0010
0001
1000
0010
,
0100
0010
0100
0001
0100
0010
0001
0010
,
1000
0100
0010
0100
0010
0001
1000
0010
,
0200
0000
0000
0000
0310
1000
0001
1000
,
0002
0000
0000
0000
,
1003
0100
0010
0100
1000
0001
2000
0000
,
3001
0100
0000
0020
0000
0000
0032
0000
,
0023
0000
0100
0000
1030
0010
0000
0200
,
0000
2300
3200
0010
,
0301
0010
0000
0200
0000
0000
0302
0000
,
0203
0000
0010
0000
1300
0100
0000
0020
,
0000
2030
3020
0100
,
0031
0000
0100
0000
0010
1000
0001
0000
,
0010
0001
1000
0000
1100
0000
0100
0010
,
0000
0010
0001
0000
1000
0000
1001
0000
,
0001
0000
0100
0010
0000
1000
0100
0000
,
1100
0000
1000
0000
0001
0000
0100
0010
,
0000
0100
1000
0000
0100
0010
0000
1000
,
0001
0010
0100
1000
0001
0100
0010
0100
,
0001
1000
0100
0020
0000
1030
0010
0100
,
1000
0001
2000
0000
3001
0100
0010
0100
,
0001
1000
0100
0002
0000
0103
1000
0002
,
0000
0103
0020
0000
1030
0100
0010
0100
,
1000
0001
0100
0020
0000
0031
0010
0100
,
0001
1000
0002
0000
1003
0100
0010
0100
,
1000
0001
0100
2000
0000
3100
0001
1000
,
0100
0010
0100
1000
0001
0010
0100
0020
,
0000
0000
0130
0000
1000
0000
0020
0000
0000
0000
0130
0000
2000
0000
0000
3200
,
0000
0310
1000
0001
1000
0100
0010
0200
,
0000
1300
0010
0200
0000
0310
0001
0010
,
2000
0000
3020
0000
0230
0000
0301
0010
,
0000
0010
1000
0000
1000
0010
0000
0010
,
0001
1000
0002
0100
,
0100
1003
1001
2000
,
3020
0000
0230
0000
0301
1000
0100
0000
,
1000
0001
0100
0000
0010
1000
0001
0010
,
0100
0010
0001
2000
0010
0000
0001
0000
,
3200
1000
0320
1000
,
0032
0000
1000
0000
1003
0001
0010
0000
,
0001
1000
0010
0000
0100
0001
1000
0100
,
0010
0100
1000
0002
1000
0000
0100
0000
,
0010
0000
0013
0100
1000
0002
0000
0203
,
0000
0310
2000
0000
3002
0000
0103
0020
,
0000
1030
0002
0000
0023
0000
0000
0130
,
1000
0001
0100
0010
0200
0000
1300
0100
,
0000
0110
0000
2001
0000
0000
0010
0000
,
3200
0000
0320
0000
0031
0010
0100
0000
,
0100
0010
0001
0000
1000
0010
0100
0000
,
0100
0010
1000
0000
0001
0010
0100
1000
,
0100
0010
0001
1000
0020
0000
1000
0000
,
0130
0001
1000
0010
0200
0000
0000
1300
,
0100
0001
1000
0100
0010
0100
1000
0020
,
0000
0130
0001
1000
0200
0000
0010
0000
,
2300
3020
0032
2003
,
3200
0302
2003
0010
,
3002
0000
0000
0010
0000
0000
1003
0010
0100
0010
0000
0000
,
1000
0100
0010
0100
0000
0000
1000
0001
0100
0010
0000
0000
,
1000
0001
0010
0100
0000
0000
1000
0000
0000
0100
0000
0000
,
0010
0000
0001
0000
1000
0000
0001
0000
0100
0000
0010
0000
1000
0000
0000
0010
0000
0000
1000
0000
0000
0010
0000
0000
,
0001
0010
0001
0010
2000
0000
3200
0000
,
0000
1300
0100
1000
0001
0100
0001
1000
,
0010
1000
0001
0010
0002
0000
0000
0203
,
0000
0000
0320
0000
1030
0100
0010
0000
,
0200
0301
0200
0310
,
0200
0000
1300
0000
1000
0100
1000
0100
,
0001
0100
0001
0100
2000
0000
0000
0000
,
0000
0000
0000
0000
3001
1000
0010
0000
,
0010
0000
1000
0001
0010
0000
0010
2000
,
0000
3020
0000
0000
0031
0100
0010
0000
,
0010
0100
0001
0000
1000
0001
0010
0100
,
0010
0001
1000
0000
0001
1000
0100
0010
,
0001
1000
0010
0200
0000
1300
0100
0001
,
1000
0100
0010
0100
1000
0001
0100
0010
,
1000
0001
0010
0200
0000
0301
0100
1000
,
0001
0100
0020
0000
1030
0001
0010
0100
,
1000
0001
0100
0020
0000
0031
0010
1000
,
0001
0010
0100
0010
0001
1000
0010
0100
,
0001
1000
0100
0002
0000
2003
0000
3010
,
0002
0000
0010
0000
1003
0010
0001
0010
,
0100
0001
1000
0000
0010
1000
0100
0000
,
0010
0001
0100
0000
0001
0100
0010
0100
,
0001
0010
0100
0010
0000
0110
0000
1100
,
0000
1001
0000
0201
0000
0310
0100
0001
,
1000
0100
0010
0200
0000
1300
0001
0200
,
0000
0310
1000
0200
0000
0000
0000
0000
,
0000
0000
0000
0000
,
0000
0000
0300
0000
;

//--------------- dance-single - chrononical ----------------
#NOTES:
     dance-single:
     chrononical:
     Challenge:
     17:
     0,0,0,0,0:
0000
0000
0000
0000
,
0000
0000
0000
0000
,
0000
0000
0000
0000
,
0000
0000
0000
0000
,
0000
0000
0000
0000
,
0000
0000
0000
0000
,
0000
0000
0000
0000
,
0001
0000
0010
0100
0010
0000
0100
0000
1000
0000
0001
0000
0100
0000
0020
0000
,
0000
0000
0130
0001
1000
0000
0100
0000
0010
0000
0100
0000
1000
0000
0001
0000
,
1000
0000
0010
0100
0010
0000
0100
0000
0001
0000
1000
0000
0100
0000
0020
0000
,
0000
0000
0130
1000
0001
0000
0100
0000
1000
0000
0100
0000
0020
0000
0000
0000
,
1030
0000
0100
0010
0100
0000
0010
0000
0001
0000
1000
0000
0010
0000
0200
0000
,
0000
0000
0310
1000
0001
0000
0010
0000
0100
0000
0010
0000
0001
0000
1000
0000
,
0001
0000
0100
0010
0100
0000
0010
0000
1000
0000
0001
0000
1000
0000
0200
0000
,
0000
0302
0000
1003
0020
0000
0032
0000
,
2003
0000
3010
0100
0001
1000
0100
0020
,
0000
0130
0001
0100
1000
0100
0020
0000
,
0032
0000
0103
0020
0000
1030
0001
0200
,
0000
0310
0001
0010
1000
0010
0200
0000
,
0301
0000
0010
0100
1000
0000
0100
0000
0010
0100
0010
0000
0001
0000
0010
0100
,
1000
0000
0100
0000
0010
0100
0010
0000
0001
0000
0100
0000
1000
0000
0100
0000
,
0001
0000
0100
0010
1000
0000
0010
0000
0100
0010
0100
0000
0001
0000
0100
0010
,
2000
0000
0000
0000
0000
0000
0000
0000
3001
0010
0100
0010
0100
1000
0001
1000
,
0002
0000
0000
0000
0100
0000
0000
0000
0100
0000
0000
0000
0103
0000
0100
0001
,
1000
1000
0100
0100
0010
0010
0002
0000
,
1003
0010
0000
0200
0000
1300
0002
0000
,
0013
1000
0002
0000
1003
0100
0000
0020
,
0000
1030
0002
0000
0103
1000
0002
0000
,
1003
0010
0000
0002
0000
1003
0200
0000
,
0310
1000
0002
0000
1003
0100
0000
0002
,
0000
0000
1003
0000
0020
0000
0000
0000
0031
1000
0001
0000
0100
0000
0100
0000
,
0001
0000
1000
0000
0100
0000
0000
0000
0100
0000
1000
0000
0001
0000
0100
0010
,
0100
0010
1000
0000
1001
0000
1000
0100
,
0000
0000
0100
0000
0010
0000
0100
1000
0001
0000
0100
0000
0210
0000
0000
0000
,
0301
1000
0100
1000
0001
0100
0001
1000
,
0100
0000
1000
0100
0010
0100
0010
0001
1000
0000
0001
0000
0010
0000
0001
0000
,
1000
0010
1000
0001
0100
0001
1000
0100
,
1000
0100
0010
0001
1000
0100
0010
0001
1000
0000
0010
0000
0100
0000
0010
0000
,
0001
0010
0100
0210
0000
1300
0100
0001
,
1000
0100
0020
0000
0031
0010
0100
0010
,
1000
0010
0100
0210
0000
0301
0100
2000
,
0000
3001
0200
0000
0301
0100
0010
0100
,
1000
0100
0010
0120
0000
0031
0010
1000
,
0001
0010
0200
0000
1300
0100
0010
0100
,
0001
0100
0010
0120
0000
1030
0010
0001
,
1000
0010
0100
0001
1000
0001
0010
0200
,
0000
0000
1300
0000
0010
0000
0200
0000
0000
0000
1300
0000
0200
0000
0000
0302
,
0000
1003
0100
0010
0001
1000
0010
0200
,
0000
0301
1000
0200
0000
0301
0100
1000
,
0020
0000
0230
0000
0301
0100
1000
0001
,
0010
1000
0001
0010
1000
0001
0100
1000
,
0002
0203
0320
0001
,
0100
0130
1001
2000
,
3200
0000
0320
0000
0031
0100
0010
0100
,
0001
1000
0010
1000
0100
0010
1000
0001
,
0100
0010
0001
1000
0001
0100
0010
0100
,
1000
0100
0010
0100
0001
0010
0100
0010
,
1000
0010
0100
0010
0001
0010
0100
0010
,
0001
1000
0100
1000
0010
0100
1000
0001
,
0010
0100
0001
1000
0001
0010
0001
1000
,
0010
1000
0001
0100
0010
2000
0000
3200
,
0000
0310
0020
0000
0031
0100
0010
0001
,
0010
0100
0001
1000
0100
0010
0100
1000
,
0010
0001
1000
0100
0001
0010
0100
0001
,
0100
0010
0001
0100
0010
0100
0001
1000
,
0100
0000
0001
0000
1000
0000
0010
0000
0001
0000
0100
0010
1000
0000
0010
0000
,
1000
0000
0010
0100
0001
0000
0100
0000
0001
0000
0010
0100
1000
0000
0100
0000
,
1000
0000
0100
0010
0001
0000
0010
0000
0001
1000
0010
0000
0100
0000
0010
1000
,
0001
0000
0010
0000
0001
1000
0100
0000
0010
0000
0100
1000
0001
0000
0100
0000
,
0010
0010
1000
0001
2000
0000
0000
3010
,
0100
0010
1000
0001
0010
0100
0010
2000
,
0000
3010
0100
1000
0002
0000
1000
0000
,
0203
0320
0032
0023
,
0230
0320
2030
0001
,
3200
0000
0000
0010
0000
0000
1300
0100
0010
0100
1000
0001
,
1000
0010
0100
0010
1000
0001
1000
0100
0010
0100
1000
0100
,
0010
0100
0010
0001
0010
0001
1000
0010
0100
0001
1000
0010
,
0100
0000
0001
0000
1000
0000
0010
0000
0100
0000
0001
0000
1000
0000
0000
0100
0000
0000
0100
0000
0000
0001
0000
0000
,
0100
0000
0100
0000
1000
0000
0100
1000
0001
0000
0100
0000
0100
0000
1000
0000
,
0100
0000
0100
0000
0001
0000
0100
0001
1000
0000
0100
0010
0100
0000
0001
0000
,
0100
0010
0100
0000
1000
0000
0001
0000
1000
0010
0000
0100
0010
0000
0100
0001
,
0000
1000
0001
0000
1000
0100
0010
0001
1000
0000
0010
0000
0100
0000
0010
0000
,
0100
1000
0100
1000
0100
0001
0100
0001
,
1000
0000
0100
0000
0010
0000
0100
0000
1000
0100
1000
0000
0100
0010
0100
0000
,
0010
0001
0010
0000
0001
1000
0001
0000
0200
0000
0000
0000
1000
0000
1000
0000
,
0000
0010
0000
0001
0301
0001
0100
0010
,
1000
0001
1000
1000
0100
0010
0001
0200
,
0000
0000
1300
0000
0200
0000
0000
0000
0310
1000
0001
0000
0010
0000
0010
0000
,
0100
1000
0001
0000
0100
0000
0100
0000
0001
1000
0010
0000
1000
0001
0010
0000
,
0001
0100
0010
1000
0001
0000
0000
0000
1000
0000
0010
0100
0010
0000
0100
0000
,
0001
0000
1000
0000
0100
0000
0020
0000
0000
0000
0130
1000
0001
0000
0100
0000
,
0010
0000
0100
0000
0001
0000
1000
0000
0001
0000
0010
0100
0010
0000
0100
0000
,
1000
0000
0001
0000
0100
0000
0020
0000
0000
0000
0130
0001
1000
0000
0100
0000
,
0001
0000
0100
0000
0020
0000
0000
0000
0031
0000
0100
0010
0100
0000
0010
0000
,
1000
0000
0001
0000
0010
0000
0200
0000
0000
0000
0310
0001
1000
0000
0010
0000
,
0100
0000
0010
0000
1000
0000
0001
0000
1000
0000
0100
0010
0100
0000
0010
0000
,
0001
1000
0010
0200
0000
2300
0000
3001
,
0010
0000
0100
0000
0010
0000
1000
0000
0001
0000
1000
0000
0001
0000
0000
0010
0000
0000
1000
0000
0000
0010
0000
0000
,
0100
1000
0010
0100
0001
0100
1000
0001
,
0010
0000
0000
1000
0000
0000
0001
0000
0000
0010
0000
0000
0001
0000
0010
0000
0100
0000
0010
0000
0001
0000
1000
0000
,
0001
0010
0100
0110
0000
1100
0000
1010
,
0000
0110
0000
2001
0000
3100
0100
0100
,
1000
0001
0100
0020
0000
1030
0001
0020
,
0000
0130
1000
2200
0000
0000
0000
0000
,
0000
0000
0000
0000
,
0000
0000
3300
0000
;
