#TITLE:Slime Molds;
#ARTIST:BEMANI Sound Team "SYUNN";
#ARTISTTRANSLIT:SYUNN;
#BANNER:Slime Molds.png;
#BACKGROUND:Slime Molds-bg.png;
#JACKET:Slime Molds-jacket.png;
#CDTITLE:./CDTITLES/POP'N MUSIC.PNG;
#MUSIC:Slime Molds.ogg;
#SAMPLESTART:35.294;
#SAMPLELENGTH:15;
#BPMS:0=170;

//---------------dance-single - t7r----------------
#NOTES:
     dance-single:
     t7r:
     Beginner:
     6:
     :
0000
0000
0000
0000
,
0000
0000
0000
0000
,
0000
0000
0000
0000
,
0000
0000
0000
0000
,
0000
0000
0000
0000
,
1000
0000
1000
0000
,
1000
0000
1000
0000
,
0001
0001
0001
0001
,
0001
0000
0000
0000
,
0100
0000
0100
0100
,
0100
0000
0010
0000
,
1000
0000
0100
0100
,
0100
0000
0010
0000
,
0001
0000
0100
0100
,
0100
0000
0010
0000
,
1000
0000
0100
0100
,
0100
0000
0100
0000
,
0010
0000
0010
0010
,
0010
0000
0001
0001
,
0001
0000
1000
1000
,
1000
0000
0010
0000
,
1000
0000
0100
0000
,
0001
0000
0100
0000
,
1000
1000
1000
1000
,
1000
0000
0000
0000
,
0001
0000
0001
0000
,
0100
0000
0100
0000
,
0010
0000
0010
0000
,
1000
0000
0000
0000
,
0001
0001
0001
0000
,
1000
1000
1000
0000
,
0010
0010
0010
0010
,
0010
0000
0000
0000
,
0100
0000
0000
0000
,
0000
0000
0000
0000
,
0001
0000
0000
0000
,
0000
0000
0000
0000
,
1000
0000
1000
0000
,
0100
0000
0100
0000
,
0010
0010
0010
0010
,
0000
0000
0000
0000
,
0001
0000
0000
0000
,
0000
0000
0000
0000
,
1000
0000
1000
0000
,
1000
1000
1000
0000
,
0010
0000
0010
0000
,
0010
0010
0010
0000
,
0100
0000
0100
0000
,
0100
0100
0100
0000
,
0001
0000
0001
0000
,
0001
0001
0001
0000
,
0010
0000
0010
0000
,
0010
0010
0010
0000
,
0100
0000
0100
0000
,
0100
0100
0100
0000
,
1000
0000
0000
0000
,
1000
0000
0000
0000
,
0000
0001
0001
0000
,
1000
1000
1000
0000
,
0010
0000
0100
0000
,
0010
0010
0010
0000
,
1000
0000
0100
0000
,
0010
0010
0010
0000
,
0001
0000
0100
0000
,
0010
0010
0010
0000
,
1000
0000
0100
0000
,
0001
0001
0001
0000
,
0100
0000
1000
0000
,
0010
0010
0010
0000
,
0001
0000
0010
0000
,
1000
1000
1000
0000
,
0100
0000
0010
0000
,
0001
0000
0000
0000
,
1001
0000
1000
0000
,
1001
0000
0001
0000
,
0110
0000
0010
0000
,
0110
0000
0000
0000
,
1001
0000
0000
0000
;

//---------------dance-single - t7r----------------
#NOTES:
     dance-single:
     t7r:
     Easy:
     10:
     :
0000
0000
0000
0000
,
0000
0000
0000
0000
,
0000
0000
0000
0000
,
0000
0000
0000
0000
,
0000
0000
0000
0000
,
1000
0100
0010
0100
,
1000
0000
0010
0000
0100
0000
0010
1000
,
0001
0000
0001
0000
0010
0100
1000
0000
,
0020
0000
0100
0130
,
0010
1001
1000
0100
,
2000
3000
2000
3000
1000
0001
0100
0000
,
0001
0010
0100
0010
,
0002
0003
0002
0003
0100
0000
0010
0010
,
1000
0100
0001
0100
,
2000
3000
2000
3000
1000
0010
0100
0000
,
0001
0100
1000
0100
,
0001
0000
0000
0001
0000
0000
0001
0000
0010
0000
0000
0000
0100
0000
0000
0000
,
1000
0010
1001
0010
,
0100
0100
0010
0110
,
0001
0010
1001
0010
,
0100
0100
0220
0330
,
1000
0100
1000
0000
0001
0100
0001
0000
,
1000
1000
1000
0000
0001
0000
0010
0000
,
0001
0100
0010
0000
1000
0100
0010
0000
,
0001
0000
1000
0000
0001
0000
0200
0000
0000
0310
0000
0000
,
1001
0010
1001
0010
,
1001
0100
1001
0100
,
1001
0010
1001
0100
,
0110
0000
0001
1000
0001
0000
0010
0000
,
0002
0000
0103
0000
0010
0100
0010
0000
,
1000
0100
0000
0000
0010
0000
0010
0000
,
0001
0000
1000
1000
0000
0010
0010
0000
,
0100
0000
0000
0100
0000
0000
0100
0000
0010
0000
0000
0000
1000
0000
0001
0000
,
2000
0000
0000
0000
,
0000
0000
0000
0000
,
3000
0000
0000
0000
,
0000
0000
0000
0000
,
0001
0010
0001
0011
,
1000
0010
1000
1010
,
0001
0100
0000
0001
1000
0000
2001
0000
,
0000
0100
0100
0000
3001
0000
0020
0030
,
2002
0000
0000
0000
,
0000
0000
0000
3003
,
1100
0100
1000
1100
,
1000
0001
2002
3003
,
0101
0100
0001
0101
,
0001
1000
2002
3003
,
0011
0010
0110
0100
,
1000
0000
0000
0001
0000
0000
1000
0000
0000
0001
0000
0000
0000
0000
0000
0000
,
2100
3001
2100
3001
,
2100
3001
1100
1000
,
0102
1003
0102
1003
,
0102
1003
0101
0001
,
2100
3010
2100
3010
,
0102
0013
0102
0013
,
0100
0000
0000
0110
0000
0000
0001
0000
,
1000
0100
0010
0000
0002
0000
0103
0000
,
0001
0000
1000
0100
0000
0000
1000
0001
,
0100
0000
0001
0010
0000
0000
0001
1000
,
0010
0000
0100
0010
0000
0000
1000
0100
,
0010
0000
0100
0100
1000
0000
0001
0000
,
0100
0000
0010
0100
0000
0000
0001
0000
,
1000
0000
0001
0010
0000
0000
0100
0000
,
1000
0000
0010
0100
0000
0000
0001
0000
,
1000
0000
0000
1000
0000
0000
1000
0000
0001
0000
0000
0000
0100
0000
0000
0000
,
1000
0000
0110
0000
1000
0000
0100
0020
,
0000
0031
1000
0000
0010
0100
0010
0000
,
1000
0000
0001
0010
0000
0100
1000
0002
,
0000
0000
0103
0000
0010
0000
0000
0000
0100
0000
0000
0100
0000
0000
0100
0000
,
0020
0000
0000
0000
0001
0000
0000
0000
0130
0000
0000
0100
0000
0000
0001
0000
,
0020
0000
1000
0000
0130
1000
0001
0000
,
1000
0000
0000
0100
0000
0000
0001
0000
0100
0000
0000
1000
0000
0000
0020
0000
,
0100
0000
0100
0000
1030
1000
0001
0000
,
1001
0000
0000
0000
0010
0000
0000
0000
1001
0000
0000
1000
0000
0000
0000
0000
,
1001
0000
0000
0000
0010
0000
0000
0000
1001
0000
0000
0001
0000
0000
0000
0000
,
1001
0000
0000
0000
0010
0000
0000
0000
1001
0000
0000
1000
0000
0000
0100
0000
,
0010
0000
0001
0100
0000
1000
0100
0000
,
0220
0000
0330
0000
;

//---------------dance-single - t7r----------------
#NOTES:
     dance-single:
     t7r:
     Medium:
     14:
     :
0000
0000
0000
0000
,
0000
0000
0000
0000
,
0000
0000
0000
0000
,
0000
0000
0000
0000
,
0000
0000
0000
0000
,
1000
1100
1000
1100
,
0001
0000
0101
0000
0001
0000
0100
0100
,
0001
0000
0001
0000
1000
0000
1000
0000
0100
0000
0010
0100
0010
0000
0001
1000
,
0020
0000
0001
0000
0130
0001
1000
0000
,
1001
0000
0000
0000
1100
0000
0000
0000
1000
0100
0000
0000
1100
0000
0000
0000
,
2000
3000
2000
3000
0001
0010
0100
1000
,
0010
0000
0000
0000
0101
0000
0000
0000
0001
0010
0000
0000
0011
0000
0000
0000
,
0002
0003
0002
0003
2000
0000
3010
0010
,
0100
0000
0000
0000
0001
0010
0000
0000
0110
0000
0000
0000
0001
0000
1000
0000
,
0020
0030
0020
0030
0100
0001
1000
0100
,
0010
0000
0000
0000
1100
0000
0000
0000
0001
0100
0000
0000
0110
0000
0000
0000
,
0002
0003
0000
0002
0003
0000
0002
0003
1000
0000
0010
0000
0100
0000
0001
0000
,
1000
0000
0000
0100
0010
0000
0100
0000
1000
0000
0000
0010
1000
0000
0001
0000
,
0100
0000
0000
0001
0100
0000
0010
0000
0100
0000
0000
0001
0010
0000
0100
0000
,
1000
0000
0000
0010
0100
0000
0010
0000
0001
0000
0000
0010
0100
0000
0010
0000
,
1000
0000
0100
0000
0010
0000
0100
0000
0001
0000
0100
0000
1000
0001
1000
0000
,
0010
1000
0100
1000
0010
1000
0100
1000
,
0010
0010
0010
0010
0100
0001
0100
1000
,
0100
0010
1000
0100
0010
0010
0001
0001
,
1000
0001
1000
0001
1000
0001
1000
0000
0000
0110
0000
0000
,
1010
0000
0000
1000
0100
0000
0000
0000
1100
0000
0000
0100
0010
0000
0000
0000
,
0011
0000
0000
0001
0100
0000
0000
0000
0101
0000
0000
0100
0010
0000
0000
0000
,
1010
0000
0000
1000
0001
0000
0000
0000
0011
0000
0000
0001
1000
0000
0000
0000
,
0101
0000
0100
0000
0010
0000
1000
0000
0001
0000
0010
0100
0010
0000
0001
1000
,
0020
0000
0031
0010
0100
0010
1000
0100
,
0010
0000
0100
0000
0000
0000
1000
0000
0001
0100
0001
0000
1000
0100
1000
0000
,
0001
0000
0000
0100
0010
0000
0010
0000
0010
0000
0010
0000
1000
0000
1000
0000
,
1001
0000
0000
1100
0000
0000
1001
0000
0201
0000
0000
0000
0301
0000
0010
0000
,
0200
0000
0000
0320
0000
0000
0032
0000
,
0000
0000
0103
0000
1000
0200
0000
0310
,
1000
0001
0010
0200
0000
0000
0302
0000
,
0000
0000
0103
0000
1000
0010
0100
0001
,
1000
1100
0001
0101
,
1000
1010
0001
0011
,
1000
1000
0100
0100
0010
0010
0012
0000
,
0000
1000
1000
0000
0100
0000
2003
3000
,
0220
0000
0000
0000
,
0000
0000
0000
0330
,
1010
0000
0000
1010
0000
0000
1010
0000
0000
1010
0000
1000
,
0001
0000
0000
0011
0000
0000
0011
0000
0000
1000
0000
1000
,
0001
0101
0101
0101
,
1001
0000
0000
1100
0000
0000
1100
0000
1000
0001
0000
0001
,
1000
1100
1100
1100
,
1000
0000
0000
0010
0000
0000
0100
0000
0000
0001
0000
0000
1000
0001
1000
0000
,
0001
0010
0100
1000
0001
0010
0100
1000
,
0001
0000
0100
0000
0010
0000
1000
0000
0001
0000
1000
0100
0000
1000
0001
0000
,
1000
0010
0100
0001
1000
0010
0100
0001
,
1000
0000
0000
0100
0000
0000
0010
0000
0000
0001
0000
0000
1000
0000
0000
0100
0000
0000
1000
0000
0000
0000
0001
0000
,
0100
0001
0010
0001
0100
0001
0010
0001
,
0100
0000
0000
0100
0000
0000
0100
0000
0000
0100
0000
0000
0010
0000
0000
0000
1000
0000
0001
0000
0000
0000
0000
0000
,
0100
0001
0010
1000
0010
0010
0100
0100
,
1000
0000
1000
0000
0002
0000
0000
0000
1003
0010
1000
0010
1000
0000
0000
0000
,
0200
0000
0000
1300
0010
0000
0100
0000
0001
0000
0010
0000
0100
0000
1000
0000
,
0001
0000
0000
0100
0010
0000
1000
0000
0001
0000
1000
0000
0100
0000
0010
0000
,
0001
0000
0000
1000
0010
0000
1000
0000
0100
0000
0010
0000
0100
0000
0100
0000
,
1000
0000
1000
0000
0010
0000
1000
0000
0001
0000
0000
0001
1000
0000
0000
0000
,
0001
0000
0000
0100
0010
0000
0100
0000
1000
0000
0100
0000
0001
0000
0010
0000
,
0100
0000
0000
0001
0100
0000
0010
0000
0100
0000
1000
0000
0010
0000
0100
0000
,
0001
0000
0000
0010
0100
0000
0010
0000
1000
0000
0010
0000
0001
0000
0100
0000
,
0020
0030
0000
0020
0030
0000
0020
0030
0200
0000
0302
0000
2003
0000
3200
0000
,
0310
0000
0100
1000
0000
0001
0100
0020
,
0000
0000
0130
0001
2000
0000
0000
0000
3100
0000
0010
0000
0001
0000
1000
0000
,
0010
0000
0000
0000
1000
0100
0010
0000
0000
0000
0100
0000
1000
0000
0002
0000
,
0000
0000
0103
0000
0010
0000
0100
0001
1000
0000
0000
1001
0000
0000
1000
0000
,
0010
0000
0010
0000
0010
0000
0010
0000
0100
0000
0000
0101
0000
0000
0001
0000
,
1000
1000
1000
1000
0100
1000
0001
0010
,
0100
0000
0000
0001
0000
0000
0100
1000
0001
0000
0000
0100
0000
0000
2000
0000
,
0100
0000
0001
0000
3100
0100
0010
0010
,
1000
0000
0100
0000
0010
0000
0000
0000
0100
0000
0000
0001
0000
0000
0100
0000
,
1000
0000
0010
0000
0100
0000
0000
0000
0010
0000
0000
0001
0000
0000
0010
0000
,
1000
0000
0001
0000
0010
0000
0000
0000
1000
0000
0000
0010
0000
0000
0001
0000
,
0100
0000
0100
0000
0010
0000
0100
0000
1000
0000
0100
0000
0001
0000
0010
0100
,
0020
0000
0030
0000
;

//---------------dance-single - t7r----------------
#NOTES:
     dance-single:
     t7r:
     Hard:
     16:
     :
0000
0000
0000
0000
,
0000
0000
0000
0000
,
0000
0000
0000
0000
,
0000
0000
0000
0000
,
0000
0000
0000
0000
,
1100
0000
0000
0100
1000
0000
0001
0000
1000
0100
0000
0000
1100
0000
0000
0000
,
0011
0000
0000
0010
0001
0000
1000
0000
0001
0010
0000
0000
0011
0000
0001
1000
,
0100
0000
0100
0000
0010
0000
0010
0000
0001
0100
0001
0100
0010
1000
0010
1000
,
0001
0000
0010
0000
0010
0000
0010
0000
0001
1000
0001
1000
0010
0000
0100
0000
,
0201
0000
0000
0000
1300
0100
0000
0010
0100
0000
0001
0000
1000
0100
0010
0001
,
1000
0000
0000
0000
1100
0000
0000
0000
1000
0010
0100
0000
0001
0010
0100
1000
,
0020
0000
0000
0000
0031
0010
0000
0100
0010
0000
1000
0000
0001
0010
0100
1000
,
0001
0000
0000
0000
0011
0000
0000
0000
1000
0100
0000
1000
0001
0000
0001
0000
,
0021
0000
0000
0000
1030
0010
0000
0100
0010
0000
0001
0000
1000
0010
0100
0001
,
1000
0000
0000
0000
1010
0000
0000
0000
1000
0100
0010
0000
0001
0100
0010
1000
,
0200
0000
0000
0000
0301
0100
0000
0010
0100
0000
1000
0001
0010
0000
0010
0000
,
0022
0033
0000
2002
3003
0000
1020
0000
0130
0001
1000
0000
0100
0010
0001
1000
,
0020
0000
0000
0130
0001
0000
0100
0000
0110
0000
0000
0010
1000
0000
0100
0000
,
0002
0000
0103
0010
0001
0100
0001
0100
0010
0000
0000
0100
0001
0000
0100
0010
,
2000
0000
0000
3100
0010
0000
0100
0000
0110
0000
0000
0010
0001
0000
0100
0000
,
2000
0000
3100
0010
1000
0010
1000
0000
0100
0010
0001
1000
0010
0100
0001
1000
,
0001
0010
0100
0001
1000
0010
0100
1000
,
0001
0000
0100
0000
0100
0000
0100
0000
1000
0000
0100
0010
0100
0001
1000
0001
,
1000
0000
0100
0000
0010
0000
0010
0000
0001
0000
0001
0000
0100
0010
0100
0000
,
0001
0000
0000
0000
0010
0000
0000
0000
1000
0000
0000
0000
0001
0000
0000
0000
0100
0000
0000
0000
1000
0000
0000
0000
0010
0000
0000
0000
0000
0000
0100
0000
0000
0010
0000
0000
1000
0000
0000
0000
0000
0000
0001
0000
0000
0000
0000
0000
,
1001
0000
0000
1000
0100
0000
1000
0000
0001
1000
0000
0000
1001
0000
0001
0100
,
0010
0000
0000
1000
0010
0000
0100
0000
0010
1000
0000
0000
1010
0000
1000
0010
,
0100
0000
0000
0001
0010
0000
0100
0000
0010
0001
0000
0000
1001
0000
1000
0001
,
0100
0000
0100
0000
1000
0000
0200
0000
0310
0000
0100
0001
0010
0100
1000
0001
,
0020
0000
0000
0000
0031
0100
0010
1000
0001
0010
0100
1000
0100
0010
0001
0100
,
0010
0000
2000
0000
3001
0000
0100
0001
1000
0100
0010
0001
0100
0010
1000
0001
,
1000
0100
0010
0100
1000
0100
0010
0100
1000
0010
0100
0010
1000
0010
0100
0010
,
1000
0000
0000
1001
0000
0000
0101
0000
0001
0000
0010
0000
0100
0000
1000
0000
,
0002
0000
0103
0020
0000
0031
0020
0000
,
0130
0000
0002
0000
1003
0100
0000
0100
,
0010
1000
0010
0200
0000
0310
0002
0000
,
0103
0000
0020
0000
0031
0010
0100
0010
,
1000
0000
0100
0000
0010
0000
1000
0010
1000
0000
0010
0000
0100
0000
0010
0001
,
1000
0000
0010
0000
0100
0000
1000
0100
1000
0000
0100
0000
0010
0000
1000
0001
,
0010
0010
0010
0010
0100
0100
0120
0000
,
0000
1000
1000
1000
0100
0100
0032
0003
,
2002
0000
0000
0000
,
0000
0000
0000
3003
,
1100
0000
0000
0110
0000
0000
0011
0000
0000
1001
0000
0001
,
0100
0000
0000
1100
0000
0000
0101
0000
0000
0001
0000
0001
,
1000
0110
1100
1001
,
1010
0000
0000
0011
0000
0000
1010
0000
1000
0100
0000
0100
,
1000
0000
0000
0100
0000
0000
0010
0000
0000
0100
0000
0000
1000
0000
0000
0010
0000
0000
0100
0000
0000
0000
0010
0000
,
0001
0000
0000
0011
0000
0000
0110
0000
0000
1010
0000
0000
1000
0100
0010
0001
,
1000
0000
0100
0010
0100
0000
0001
0000
1000
0000
0010
0100
0010
0000
0001
0000
,
1000
0000
0010
0100
0010
0000
0001
0000
1000
0000
0100
0010
0000
0010
0100
0000
,
0001
0000
0010
0100
0010
0000
1000
0000
0001
0000
0100
0010
0100
0000
1000
0000
,
0001
0000
0000
0000
0000
0000
0100
0000
0000
0010
0000
0000
0100
0000
0000
0000
0000
0000
1000
0000
0000
0000
0000
0000
0001
0000
0000
0000
0000
0000
0010
0000
0000
0000
0000
0000
0110
0000
0000
0000
0000
0000
0000
0000
1000
0000
0000
0000
,
0001
0000
0010
0001
1000
0000
0001
0000
1000
0000
0010
1000
0001
0000
1000
0000
,
0010
0000
0000
0000
0000
0000
0100
0000
0000
0001
0000
0000
1000
0000
0000
0000
0000
0000
1000
0000
0000
0000
0000
0000
0100
0000
0000
0000
0000
0000
0000
0000
0010
0000
0000
0000
0001
0000
0000
0000
0000
0000
0000
0000
0100
0000
0000
0000
,
1000
0100
0010
1000
0001
0010
0100
0001
,
1000
0000
0010
0000
0010
0000
0010
0000
0001
1000
0001
1000
0010
0000
0100
0000
,
0120
0000
0000
1030
0010
0000
0100
0000
0001
0000
0010
0100
1000
0000
0001
0000
,
0100
0000
0010
1000
0001
0000
0010
0000
0100
0000
0010
0001
1000
0000
0001
0000
,
2001
0000
0000
3100
0010
0000
0001
0000
0100
0000
0010
1000
0001
0000
1000
0000
,
0100
0000
0100
0000
0010
0000
0100
0000
1000
0010
0000
0100
0001
0000
1000
0000
,
0020
0000
0000
0031
0010
0000
0100
0000
0010
0000
1000
0100
0010
0000
0100
0000
,
0001
0000
0100
0010
0100
0000
1000
0000
0010
0000
0100
1000
0100
0000
0010
0000
,
0100
0000
0001
0000
0010
0000
0100
0001
0100
0000
0010
0000
0001
0000
0001
0000
,
0022
0033
0000
0022
0033
0000
0012
0000
2003
0000
3010
0100
0010
0000
1000
0000
,
0100
0010
0100
0002
0103
1000
0010
0200
,
1000
0000
0310
0100
0002
0000
0010
0000
2003
0000
3020
0000
0230
0000
0302
0000
,
0103
0000
0010
0000
0100
1000
0100
0000
0010
0000
0100
0000
0001
0000
0020
0000
,
1000
0000
0230
0000
0320
0000
0031
0100
0010
0000
0000
0110
0000
0000
1010
0000
,
0010
0000
0010
0000
0010
0000
0010
0000
0110
0000
0000
1001
0000
0000
0101
0000
,
0001
0000
0010
0100
0010
0000
1000
0000
0010
0000
0001
0100
0010
1000
0001
0000
,
1000
0000
0000
1010
0000
0000
0010
0100
0010
0000
0001
0010
0000
1000
0002
0000
,
1000
0000
1000
0000
0100
0000
0103
0000
0001
0010
0001
0010
0100
1000
0100
1000
,
0020
0000
0000
1030
0100
0000
0001
0000
0101
0000
0000
0101
0000
0000
0101
0000
,
0001
0000
0100
0000
1000
0000
0010
0000
1010
0000
0000
1010
0000
0000
1010
0000
,
0020
0000
0001
0000
0000
0000
0130
0000
1100
0000
0000
1100
0000
0000
1100
0000
,
0100
0000
0100
0000
0010
0000
0110
0000
0001
0000
0001
0000
0010
0100
1000
0001
,
0020
0000
0030
0000
;

//---------------dance-double - t7r----------------
#NOTES:
     dance-double:
     t7r:
     Easy:
     10:
     :
00000000
00000000
00000000
00000000
,
00000000
00000000
00000000
00000000
,
00000000
00000000
00000000
00000000
,
00000000
00000000
00000000
00000000
,
00000000
00000000
00000000
00000000
,
10000000
01000000
00100000
01000000
,
10000000
00100000
00010000
00001000
,
00010000
00000000
00010000
00000000
00001000
00010000
00001000
00000000
,
00000020
00000000
00000130
00001000
,
00000010
00001001
00000001
00000100
,
00002000
00003000
00002000
00003000
00010000
00001000
00010000
00000000
,
01000000
10000000
00100000
01000000
,
00020000
00030000
00020000
00030000
10000000
00000000
01000000
01000000
,
00010000
00001000
00010000
00000010
,
00000200
00000300
00000200
00000300
00000001
00000000
00000010
00000000
,
00000100
00010000
00001000
00010000
,
01000000
00000000
00000000
01000000
00000000
00000000
01000000
00000000
00100000
00000000
00000000
00000000
00010000
00000000
00000000
00000000
,
10000000
00100000
10010000
00000000
,
10000000
01000000
00010000
00001000
,
00000100
00000010
00001001
00000000
,
00000001
00000010
00001000
00000000
,
00100000
00000000
00100000
00000000
00010000
01000000
00010000
00000000
,
10000000
10000000
10000000
00000000
01000000
00000000
00010000
00001000
,
00010000
00000000
00001000
00000000
00000100
00000010
00000100
00000000
,
00000001
00000000
00001000
00000000
00000100
00000000
00020000
00000000
00000000
00031000
00000000
00000000
,
00011000
01000000
00011000
00000000
,
00011000
00000100
00011000
00000000
,
00011000
00100000
00011000
00000000
,
00011000
00000000
00000010
00000000
00000200
00000000
00000301
00000010
,
00000002
00000000
00000013
00000000
00000100
00001000
00000001
00000000
,
00000100
00001000
00000000
00001000
00010000
00000000
00001000
00000000
,
00010000
00000000
01000000
00000000
00100000
01000000
10000000
00000000
,
00100000
00000000
00000000
00100000
00000000
00000000
00100000
00000000
00010000
00000000
00000000
00000000
00001000
00000000
00000000
00000000
,
00022000
00000000
00000000
00000000
,
00000000
00000000
00000000
00000000
,
00033000
00000000
00000000
00000000
,
00000000
00000000
00000000
00000000
,
00001000
00000010
00000001
00000100
,
00001000
00010000
00100000
10000000
,
01000000
00100000
00000000
00001000
00010000
00000000
00021000
00000000
,
00000000
01000000
01000000
00000000
00031000
00000000
00011000
00000000
,
00002000
00000000
00000000
00000000
,
00000000
00000000
00000000
00003100
,
00000001
00000010
00000011
00000010
,
00000001
00001000
00001001
00000000
,
00000100
00010000
00010100
00010000
,
00001000
00010000
00011000
00000000
,
00001000
01000000
01010000
00010000
,
10000000
00000000
00000000
00010000
00000000
00000000
10000000
00000000
00000000
00010000
00000000
00000000
00000000
00000000
00000000
00000000
,
10000000
00100000
00010000
00001000
,
00000010
00000001
00001001
00000000
,
00000001
00000010
00001000
00010000
,
00100000
10000000
10010000
00000000
,
10000000
00000000
01000000
00000000
00010000
00001000
00010000
00000000
,
00001000
00000100
00000101
00000001
,
00000010
00000000
00000000
00001000
00000000
00000000
00010000
00000000
,
00012000
00000100
00013000
00000000
,
00001000
00000000
00011000
00000000
00010000
00000000
01000000
10000000
,
00010000
00000000
01000000
00000000
00100000
00000000
10000000
00010000
,
10000000
00000000
00100000
00000000
00010000
00000000
00001000
00010000
,
00002000
00000100
00013000
00001000
,
00010000
00000000
00001000
00000000
00000100
00000000
00000010
00000100
,
00000001
00000000
00000010
00000000
00000100
00000000
00010000
00001000
,
01000000
00000000
00010000
00000000
00100000
00000000
01000000
00100000
,
00001000
00000000
00000000
00001000
00000000
00000000
00001000
00000000
00010000
00000000
00000000
00000000
00001000
00000000
00000000
00000000
,
00000010
00000000
00000110
00000000
00000001
00000000
00000100
00000020
,
00000000
00000130
00000001
00000000
00001000
00000000
00000100
00000000
,
00010000
00000000
00001000
00010000
00000000
00100000
10000000
00020000
,
00000000
01030000
00100000
00000000
10000000
00000000
01000000
00000000
,
00020000
00000000
00000000
00000000
00000000
00000000
00000000
00000000
00031000
00000000
00000000
00001000
00000000
00000000
00001000
00000000
,
00000200
00000000
00001000
00000000
00000310
00000100
00000001
00000000
,
00000010
00000000
00000000
00000010
00000000
00000000
00001000
00000000
00010000
00000000
00000000
00001000
00000000
00000000
00020000
00000000
,
00000100
00000000
00000100
00000000
00031000
00001000
00010000
00000000
,
00011000
00000000
00000000
00000000
01000000
00000000
00000000
00000000
00011000
00000000
00000000
00001000
00000000
00000000
00000000
00000000
,
00011000
00000000
00000000
00000000
00000100
00000000
00000000
00000000
00011000
00000000
00000000
00010000
00000000
00000000
00000000
00000000
,
00011000
00000000
00000000
00000000
00100000
00000000
00000000
00000000
00011000
00000000
00000000
00010000
00000000
00000000
00001000
00000000
,
00000010
00000000
00000001
00000100
00000000
00001000
00010000
00000000
,
00022000
00000000
00033000
00000000
;

//---------------dance-double - t7r----------------
#NOTES:
     dance-double:
     t7r:
     Medium:
     14:
     :
00000000
00000000
00000000
00000000
,
00000000
00000000
00000000
00000000
,
00000000
00000000
00000000
00000000
,
00000000
00000000
00000000
00000000
,
00000000
00000000
00000000
00000000
,
00000100
00010000
00011000
00001000
,
01000000
00001000
00011000
00010000
,
00000100
00000100
00001000
00001000
00000001
00000001
00000100
00000010
,
00020000
00000000
00000000
00000000
00031000
00010000
01000000
10000000
,
00100000
00000000
10100000
00000000
10000000
01000000
00100000
00010000
,
02000000
03000000
02000000
03000000
00010000
00100000
00001000
00010000
,
00000010
00000000
00000100
00000001
00000010
00000100
00001000
00000001
,
00000200
00000000
00000300
00000000
00000200
00000000
00000300
00000000
00000010
00000000
00000000
00010000
00001000
00000000
00001000
00000000
,
00010000
00000000
01000000
10000000
00100000
01000000
00100000
10000000
,
00020000
00030000
00020000
00030000
01000000
00001000
00010000
00000100
,
00001000
00000000
00000000
00000000
00000010
00000000
00000100
00000000
00000001
00000000
00000000
00000010
00000100
00000000
00010000
00000000
,
00002000
00003000
00000000
00002000
00003000
00000000
00002000
00003000
00010000
00000000
00100000
00000000
01000000
00000000
00100000
00000000
,
10000000
00000000
00000000
01000000
00100000
00000000
01000000
00000000
10000000
00000000
00000000
00100000
01000000
00000000
00010000
00000000
,
00100000
00001000
00010000
00000000
00001000
00010000
00000010
00000000
,
00000100
00000000
00000000
00000001
00000010
00000000
00000100
00000000
00000010
00000000
00000000
00000001
00000100
00000000
00001000
00000000
,
00010000
01000000
10000000
00100000
01000000
00010000
10000000
01000000
,
00010000
00001000
00010000
00000100
00001000
00000010
00000100
00000001
,
00000010
00000000
00000010
00000000
00000010
00000000
00000010
00000000
00000100
00000000
00010000
00001000
00010000
00000000
00001000
00000000
,
00010000
00100000
10000000
00100000
01000000
01000000
00010000
00100000
,
00001000
00000000
00010000
00000000
00001000
00000000
00010000
00000000
00001000
00000000
00010000
00000000
00001000
00000000
00000000
00000010
00000000
00000000
00000001
00000000
00000000
00000100
00000000
00000000
,
00000010
00000000
00000000
00001000
00000100
00000000
00010000
00000000
00001000
00000000
00000000
01000000
00010000
00000000
10000000
00000000
,
01000000
00000000
00000000
00100000
00010000
00000000
10000000
00000000
00100000
00000000
00000000
00010000
00001000
00000000
00010000
00000000
,
00000100
00000000
00000000
00001000
00000010
00000000
00000100
00000000
00000001
00000000
00000000
00000010
00000100
00000000
00001000
00000000
,
00000001
00000100
00000100
00000100
00001000
00010000
01000000
10000000
,
00200000
00000000
10300000
01000000
00100000
01000000
00010000
01000000
,
10000000
00100000
00000000
00010000
00001000
00000010
00000100
00000010
,
00000001
00000100
00001000
00001000
00010000
01000000
10000000
10000000
,
00100000
00000000
00000000
00010000
00000000
00000000
00001000
00000000
00021000
00000000
00000000
00000000
00030100
00000000
00001000
00000000
,
00000002
00000000
00000000
00000203
00000000
00000000
00002300
00000000
,
00000000
00000000
00013000
00000000
01000000
10000000
00000000
10000000
,
00100000
00000000
00010000
00002000
00000000
00000000
00023000
00000000
,
00000000
00000000
00031000
00000000
00000100
00000001
00001000
00000001
,
00000010
00001100
00000100
00011000
,
00001000
01010000
00010000
10100000
,
10000000
10000000
01000000
01000000
00010000
00010000
00012000
00000000
,
00000000
00000100
00000100
00000000
01003000
00000000
00020000
00030000
,
20020000
00000000
00000000
00000000
,
00000000
00000000
00000000
30030000
,
11000000
00000000
00000000
11000000
00000000
00000000
11000000
00000000
00000000
01000000
00000000
00010000
,
00001000
00010000
00022000
00033000
,
00001100
00001100
00001100
00001100
,
00000110
00000000
00000000
00000110
00000000
00000000
00000110
00000000
00010000
00000100
00000000
00000000
,
00011000
00011000
00011000
00011000
,
00010000
00000000
00000000
01000000
00000000
00000000
00010000
00000000
00000000
00001000
00000000
00000000
00000100
00000010
00000100
00000000
,
00000001
00000010
00000100
00001000
00010000
00100000
01000000
00000000
,
10000000
00000000
00100000
00000000
01000000
00000000
00010000
00000000
00001000
00000000
00000010
00000100
00000000
00000001
00001000
00000000
,
00000001
00000100
00000010
00001000
00010000
01000000
00100000
00000000
,
10000000
00000000
00000000
01000000
00000000
00000000
00100000
00000000
00000000
00010000
00000000
00000000
00001000
00000000
00000000
00000100
00000000
00000000
00001000
00000000
00000000
00000000
00000001
00000000
,
00001000
00000010
00000100
00000100
00000001
00000010
00000100
00000100
,
00001000
00000000
00000000
00000100
00000000
00000000
00010000
00000000
00000000
00010000
00000000
00000000
00001000
00000000
00000000
00000000
01000000
00000000
00010000
00000000
00000000
00000000
00000000
00000000
,
10000000
01000000
00100000
00001000
00010000
00010000
00001000
00001000
,
00000100
00000000
00000010
00000000
00000200
00000000
00000000
00000000
00000301
00001000
00000001
00001000
00000001
00000000
00000000
00000000
,
00000010
00000000
00001001
00000000
00000001
00000010
00000001
00000100
,
00001000
00000000
00000000
00010000
00001000
00000000
00000000
00000000
00010000
00000000
01000000
00000000
10000000
00000000
00010000
00000000
,
01000000
00000000
00000000
00100000
10000000
00000000
00000000
00000000
01000000
00000000
00010000
00000000
00001000
00000000
00010000
00000000
,
00000100
00000000
00000100
00000000
00001000
00000000
00000010
00000000
00000100
00000000
00000000
00000001
00001000
00000000
00000001
00000000
,
00000010
00000000
00000000
00000100
00000010
00000000
00000010
00000000
00000001
00000000
00000100
00000000
00001000
00000000
00010000
00000000
,
00001000
00000000
00000000
00010000
01000000
00000000
01000000
00000000
00100000
00000000
01000000
00000000
10000000
00000000
00100000
00000000
,
01000000
00000000
00000000
10000000
01000000
00000000
01000000
00000000
00100000
00000000
01000000
00000000
00010000
00000000
00100000
00000000
,
00002000
00003000
00000000
00002000
00003000
00000000
00002000
00003000
00000200
00000000
00000302
00000000
00002003
00000000
00003200
00000000
,
00000310
00000000
00000001
00000100
00000000
00000001
00000010
00000200
,
00000000
00000000
00010300
00001000
00020000
00000000
00000000
00000000
00031000
00000000
00010000
00000000
01000000
00000000
10000000
00000000
,
00100000
00000000
00000000
00000000
01000000
00010000
10000000
00000000
00000000
00000000
01000000
00000000
00010000
00000000
00002000
00000000
,
00000000
00000000
00003100
00000000
00000010
00000000
00000100
00000000
00000001
00000000
00000000
00000011
00000000
00000000
00000001
00000000
,
00001000
00000000
00001000
00000000
00001000
00000000
00001000
00000000
00000100
00000000
00000000
00010100
00000000
00000000
00000100
00000000
,
00010000
00010000
00010000
00010000
00001000
00010000
00100000
10000000
,
00010000
00000000
00000000
10000000
00000000
00000000
01000000
00100000
00001000
00000000
00000000
00010000
00000000
00000000
00002000
00000000
,
00000100
00000000
00000000
00000100
00000000
00000000
01000000
00000000
01003000
00000000
00000000
00000000
00100000
00000000
01000000
00000000
,
00010000
00000000
00100000
00000000
01000000
00000000
00000000
00000000
10000000
00000000
00000000
00100000
00000000
00000000
00010000
00000000
,
00001000
00000000
00000010
00000000
00000100
00000000
00000000
00000000
00000010
00000000
00000000
00000001
00000000
00000000
00001000
00000000
,
00000001
00000000
00000100
00000000
00000000
00000000
00001000
00000000
00010000
00000000
00000000
01000000
00000000
00000000
00100000
00000000
,
01000000
00000000
01000000
00000000
10000000
00000000
00100000
00000000
00010000
00000000
00001000
00000000
00000010
00000100
00000010
00000000
,
00000002
00000000
00000003
00000000
;

//---------------dance-double - t7r----------------
#NOTES:
     dance-double:
     t7r:
     Hard:
     16:
     :
00000000
00000000
00000000
00000000
,
00000000
00000000
00000000
00000000
,
00000000
00000000
00000000
00000000
,
00000000
00000000
00000000
00000000
,
00000000
00000000
00000000
00000000
,
00001001
00000000
00000000
00000001
00000100
00000000
00000001
00000000
00001000
00000001
00000000
00000000
00001001
00000000
00000000
00000000
,
00001100
00000000
00000000
00000100
00010000
00000000
00001000
00000000
00010000
00001000
00000000
00000000
00011000
00000000
00001000
01000000
,
00010000
00000000
00010000
00000000
10000000
00000000
10000000
00000000
00100000
01000000
00100000
01000000
00010000
00100000
00010000
00100000
,
00001000
00000000
00010000
00000000
00010000
00000000
00010000
00000000
00001000
00010000
00001000
00010000
00000010
00000000
00000100
00000000
,
00000201
00000000
00000000
00000000
00001300
00000100
00000000
00000010
00000100
00000000
00000001
00000000
00000010
00000000
00000100
00000000
,
00010000
00001000
00000000
00000000
00000100
00000001
00000000
00000000
00000010
00000100
00010000
00000000
00001000
00010000
00001000
00010000
,
02000000
00000000
00000000
00000000
03010000
01000000
00000000
00100000
01000000
00000000
10000000
00000000
00100000
00000000
01000000
00000000
,
00001000
00010000
00000000
00000000
00100000
10000000
00000000
00000000
00100000
01000000
00001000
00010000
00001000
00000000
00011000
00000000
,
00020000
00000000
00000000
00000000
00031000
00000100
00000000
00000010
00000100
00000000
00000010
00000000
00001000
00000100
00000010
00000000
,
00001000
00010000
00000000
00000000
01000000
10000000
00000000
00000000
00100000
01000000
00010000
00000000
10000000
01000000
00100000
00001000
,
00020000
00000000
00000000
00000000
00031000
00000010
00000000
00000001
00001000
00000000
00000001
00000100
00000010
00000000
00001000
00000000
,
00000100
00000000
00010000
00001000
01000000
00000000
00001000
00000000
00010000
01000000
10000000
00000000
00100000
01000000
00010000
00000000
,
10000000
00000000
01000000
00010000
01000000
00000000
00010000
00000000
00001000
00000000
00000000
00010000
00001000
00000000
00000100
00000000
,
00000002
00000000
00000023
00000000
00000031
00000100
00000001
00000100
00000001
00000000
00001000
00000100
00010000
00000000
00001000
00000000
,
00010000
00000000
01000000
00100000
01000000
00000000
10000000
00000000
00100000
00000000
01000000
00010000
10000000
00000000
01000000
00000000
,
00020000
00000000
00031000
00010000
00000100
00010000
00001000
00000000
00000100
00000010
00000100
00000001
00001000
00000100
00010000
00001000
,
00010000
01000000
10000000
00100000
00010000
00001000
00000010
00000001
,
00000100
00000000
00000100
00000000
00000100
00000000
00000100
00000000
00001000
00000000
00010000
00001000
01000000
00010000
10000000
00010000
,
00100000
01000000
10000000
10000000
00100000
00010000
00001000
00001000
,
00000010
00000000
00000000
00000000
00000001
00000000
00000000
00000000
00000100
00000000
00000000
00000000
00001000
00000000
00000000
00000000
00010000
00000000
00000000
00000000
00001000
00000000
00000000
00000000
00010000
00000000
00000000
00000000
00000000
00000000
01000000
00000000
00000000
00100000
00000000
00000000
00010000
00000000
00000000
00000000
00000000
00000000
10000000
00000000
00000000
00000000
00000000
00000000
,
10010000
00000000
00000000
10000000
01000000
00000000
10000000
00000000
00010000
01000000
00000000
00000000
01010000
00000000
00000000
00000000
,
00110000
00000000
00000000
00010000
00100000
00000000
00001000
00000000
00100000
00001000
00000000
00000000
00011000
00000000
00010000
00000010
,
00001000
00000000
00000000
00000100
00000010
00000000
00000100
00000000
00001000
00000001
00000000
00000000
00000101
00000000
00000000
00000000
,
00000001
00000000
00000001
00000000
00000100
00000000
00002000
00000000
00013000
00000000
01000000
10000000
00100000
01000000
00010000
10000000
,
02000000
00000000
00000000
00000000
03010000
00001000
00010000
00000000
00001000
00010000
00001000
00000000
00000100
00000010
00000100
00000001
,
00001000
00000000
00000200
00000000
00001300
00000000
00000010
00000100
00000001
00000010
00000100
00010000
00001000
01000000
00010000
00000000
,
10000000
00100000
10000000
00100000
01000000
00010000
01000000
00010000
00100000
00001000
00100000
00001000
00010000
00001000
00010000
00001000
,
00000100
00000000
00000000
00000110
00000000
00000000
00000101
00000000
00000001
00000000
00000010
00000000
00001000
00000000
00010000
00000000
,
00002000
00000000
00013000
02000000
00000000
03100000
02000000
00000000
,
13000000
00100000
02000000
00000000
13000000
01000000
00000000
01000000
,
00010000
00100000
00001000
00020000
00000000
00030010
00002000
00000000
,
00003100
00000000
00000020
00000000
00000031
00000100
00001000
00010000
,
00001000
00000000
01001000
00000000
00001000
00000000
00011000
00010000
,
00000100
00000000
00010100
00000000
00010000
00000000
00011000
00001000
,
00010000
00010000
01000000
01000000
10000000
00100000
01200000
00000000
,
00000000
00010000
00010000
00010000
01000000
01000000
20300000
30000000
,
20020000
00000000
00000000
00000000
,
00000000
00000000
00000000
30030000
,
11000000
00000000
00000000
11000000
00000000
00000000
11000000
00000000
00000000
01100000
00000000
00100000
,
00001000
00000000
00000000
00011000
00000000
00000000
00011000
00000000
00000000
00010000
00000000
00010000
,
00000010
00000110
00000110
00000101
,
00001100
00000000
00000000
00001001
00000000
00000000
00001001
00000000
00000001
00001000
00000000
00000100
,
00010000
00000000
00000000
00011000
00000000
00000000
00011000
00000000
00000000
00011000
00000000
00010000
,
01000000
00000000
00000000
11000000
00000000
00000000
10000000
00000000
00000000
10100000
00000000
00000000
00100000
01000000
00001000
00010000
,
00001000
00000000
00000100
00000000
00000001
00000000
00001000
00000100
00010000
00000000
01000000
00000000
10000000
00000000
00010000
01000000
,
00001000
00000000
00000100
00000000
00000001
00000000
00001000
00000100
00010000
00000000
01000000
00100000
00000000
00001000
00010000
00000000
,
00001000
00000000
00000010
00000000
00000001
00000000
00001000
00000010
00010000
00000000
00100000
00000000
10000000
00000000
00010000
00100000
,
00001000
00000000
00000000
00000000
00000000
00000000
00000010
00000000
00000000
00000000
00000000
00000000
00000001
00000000
00000000
00000000
00000000
00000000
00001000
00000000
00000000
00000010
00000000
00000000
00010000
00000000
00000000
00000000
00000000
00000000
00100000
00000000
00000000
00000000
00000000
00000000
01100000
00000000
00000000
00000000
00000000
00000000
00000000
00000000
01000000
00000000
00000000
00000000
,
00010000
00010000
10000000
10000000
00010000
00010000
00001000
00001000
,
00000001
00000000
00000000
00000001
00000000
00000000
00001000
00000000
00000000
00001000
00000000
00000000
00010000
00000000
00000000
00000000
10000000
00000000
00010000
00000000
00000000
00000000
00010000
00000000
,
10000000
01000000
00100000
10000000
00010000
00001000
00000100
00000010
,
00000100
00000000
00000001
00000000
00000001
00000000
00000010
00000100
00001000
00000100
00001000
00000100
00010000
00000000
00001000
00000000
,
00021000
00000000
00000000
01030000
00100000
00000000
01000000
00000000
10000000
00000000
00100000
01000000
00010000
00000000
10000000
00000000
,
01000000
00000000
00100000
00010000
10000000
00000000
00100000
00000000
00010000
00000000
00001000
00000010
00000100
00000000
00000010
00000000
,
00000002
00000000
00000000
00000103
00000010
00000000
00000100
00000000
00001000
00000000
00000100
00000010
00001000
00000000
00000100
00000000
,
00010000
00000000
00010000
00000000
00001000
00000000
00010000
00000000
01000000
10000000
00000000
00100000
01000000
00000000
00010000
00000000
,
00200000
00000000
00000000
01300000
10000000
00000000
00100000
00000000
01000000
00000000
10000000
01000000
10000000
00000000
01000000
00000000
,
00100000
00000000
10000000
00000000
01000000
00000000
00010000
00000000
00001000
00000000
00000100
00000010
00000100
00000000
00000001
00000000
,
00000010
00000000
00000100
00000000
00000001
00000000
00000100
00000000
00000010
00000000
00000100
00001000
00000100
00000000
00010000
00000000
,
00022000
00033000
00000000
00022000
00033000
00000000
00012000
00000000
02003000
00000000
03100000
10000000
00010000
00000000
10000000
00000000
,
01000000
00100000
00010000
20000000
30100000
10000000
01000000
00020000
,
01000000
00000000
00031000
00010000
00002000
00000000
00010000
00000000
00003200
00000000
00000320
00000000
00000230
00000000
00000302
00000000
,
00000013
00000000
00000100
00000000
00001000
00000001
00000200
00000000
00000310
00000000
00001000
00000000
00000001
00000000
00000020
00000000
,
00000001
00000000
00000130
00000000
00001000
00000000
00000100
00010000
00001000
00000000
00000000
01000000
00100000
00000000
01100000
00000000
,
10000000
00000000
10000000
00000000
10000000
00000000
10000000
00000000
11000000
00000000
00000000
10010000
00000000
00000000
10000000
00010000
,
01000000
00000000
00010000
01000000
00010000
00000000
00100000
00000000
00001000
00000000
00010000
00001000
00010000
00000100
00010000
00000000
,
00001000
00000000
00000000
00001010
00000000
00000000
00000010
00000001
00001000
00000000
00000001
00000100
00000000
00001000
00020000
00000000
,
01000000
00000000
01000000
00000000
00000100
00000000
00000100
00000000
01030000
00100000
01000000
00100000
00010000
01000000
00010000
01000000
,
00200000
00000000
00000000
10300000
01000000
00000000
00010000
00000000
00011000
00000000
00000000
00010100
00000000
00000000
00011000
00000000
,
00020000
00000000
00000000
00031000
00000100
00000000
00000100
00000000
00000101
00000000
00000000
00000011
00000000
00000000
00001001
00000000
,
00000002
00000000
00000000
00000013
00001000
00000000
00010000
00000000
00011000
00000000
00000000
01001000
00000000
00000000
00011000
00000000
,
00010000
00000000
00010000
00000000
00100000
00000000
01100000
00000000
10000000
00000000
10000000
00000000
01000000
00010000
00001000
00010000
,
00000200
00000000
00000300
00000000
;
