#TITLE:Slapstick Parfait;
#SUBTITLE:;
#ARTIST:t+pazolite;
#TITLETRANSLIT:;
#SUBTITLETRANSLIT:;
#ARTISTTRANSLIT:;
#GENRE:Hard lounge;
#CREDIT:tikal.;
#MUSIC:Slapstick Parfait.ogg;
#BANNER:Slapstick Parfait.png;
#BACKGROUND:Slapstick Parfait-bg.png;
#CDTITLE:cdtitle.png;
#SAMPLESTART:24.067;
#SAMPLELENGTH:24.000;
#SELECTABLE:YES;
#OFFSET:-0.067;
#BPMS:0.000=160.000;
#STOPS:;
#BGCHANGES:;
#FGCHANGES:;

//--------------- dance-single - tikal. ----------------
#NOTES:
     dance-single:
     tikal.:
     Hard:
     13:
     0,0,0,0,0:
0000
0000
0000
0000
,
0000
0000
0000
0000
,
0000
0000
0000
0000
,
0000
0000
0000
0000
,
0102
1003
2100
3001
,
0012
0000
1003
0000
1010
0001
0010
0100
,
1000
1000
0010
0010
0100
0100
0001
0001
,
0000
0000
1000
0000
0100
0000
0010
0000
0200
0000
0000
2000
0000
0000
3300
0000
,
0002
0000
0000
0000
0203
0000
0300
0100
0010
0000
0001
0000
0010
0000
1000
0000
,
0100
0000
0100
0000
0100
0010
0000
0002
0000
0000
0000
0000
1003
0000
0010
0000
,
2000
0000
0000
0000
3200
0000
0300
0100
0010
0000
1000
0000
0010
0000
0001
0000
,
0100
0000
0100
0000
0100
0010
0000
2000
0000
0000
3001
0000
0010
0000
0100
0000
,
2000
0000
0000
0000
3020
0000
0030
0010
0100
0000
1000
0000
0100
0000
0001
0000
,
0010
0000
0010
0000
0010
0100
0000
2000
0000
0000
0000
0000
3010
0000
0100
0000
,
0002
0000
0000
0000
0023
0000
0030
0010
0100
0000
0001
0000
0100
0000
1000
0000
,
0010
0000
0010
0000
0010
0100
0000
0110
0000
0000
1000
0000
0100
0000
0010
0000
,
0002
0000
0103
2000
0100
0000
0001
0000
,
3020
0000
0001
0000
1000
0000
0130
0001
,
2000
0000
3100
0002
0100
0000
1000
0000
,
0023
0000
1000
0000
0031
0010
0100
1000
,
0002
0000
0013
2000
0010
0000
0001
0000
,
3200
0000
0001
0000
1000
0000
0310
0001
,
2000
0000
3010
0002
0010
0000
1000
0000
,
0203
0000
1000
0000
0301
0100
0010
1000
,
0100
0010
1000
0010
0100
1000
0001
1000
,
0010
0100
1000
0100
0001
0010
0100
0000
,
0010
0100
0001
0100
0010
0001
1000
0001
,
0100
0010
0001
0010
1000
0100
0110
0000
,
0001
0010
1000
0010
0100
1000
0001
0001
,
1000
0010
0001
0010
0100
0002
1003
1000
,
0001
0000
0010
0001
0000
0010
0100
0000
1000
0100
0000
1000
0001
0000
0100
0000
,
0010
0010
0100
0100
0001
0001
1000
1000
,
1001
0001
0011
0010
,
1010
1000
1100
0100
,
0101
0001
1000
0000
0011
0001
1000
0000
,
1010
1000
0001
0000
1100
1000
0001
0001
,
0200
2300
3002
0023
,
2030
3200
0302
2003
,
3010
0010
0100
0100
1000
1000
0001
0001
,
0100
0010
0100
0000
0010
1000
0010
0000
1000
0001
1000
0000
0100
1000
0001
0100
,
0020
0000
0000
0130
0100
0010
1000
0001
,
0020
0000
0000
0000
,
0030
0000
0000
0100
0100
0010
0001
1000
,
0020
0000
0000
0200
0000
0000
0000
0000
,
0330
0000
0000
0010
0010
0100
0001
1000
,
0200
0000
0000
0302
0000
0103
1000
0001
,
2000
0000
0000
0000
0000
0000
3010
0000
0010
0000
0000
0100
0000
0000
0020
0000
,
0000
0000
0000
0000
0000
0000
1030
0001
0010
0000
0000
0000
0110
0000
0000
0000
,
1000
0100
0010
0100
1000
0100
0010
0001
,
0200
1000
0010
0301
,
1000
0010
0100
0010
1000
0010
0100
0001
,
0020
0000
0100
0032
1000
0000
0103
0000
,
0001
0100
0010
0100
0001
0100
0010
1000
,
0200
0000
0010
2300
0000
3001
0100
0010
,
0200
0000
0000
0000
0000
0000
0301
0000
0001
0000
0000
1000
0000
0000
2002
0000
,
0000
0000
0003
0000
0000
0000
3100
0010
0001
0000
0000
0000
0110
0000
0000
0000
,
1000
0010
0100
0010
1000
0010
0001
0010
,
0100
0001
0010
1000
0010
0001
0100
0010
,
1000
0100
0010
0100
1000
0100
0001
0100
,
0010
0001
0100
1000
0100
0001
0010
0100
,
1000
1000
0100
0010
0001
0001
1000
0010
,
0100
0100
0001
1000
0010
0010
1000
0001
,
0010
0010
0100
0100
1000
1000
0001
0001
,
0100
0000
1000
0000
0001
0000
0010
0000
1000
0000
0100
0010
0001
0000
0001
0000
,
2000
0000
0000
0000
0000
0000
3010
0000
0010
0000
0000
0100
0000
0000
0020
0000
,
0000
0000
0000
0000
0000
0000
1030
0001
0010
0000
0000
0000
1000
0010
0001
0000
,
2000
0000
0000
0000
3020
0000
0030
0010
0100
0000
1000
0000
0100
0000
0001
0000
,
0010
0000
0010
0000
0010
0100
0000
2000
0000
0000
3001
1000
0001
0000
0100
0000
,
0002
0000
0000
0000
0023
0000
0030
0010
0100
0000
0001
0000
0100
0000
1000
0000
,
0010
0000
0010
0000
0010
0100
0000
0002
0000
0000
1003
0001
0100
0000
0010
0000
,
2000
0000
0000
0000
3200
0000
0300
0100
0010
0000
1000
0000
0010
0000
0001
0000
,
0100
0000
0100
0000
0100
0010
0000
2000
0000
0000
3001
1000
0100
0000
0010
0000
,
0002
0000
0000
0000
0203
0000
0300
0100
0010
0000
0001
0000
0010
0000
1000
0000
,
0100
0000
0100
0000
0100
0010
0000
0002
0000
0000
1003
0001
0100
0000
0010
0000
,
1000
0000
0000
0000
0100
0000
0000
0000
1000
0000
0100
1000
0001
0000
0001
0000
,
0100
0000
0000
0000
0001
0000
0100
0001
1000
0000
0100
0000
1000
0001
0100
0000
,
0010
1000
1100
0000
0010
0001
0101
0000
,
1000
0000
0001
0000
0100
0010
1000
0001
1000
0001
0010
0000
0100
0000
0110
0000
;

//--------------- dance-single - tikal. ----------------
#NOTES:
     dance-single:
     tikal.:
     Challenge:
     17:
     0,0,0,0,0:
0000
0000
0000
0000
,
0000
0000
0000
0000
,
0000
0000
0000
0000
,
0000
0000
0000
0000
,
0012
0000
0000
0000
1003
0000
0000
1000
0020
0000
0000
0000
1030
0000
0000
1000
,
0100
0010
0100
0010
0001
0000
1000
0001
0100
0010
1000
0010
0100
0001
0010
0000
,
0100
0100
1000
1000
0010
0010
0001
0001
,
0000
0000
1000
0000
0100
0000
0001
0000
0020
0000
0000
0200
0000
0000
0330
0000
,
2000
0000
0100
0000
3002
0000
0103
0010
2000
0000
3200
0000
0302
0000
0203
0000
,
0310
0000
0010
0000
0010
0001
0000
2000
0000
0000
3010
1000
0010
0000
0100
0000
,
0002
0000
0100
0000
2003
0000
3100
0010
0002
0000
0203
0000
2300
0000
3200
0000
,
0310
0000
0010
0000
0010
1000
0000
0002
0000
0000
0013
0001
0010
0000
0100
0000
,
0020
0000
1000
0000
0230
0000
1300
0010
0200
0000
0302
0000
0023
0000
0032
0000
,
1003
0000
1000
0000
1000
0010
0000
0200
0000
0000
0301
1000
0001
0000
0010
0000
,
0200
0000
0001
0000
0320
0000
0031
0100
0020
0000
2030
0000
3200
0000
2300
0000
,
3001
0000
0001
0000
0001
0100
0000
0110
0000
0000
1000
0000
0010
0000
0100
0000
,
0102
0000
0000
0000
1003
0000
0012
0000
0000
0000
1003
0010
0100
0000
0001
0000
,
0010
0000
0010
0000
0010
0100
0000
2000
0000
3001
1000
0001
1000
0000
0100
0000
,
2100
0000
0000
0000
3001
0000
2010
0000
0000
0000
3001
0010
0100
0000
1000
0000
,
0010
0000
0010
0000
0010
0100
0000
0002
0000
1003
0001
1000
0001
0000
0100
0000
,
0210
0000
0000
0000
0301
0000
0120
0000
0000
0000
1030
0001
0010
0000
0100
0000
,
0001
0000
0001
0000
0001
0100
0000
2000
0000
3001
1000
0001
1000
0000
0010
0000
,
0120
0000
0000
0000
1030
0000
0210
0000
0000
0000
0301
1000
0100
0000
0010
0000
,
1000
0000
1000
0000
1000
0010
0000
0002
0000
1003
0001
0000
0100
0000
0010
0000
,
1010
0000
1000
0000
0100
0010
0100
1000
0010
0100
0010
1000
0001
0000
0010
0000
,
0011
0000
0001
0000
0100
0010
0100
0001
1000
0001
0010
0100
0010
0001
1000
0010
,
0100
0000
0001
0000
0010
0100
0010
0001
0100
0010
0100
0001
1000
0000
0100
0000
,
1100
0000
1000
0000
0010
0100
0010
1000
0001
1000
0100
0010
0100
1000
0001
0100
,
0010
0000
0001
0000
0010
0100
0001
1000
0100
0010
0001
0000
0100
000M
0100
0000
,
0010
0000
1000
0000
0010
0100
1000
0001
0100
0010
4000
0000
3100
M000
0100
0000
,
0001
0100
0010
0001
0010
0100
1000
0100
0010
1000
0010
0100
0001
0010
0100
1000
,
0010
0010
0100
0100
0001
0001
1000
1000
,
1001
0001
0011
0010
,
1010
1000
1100
0100
,
0101
0000
0001
0000
1000
0100
M000
0100
0001
0000
1000
0000
0001
0100
000M
0100
,
1000
0000
0001
0000
1000
0010
M000
0010
0001
0000
1000
0000
0010
1000
0001
1000
,
0200
1000
2300
0001
3002
0100
0203
0010
,
0320
1000
2030
0001
3002
0010
0023
0100
,
0130
0010
0001
1000
0010
0100
0001
1000
,
0100
1000
0010
0100
0001
1000
0001
0010
0100
1000
0001
1000
0010
0100
0001
1000
,
0200
0000
0000
0000
0000
0000
0310
0001
0010
0000
0100
0000
1000
0000
0001
0000
,
0200
0000
0000
0000
,
0300
0000
0000
0000
0000
0000
0010
1000
0010
0000
0100
0000
0001
0000
1000
0000
,
0200
0000
0000
0020
0000
0000
0000
0000
,
0330
0000
0000
0000
0000
0000
0100
1000
0100
0000
0010
0000
0001
0000
1000
0000
,
0020
0000
0000
0032
0000
0013
1000
0001
,
2000
0000
0000
0000
0000
0000
3100
0000
0100
0000
0000
0010
0000
0000
0200
0000
,
0000
0000
0000
0000
0000
0000
1300
0001
0100
0000
0000
0000
0110
0000
0000
0000
,
0001
0000
0010
0000
0100
0000
0010
0001
0010
0000
0100
0000
1000
0000
0001
0000
,
0200
1000
0010
0301
,
1000
0000
0010
0000
0100
0000
0010
1000
0010
0000
0100
0000
0001
0000
1000
0000
,
0200
0000
0001
0320
1000
0000
0130
0000
,
1000
0000
0100
0000
0010
0000
0100
1000
0100
0000
0010
0000
0001
0000
1000
0000
,
0020
0000
0100
0032
0000
0013
1000
0001
,
2000
0000
0000
0000
3001
0000
0100
0000
0101
0000
0000
1010
0000
0000
0201
0000
,
0000
0000
0310
0000
1000
0000
0100
0010
0002
0000
0000
0000
1003
0010
0100
0001
,
0010
0001
0010
0001
0100
0000
0010
0000
1000
0010
1000
0010
0100
0000
0001
0000
,
0100
1000
0100
1000
0100
0000
0010
0000
1000
0000
0001
1000
0100
0000
0010
0000
,
0100
1000
0100
1000
0010
0000
0100
0000
0001
0100
0001
0100
0010
0000
1000
0000
,
0010
0001
0010
0001
0010
0000
0100
0000
0001
0000
1000
0001
0010
0001
1000
0001
,
0100
0010
0100
0001
1000
0000
0001
0100
0000
0100
0001
0100
0010
0000
1000
0100
,
0000
0100
1000
0100
0010
0000
0001
0100
0000
0100
0001
0100
0010
0000
0010
0000
,
1000
1000
0100
0100
0010
0010
0001
0001
,
1000
0001
1000
0010
0100
0001
1000
0001
0010
0100
1000
0001
1000
0010
0100
0001
,
2000
0000
0000
0000
0000
0000
3100
0000
0100
0000
0000
0010
0000
0000
0200
0000
,
0000
0000
0000
0000
0000
0000
1300
0001
0100
0000
0000
0000
1000
0100
0001
0000
,
2000
0000
0010
0000
3002
0000
0013
0100
2000
0000
3020
0000
0032
0000
0023
0000
,
0130
0000
0100
0000
0100
0001
0000
1000
0100
1000
0100
1000
0100
0000
0010
0000
,
0002
0000
0010
0000
2003
0000
3010
0100
0002
0000
0023
0000
2030
0000
3020
0000
,
0130
0000
0100
0000
0100
1000
0000
0001
0100
0001
0100
0001
0100
0000
0010
0000
,
0200
0000
1000
0000
0320
0000
1030
0100
0020
0000
0032
0000
0203
0000
0302
0000
,
1003
0000
1000
0000
1000
0100
0000
0010
0001
0010
0001
1000
0001
0000
0100
0000
,
0020
0000
0001
0000
0230
0000
0301
0010
0200
0000
2300
0000
3020
0000
1030
0000
,
0001
0000
0001
0000
0001
0010
0000
0100
1000
0001
1000
0000
0010
0000
0100
0000
,
0002
0000
0100
0000
0203
0000
0001
0000
0301
0000
0100
0001
2000
0000
0100
0000
,
3200
0000
1000
0000
1300
0000
0100
1000
0001
1000
0010
0000
0100
0001
1000
0001
,
0010
0100
1100
0000
0010
0100
0101
0000
,
1000
0000
0001
0000
0010
1000
0001
0100
1000
0001
0100
0010
1000
0000
1001
0000
;
